  0
SECTION
  2
HEADER
  9
$ACADVER
  1
AC1015
  9
$ACADMAINTVER
 70
    20
  9
$DWGCODEPAGE
  3
ANSI_932
  9
$INSBASE
 10
0.0
 20
0.0
 30
0.0
  9
$EXTMIN
 10
140.1951828291861
 20
278.2818025890471
 30
0.0
  9
$EXTMAX
 10
236.557848037133
 20
369.0746958485501
 30
0.0
  9
$LIMMIN
 10
115.2696222226474
 20
247.1175262532765
  9
$LIMMAX
 10
325.291050794076
 20
395.6175262532765
  9
$ORTHOMODE
 70
     0
  9
$REGENMODE
 70
     1
  9
$FILLMODE
 70
     1
  9
$QTEXTMODE
 70
     0
  9
$MIRRTEXT
 70
     1
  9
$LTSCALE
 40
0.5
  9
$ATTMODE
 70
     1
  9
$TEXTSIZE
 40
1.5
  9
$TRACEWID
 40
1.0
  9
$TEXTSTYLE
  7
STANDARD
  9
$CLAYER
  8
AM_0
  9
$CELTYPE
  6
ByLayer
  9
$CECOLOR
 62
   256
  9
$CELTSCALE
 40
1.0
  9
$DISPSILH
 70
     0
  9
$DIMSCALE
 40
0.5
  9
$DIMASZ
 40
2.5
  9
$DIMEXO
 40
1.0
  9
$DIMDLI
 40
10.0
  9
$DIMRND
 40
0.0
  9
$DIMDLE
 40
0.0
  9
$DIMEXE
 40
1.0
  9
$DIMTP
 40
0.1
  9
$DIMTM
 40
0.1
  9
$DIMTXT
 40
3.5
  9
$DIMCEN
 40
0.0
  9
$DIMTSZ
 40
0.0
  9
$DIMTOL
 70
     0
  9
$DIMLIM
 70
     0
  9
$DIMTIH
 70
     0
  9
$DIMTOH
 70
     0
  9
$DIMSE1
 70
     0
  9
$DIMSE2
 70
     0
  9
$DIMTAD
 70
     3
  9
$DIMZIN
 70
     8
  9
$DIMBLK
  1
Open30
  9
$DIMASO
 70
     1
  9
$DIMSHO
 70
     1
  9
$DIMPOST
  1

  9
$DIMAPOST
  1
"
  9
$DIMALT
 70
     0
  9
$DIMALTD
 70
     2
  9
$DIMALTF
 40
0.0393701
  9
$DIMLFAC
 40
1.0
  9
$DIMTOFL
 70
     1
  9
$DIMTVP
 40
0.0
  9
$DIMTIX
 70
     0
  9
$DIMSOXD
 70
     0
  9
$DIMSAH
 70
     0
  9
$DIMBLK1
  1
Open30
  9
$DIMBLK2
  1
Open30
  9
$DIMSTYLE
  2
AM_JIS
  9
$DIMCLRD
 70
   256
  9
$DIMCLRE
 70
   256
  9
$DIMCLRT
 70
     2
  9
$DIMTFAC
 40
0.71
  9
$DIMGAP
 40
1.5
  9
$DIMJUST
 70
     0
  9
$DIMSD1
 70
     0
  9
$DIMSD2
 70
     0
  9
$DIMTOLJ
 70
     0
  9
$DIMTZIN
 70
     0
  9
$DIMALTZ
 70
     0
  9
$DIMALTTZ
 70
     0
  9
$DIMUPT
 70
     0
  9
$DIMDEC
 70
     2
  9
$DIMTDEC
 70
     3
  9
$DIMALTU
 70
     2
  9
$DIMALTTD
 70
     4
  9
$DIMTXSTY
  7
STANDARD
  9
$DIMAUNIT
 70
     0
  9
$DIMADEC
 70
     0
  9
$DIMALTRND
 40
0.0
  9
$DIMAZIN
 70
     2
  9
$DIMDSEP
 70
    46
  9
$DIMATFIT
 70
     3
  9
$DIMFRAC
 70
     0
  9
$DIMLDRBLK
  1
Open30
  9
$DIMLUNIT
 70
     2
  9
$DIMLWD
 70
    -1
  9
$DIMLWE
 70
    -1
  9
$DIMTMOVE
 70
     0
  9
$LUNITS
 70
     2
  9
$LUPREC
 70
     2
  9
$SKETCHINC
 40
1.0
  9
$FILLETRAD
 40
0.5
  9
$AUNITS
 70
     0
  9
$AUPREC
 70
     0
  9
$MENU
  1
.
  9
$ELEVATION
 40
0.0
  9
$PELEVATION
 40
0.0
  9
$THICKNESS
 40
0.0
  9
$LIMCHECK
 70
     0
  9
$CHAMFERA
 40
0.5
  9
$CHAMFERB
 40
0.5
  9
$CHAMFERC
 40
20.0
  9
$CHAMFERD
 40
0.0
  9
$SKPOLY
 70
     0
  9
$TDCREATE
 40
2453060.746216852
  9
$TDUCREATE
 40
2453060.371216852
  9
$TDUPDATE
 40
2455677.706018252
  9
$TDUUPDATE
 40
2455677.331018252
  9
$TDINDWG
 40
0.5084190972
  9
$TDUSRTIMER
 40
0.5084190972
  9
$USRTIMER
 70
     1
  9
$ANGBASE
 50
0.0
  9
$ANGDIR
 70
     0
  9
$PDMODE
 70
     0
  9
$PDSIZE
 40
0.0
  9
$PLINEWID
 40
0.0
  9
$SPLFRAME
 70
     0
  9
$SPLINETYPE
 70
     6
  9
$SPLINESEGS
 70
     8
  9
$HANDSEED
  5
4594
  9
$SURFTAB1
 70
     6
  9
$SURFTAB2
 70
     6
  9
$SURFTYPE
 70
     6
  9
$SURFU
 70
     6
  9
$SURFV
 70
     6
  9
$UCSBASE
  2

  9
$UCSNAME
  2

  9
$UCSORG
 10
0.0
 20
0.0
 30
0.0
  9
$UCSXDIR
 10
1.0
 20
0.0
 30
0.0
  9
$UCSYDIR
 10
0.0
 20
1.0
 30
0.0
  9
$UCSORTHOREF
  2

  9
$UCSORTHOVIEW
 70
     0
  9
$UCSORGTOP
 10
0.0
 20
0.0
 30
0.0
  9
$UCSORGBOTTOM
 10
0.0
 20
0.0
 30
0.0
  9
$UCSORGLEFT
 10
0.0
 20
0.0
 30
0.0
  9
$UCSORGRIGHT
 10
0.0
 20
0.0
 30
0.0
  9
$UCSORGFRONT
 10
0.0
 20
0.0
 30
0.0
  9
$UCSORGBACK
 10
0.0
 20
0.0
 30
0.0
  9
$PUCSBASE
  2

  9
$PUCSNAME
  2

  9
$PUCSORG
 10
0.0
 20
0.0
 30
0.0
  9
$PUCSXDIR
 10
1.0
 20
0.0
 30
0.0
  9
$PUCSYDIR
 10
0.0
 20
1.0
 30
0.0
  9
$PUCSORTHOREF
  2

  9
$PUCSORTHOVIEW
 70
     0
  9
$PUCSORGTOP
 10
0.0
 20
0.0
 30
0.0
  9
$PUCSORGBOTTOM
 10
0.0
 20
0.0
 30
0.0
  9
$PUCSORGLEFT
 10
0.0
 20
0.0
 30
0.0
  9
$PUCSORGRIGHT
 10
0.0
 20
0.0
 30
0.0
  9
$PUCSORGFRONT
 10
0.0
 20
0.0
 30
0.0
  9
$PUCSORGBACK
 10
0.0
 20
0.0
 30
0.0
  9
$USERI1
 70
     0
  9
$USERI2
 70
     0
  9
$USERI3
 70
     0
  9
$USERI4
 70
     0
  9
$USERI5
 70
     0
  9
$USERR1
 40
0.0
  9
$USERR2
 40
0.0
  9
$USERR3
 40
0.0
  9
$USERR4
 40
0.0
  9
$USERR5
 40
0.0
  9
$WORLDVIEW
 70
     1
  9
$SHADEDGE
 70
     3
  9
$SHADEDIF
 70
    70
  9
$TILEMODE
 70
     1
  9
$MAXACTVP
 70
    64
  9
$PINSBASE
 10
0.0
 20
0.0
 30
0.0
  9
$PLIMCHECK
 70
     0
  9
$PEXTMIN
 10
1.000000000000000E+20
 20
1.000000000000000E+20
 30
1.000000000000000E+20
  9
$PEXTMAX
 10
-1.000000000000000E+20
 20
-1.000000000000000E+20
 30
-1.000000000000000E+20
  9
$PLIMMIN
 10
0.0
 20
0.0
  9
$PLIMMAX
 10
420.0
 20
297.0
  9
$UNITMODE
 70
     0
  9
$VISRETAIN
 70
     1
  9
$PLINEGEN
 70
     0
  9
$PSLTSCALE
 70
     1
  9
$TREEDEPTH
 70
  3020
  9
$CMLSTYLE
  2
Standard
  9
$CMLJUST
 70
     0
  9
$CMLSCALE
 40
20.0
  9
$PROXYGRAPHICS
 70
     1
  9
$MEASUREMENT
 70
     1
  9
$CELWEIGHT
370
    -1
  9
$ENDCAPS
280
     0
  9
$JOINSTYLE
280
     0
  9
$LWDISPLAY
290
     0
  9
$INSUNITS
 70
     4
  9
$HYPERLINKBASE
  1

  9
$STYLESHEET
  1
IMAGIO.ctb
  9
$XEDIT
290
     1
  9
$CEPSNTYPE
380
     0
  9
$PSTYLEMODE
290
     1
  9
$FINGERPRINTGUID
  2
{E9837AF4-F598-11D4-A28F-00004C61E3BD}
  9
$VERSIONGUID
  2
{C7986A4E-A5FA-434D-BC51-602E740BD6A8}
  9
$EXTNAMES
290
     1
  9
$PSVPSCALE
 40
0.0
  9
$OLESTARTUP
290
     0
  0
ENDSEC
  0
SECTION
  2
CLASSES
  0
CLASS
  1
ACDBDICTIONARYWDFLT
  2
AcDbDictionaryWithDefault
  3
ObjectDBX Classes
 90
        0
280
     0
281
     0
  0
CLASS
  1
ACDBPLACEHOLDER
  2
AcDbPlaceHolder
  3
ObjectDBX Classes
 90
        0
280
     0
281
     0
  0
CLASS
  1
LAYOUT
  2
AcDbLayout
  3
ObjectDBX Classes
 90
        0
280
     0
281
     0
  0
CLASS
  1
AMGSETTINGSOBJ
  2
AmgSettingsObj
  3
"AcadM|Product Description: AutoCAD Mechanical|Company: Autodesk, Inc."
 90
     1024
280
     0
281
     0
  0
CLASS
  1
ACME_DOCUMENT
  2
AcMeDbDoc
  3
AcMeServices
 90
     1024
280
     0
281
     0
  0
CLASS
  1
ACMESCOPE
  2
AcMeScope
  3
AcMeServices
 90
     1024
280
     0
281
     0
  0
CLASS
  1
ACMECOMMANDHISTORY
  2
AcMeCommandHistory
  3
AcMeServices
 90
     1024
280
     0
281
     0
  0
CLASS
  1
DICTIONARYVAR
  2
AcDbDictionaryVar
  3
ObjectDBX Classes
 90
        0
280
     0
281
     0
  0
CLASS
  1
ACIMSYSVARMAN
  2
AcImSysVarManager
  3
AcMeServices
 90
     1024
280
     0
281
     0
  0
CLASS
  1
ACIMREALSYSVAR
  2
AcImRealSysVar
  3
AcMeServices
 90
     1024
280
     0
281
     0
  0
CLASS
  1
ACIMINTSYSVAR
  2
AcImIntSysVar
  3
AcMeServices
 90
     1024
280
     0
281
     0
  0
CLASS
  1
ACMEDRAWINGMAN
  2
AcMeDrawingMan
  3
AcMeServices
 90
    33792
280
     0
281
     0
  0
CLASS
  1
ACMEVIEW
  2
AcMeView
  3
AcMeServices
 90
    33792
280
     0
281
     0
  0
CLASS
  1
ACDBENTITYCACHE
  2
AcMeEntityCache
  3
AcMeServices
 90
     1024
280
     0
281
     0
  0
CLASS
  1
GSMANAGER
  2
AcMeGSManager
  3
AcMeServices
 90
    32768
280
     0
281
     0
  0
CLASS
  1
AMDTINTERNALREACTOR
  2
AmdtInternalReactor
  3
AcMeServices
 90
     1024
280
     0
281
     0
  0
CLASS
  1
ACMESTATEMGR
  2
AcMeStateMgr
  3
AcMeServices
 90
     1024
280
     0
281
     0
  0
CLASS
  1
ACME_DATABASE
  2
AcMeDbDatabase
  3
AcMeServices
 90
     1024
280
     0
281
     0
  0
CLASS
  1
ACRFINSADJUSTERMGR
  2
AcRfInsAdjusterMgr
  3
AcMeServices
 90
     1024
280
     0
281
     0
  0
CLASS
  1
ACMDATADICTIONARY
  2
AcmDataDictionary
  3
"AcmSymBB|Product Description: AutoCAD Mechanical|Company: Autodesk, Inc."
 90
     1024
280
     0
281
     0
  0
CLASS
  1
ACMDATAENTRYBLOCK
  2
AcmDataEntryBlock
  3
AcmSymBB|Product Description: AutoCAD Mechanical|Company: Autodesk, Inc.
 90
     1024
280
     0
281
     0
  0
CLASS
  1
AMGOBJPROPCFG
  2
AmgObjPropCfg
  3
"AmgLay|Product Description: AutoCAD Mechanical|Company: Autodesk, Inc."
 90
     1025
280
     0
281
     0
  0
CLASS
  1
ACAMGFILTERDAT
  2
AcAmgFilterDat
  3
"AcadM|Product Description: AutoCAD Mechanical|Company: Autodesk, Inc."
 90
     1024
280
     0
281
     0
  0
CLASS
  1
LAYER_INDEX
  2
AcDbLayerIndex
  3
ObjectDBX Classes
 90
    32768
280
     0
281
     0
  0
CLASS
  1
IDBUFFER
  2
AcDbIdBuffer
  3
ObjectDBX Classes
 90
    32768
280
     0
281
     0
  0
CLASS
  1
ACIMSTRSYSVAR
  2
AcImStrSysVar
  3
AcMeServices
 90
     1024
280
     0
281
     0
  0
CLASS
  1
ACMSTANDARDJIS
  2
AcmStandardJIS
  3
"Amdt_StdImp|Product Description: AutoCAD Mechanical|Company: Autodesk, Inc."
 90
     1024
280
     0
281
     0
  0
CLASS
  1
ACMSURFSTANDARDJIS
  2
AcmSurfTextStdJIS
  3
"Amdt_StdImp|Product Description: AutoCAD Mechanical|Company: Autodesk, Inc."
 90
     1024
280
     0
281
     0
  0
CLASS
  1
ACMFCFSTANDARDJIS
  2
AcmFCFStdJIS
  3
"Amdt_StdImp|Product Description: AutoCAD Mechanical|Company: Autodesk, Inc."
 90
     1024
280
     0
281
     0
  0
CLASS
  1
ACMWELDSTANDARDJIS
  2
AcmWeldingStdJIS
  3
"Amdt_StdImp|Product Description: AutoCAD Mechanical|Company: Autodesk, Inc."
 90
     1024
280
     0
281
     0
  0
CLASS
  1
ACMIDSTANDARDJIS
  2
AcmIdStdJIS
  3
"Amdt_StdImp|Product Description: AutoCAD Mechanical|Company: Autodesk, Inc."
 90
     1024
280
     0
281
     0
  0
CLASS
  1
ACMDATUMSTANDARDJIS
  2
AcmDatumStdJIS
  3
"Amdt_StdImp|Product Description: AutoCAD Mechanical|Company: Autodesk, Inc."
 90
     1024
280
     0
281
     0
  0
CLASS
  1
ACMBOMSTANDARDJIS
  2
AcmBOMStdJIS
  3
"Amdt_StdImp|Product Description: AutoCAD Mechanical|Company: Autodesk, Inc."
 90
     1024
280
     0
281
     0
  0
CLASS
  1
ACMPARTREF
  2
AcmPartRef
  3
"AcmSymBB|Product Description: AutoCAD Mechanical|Company: Autodesk, Inc."
 90
    36863
280
     0
281
     1
  0
CLASS
  1
NEWSTDPARTPARLIST
  2
AmgNewParListFiler
  3
"AmgParList|Product Description: AutoCAD Mechanical|Company: Autodesk, Inc."
 90
    36863
280
     0
281
     0
  0
CLASS
  1
ACMDATAENTRYPART
  2
AcmDataEntryPart
  3
AcmSymBB|Product Description: AutoCAD Mechanical|Company: Autodesk, Inc.
 90
    33792
280
     0
281
     0
  0
CLASS
  1
AMDTNOTE
  2
AmdtNote
  3
"AcmSymBB|Product Description: AutoCAD Mechanical|Company: Autodesk, Inc."
 90
    36863
280
     0
281
     1
  0
CLASS
  1
ACMPICKOBJ
  2
AcmPickEnt
  3
"AcmSymBB|Product Description: AutoCAD Mechanical|Company: Autodesk, Inc."
 90
    33792
280
     0
281
     1
  0
CLASS
  1
ACMDATAENTRY
  2
AcmDataEntry
  3
AcmSymBB|Product Description: AutoCAD Mechanical|Company: Autodesk, Inc.
 90
     1024
280
     0
281
     0
  0
CLASS
  1
ACMBOM
  2
AcmBom
  3
"AcmSymBB|Product Description: AutoCAD Mechanical|Company: Autodesk, Inc."
 90
     1024
280
     0
281
     0
  0
CLASS
  1
ACMBOMROW
  2
AcmBomRow
  3
"AcmSymBB|Product Description: AutoCAD Mechanical|Company: Autodesk, Inc."
 90
    33792
280
     0
281
     0
  0
CLASS
  1
ACMBALLOON
  2
AcmBalloon
  3
"AcmSymBB|Product Description: AutoCAD Mechanical|Company: Autodesk, Inc."
 90
    36863
280
     0
281
     1
  0
CLASS
  1
ACMPARTLIST
  2
AcmPartList
  3
"AcmSymBB|Product Description: AutoCAD Mechanical|Company: Autodesk, Inc."
 90
    36863
280
     0
281
     1
  0
CLASS
  1
MATERIAL
  2
AcDbMaterial
  3
ObjectDBX Classes
 90
     1153
280
     0
281
     0
  0
CLASS
  1
VISUALSTYLE
  2
AcDbVisualStyle
  3
ObjectDBX Classes
 90
     4095
280
     0
281
     0
  0
CLASS
  1
TABLESTYLE
  2
AcDbTableStyle
  3
ObjectDBX Classes
 90
     4095
280
     0
281
     0
  0
CLASS
  1
ACGREFMASTER
  2
AcGrefMaster
  3
AcAttribServices
 90
     1024
280
     0
281
     0
  0
CLASS
  1
AM_DRAWING_MGR
  2
AcDmDwgMgr
  3
AcMechDwgViewMgmt
 90
     1024
280
     0
281
     0
  0
CLASS
  1
AM_DWG_DOCUMENT
  2
AcDmDwgDocument
  3
AcMechDwgViewMgmt
 90
     1024
280
     0
281
     0
  0
CLASS
  1
AM_DWG_SHEET
  2
AcDmSheet
  3
AcMechDwgViewMgmt
 90
     1024
280
     0
281
     0
  0
CLASS
  1
AM_VIEWDIMPARMAP
  2
AcDmViewDimParMap
  3
AcMechDwgViewMgmt
 90
     1024
280
     0
281
     0
  0
CLASS
  1
AM_DWGMGR_NAME
  2
AcDmDwgMgrName
  3
AcMechDwgViewMgmt
 90
     1024
280
     0
281
     0
  0
CLASS
  1
ACGREFACADMASTER
  2
AcGrefacadMaster
  3
AcGrefServices
 90
     1024
280
     0
281
     0
  0
CLASS
  1
AMDTMENUSTATEMGR
  2
AmdtMenuStateMgr
  3
McadcomServices
 90
     1024
280
     0
281
     0
  0
CLASS
  1
AMDTMCOMMENUSTATE
  2
AmdtMcomMenuState
  3
McadcomServices
 90
     1024
280
     0
281
     0
  0
CLASS
  1
AMIMASTER
  2
AmiMaster
  3
AmiServices
 90
     1024
280
     0
281
     0
  0
CLASS
  1
MAPIAMMOUDLE
  2
MApiAmModule
  3
MApiAmServices
 90
     1024
280
     0
281
     0
  0
CLASS
  1
AMDTADMENUSTATE
  2
AmdtAdMenuState
  3
DesignerServices
 90
    32768
280
     0
281
     0
  0
CLASS
  1
ADAPPL
  2
AcAdAppl
  3
DesignerAssemblies
 90
    33792
280
     0
281
     0
  0
CLASS
  1
DEPMGR
  2
AcAdDepMgr
  3
DesignerAssemblies
 90
    33792
280
     0
281
     0
  0
CLASS
  1
PARAMMGR
  2
AcAdParamMgr
  3
DesignerAssemblies
 90
    33792
280
     0
281
     0
  0
CLASS
  1
PARAMSCOPE
  2
AcAdParamScope
  3
DesignerAssemblies
 90
    33792
280
     0
281
     0
  0
CLASS
  1
NAMEDAPPL
  2
AcAdNamedAppl
  3
DesignerAssemblies
 90
    33792
280
     0
281
     0
  0
CLASS
  1
AMDTDMMENUSTATE
  2
AmdtDmMenuState
  3
AcMechDwgViewMgmt
 90
     1024
280
     0
281
     0
  0
CLASS
  1
AMDTAMMENUSTATE
  2
AmdtAmMenuState
  3
DesignerAssemblies
 90
     1024
280
     0
281
     0
  0
CLASS
  1
ACAMPROJECT
  2
AcAmProject
  3
DesignerAssemblies
 90
     1024
280
     0
281
     0
  0
CLASS
  1
ACAMGRCOMPDEF
  2
AcAmGrCompDef
  3
DesignerAssemblies
 90
     1024
280
     0
281
     0
  0
CLASS
  1
ACCMCONTEXT
  2
AcCmContext
  3
DesignerAssemblies
 90
     1024
280
     0
281
     0
  0
CLASS
  1
ACAMCOMPDEF
  2
AcAmCompDef
  3
DesignerAssemblies
 90
     1024
280
     0
281
     0
  0
CLASS
  1
ACAMCOMPDEFMGR
  2
AcAmCompDefMgr
  3
DesignerAssemblies
 90
     1024
280
     0
281
     0
  0
CLASS
  1
AMCONTEXTMGR
  2
AcAmContextMgr
  3
DesignerAssemblies
 90
     1024
280
     0
281
     0
  0
CLASS
  1
ACAMCONTEXTMODELER
  2
AcAmContextModeler
  3
DesignerAssemblies
 90
     1024
280
     0
281
     0
  0
CLASS
  1
AMDTFORMULAUPDATEDISPATCHER
  2
AmdtFormulaUpdateDispatcher
  3
AcMeServices
 90
     1024
280
     0
281
     0
  0
CLASS
  1
ACRFATTGENMGR
  2
AcRfAttGeneralMgr
  3
AcAttribServices
 90
     1024
280
     0
281
     0
  0
CLASS
  1
ACRFOBJATTMGR
  2
AcRfObjAttGroupMgr
  3
AcAttribServices
 90
     1024
280
     0
281
     0
  0
CLASS
  1
ACRFMCADAPIATTHOLDER
  2
AcRfMCADAPIAttHolder
  3
AcAttribServices
 90
     1024
280
     0
281
     0
  0
CLASS
  1
AMDTSYSATTR
  2
AmdtSystemAttribute
  3
AcAttribServices
 90
     1024
280
     0
281
     0
  0
CLASS
  1
ACAMGTITLESTD
  2
AcAmgTitleStd
  3
"AmgTitle|Product Description: AutoCAD Mechanical|Company: Autodesk, Inc."
 90
     4095
280
     0
281
     0
  0
CLASS
  1
ACMDETAILSTANDARDJIS
  2
AmdtDetailSymStdJIS
  3
"Amdt_StdImp|Product Description: AutoCAD Mechanical|Company: Autodesk, Inc."
 90
     1024
280
     0
281
     0
  0
CLASS
  1
ACMSECTIONSTANDARDJIS
  2
AmdtSectionSymStdJIS
  3
"Amdt_StdImp|Product Description: AutoCAD Mechanical|Company: Autodesk, Inc."
 90
     1024
280
     0
281
     0
  0
CLASS
  1
ACMCENTERLINESTANDARDJIS
  2
AmdtCenterLineStdJIS
  3
"Amdt_StdImp|Product Description: AutoCAD Mechanical|Company: Autodesk, Inc."
 90
     1024
280
     0
281
     0
  0
CLASS
  1
ACMTHREADLINESTANDARDJIS
  2
AmdtThreadLineStdJIS
  3
"Amdt_StdImp|Product Description: AutoCAD Mechanical|Company: Autodesk, Inc."
 90
     1024
280
     0
281
     0
  0
CLASS
  1
ACMNOTESTANDARDJIS
  2
AmdtNoteStdJIS
  3
"Amdt_StdImp|Product Description: AutoCAD Mechanical|Company: Autodesk, Inc."
 90
     1024
280
     0
281
     0
  0
CLASS
  1
AMDTNOTETEMPLATEDB
  2
AmdtNoteTemplateDB
  3
AcmSymBB|Product Description: AutoCAD Mechanical|Company: Autodesk, Inc.
 90
     1024
280
     0
281
     0
  0
CLASS
  1
ACMTAPERSTANDARDJIS
  2
AcmTaperStdJIS
  3
"Amdt_StdImp|Product Description: AutoCAD Mechanical|Company: Autodesk, Inc."
 90
     1024
280
     0
281
     0
  0
CLASS
  1
ACAMGLAYSTD
  2
AcAmgLayStd
  3
"AmgLay|Product Description: AutoCAD Mechanical|Company: Autodesk, Inc."
 90
     1024
280
     0
281
     0
  0
CLASS
  1
ACAMGDIMSTD
  2
AcAmgDimStd
  3
"AmgDim|Product Description: AutoCAD Mechanical|Company: Autodesk, Inc."
 90
     1024
280
     0
281
     0
  0
CLASS
  1
ACAMGHOLECHARTSTDJIS
  2
AcAmgHoleChartStdJIS
  3
AmgDim|Product Description: AutoCAD Mechanical|Company: Autodesk, Inc.
 90
     1024
280
     0
281
     0
  0
CLASS
  1
CATALOGSTATE
  2
AcAmCatalogState
  3
DesignerAssemblies
 90
    33792
280
     0
281
     0
  0
CLASS
  1
ACAMGRCOMPDEFSET
  2
AcAmGrCompDefSet
  3
DesignerAssemblies
 90
     1024
280
     0
281
     0
  0
CLASS
  1
AMDTBROWSERDBTAB
  2
AmdtBrowserDbTab
  3
McadcomServices
 90
     1024
280
     0
281
     0
  0
CLASS
  1
CBROWSERAPPOBJECT
  2
CBrowserAppObject
  3
McadcomServices
 90
     1024
280
     0
281
     0
  0
CLASS
  1
DM_PLACEHOLDER
  2
AcDmSelsetPlaceholder
  3
AcMechDwgViewMgmt
 90
     1024
280
     0
281
     0
  0
CLASS
  1
SORTENTSTABLE
  2
AcDbSortentsTable
  3
ObjectDBX Classes
 90
        0
280
     0
281
     0
  0
CLASS
  1
ACDBDIMENSIONRES
  2
AcDbDimensionRes
  3
AcmSymBB|Product Description: AutoCAD Mechanical|Company: Autodesk, Inc.
 90
     1024
280
     0
281
     0
  0
CLASS
  1
ACMSTANDARDISO
  2
AcmStandardISO
  3
"Amdt_StdImp|Product Description: AutoCAD Mechanical|Company: Autodesk, Inc."
 90
     1024
280
     0
281
     0
  0
CLASS
  1
ACMSURFSTANDARDISO
  2
AcmSurfTextStdISO
  3
"Amdt_StdImp|Product Description: AutoCAD Mechanical|Company: Autodesk, Inc."
 90
     1024
280
     0
281
     0
  0
CLASS
  1
ACMFCFSTANDARDISO
  2
AcmFCFStdISO
  3
"Amdt_StdImp|Product Description: AutoCAD Mechanical|Company: Autodesk, Inc."
 90
     1024
280
     0
281
     0
  0
CLASS
  1
ACMWELDSTANDARDISO
  2
AcmWeldingStdISO
  3
"Amdt_StdImp|Product Description: AutoCAD Mechanical|Company: Autodesk, Inc."
 90
     1024
280
     0
281
     0
  0
CLASS
  1
ACMIDSTANDARDISO
  2
AcmIdStdISO
  3
"Amdt_StdImp|Product Description: AutoCAD Mechanical|Company: Autodesk, Inc."
 90
     1024
280
     0
281
     0
  0
CLASS
  1
ACMDATUMSTANDARDISO
  2
AcmDatumStdISO
  3
"Amdt_StdImp|Product Description: AutoCAD Mechanical|Company: Autodesk, Inc."
 90
     1024
280
     0
281
     0
  0
CLASS
  1
ACMBOMSTANDARDISO
  2
AcmBOMStdISO
  3
"Amdt_StdImp|Product Description: AutoCAD Mechanical|Company: Autodesk, Inc."
 90
     1024
280
     0
281
     0
  0
CLASS
  1
ACMDETAILSTANDARDISO
  2
AmdtDetailSymStdISO
  3
"Amdt_StdImp|Product Description: AutoCAD Mechanical|Company: Autodesk, Inc."
 90
     1024
280
     0
281
     0
  0
CLASS
  1
ACMSECTIONSTANDARDISO
  2
AmdtSectionSymStdISO
  3
"Amdt_StdImp|Product Description: AutoCAD Mechanical|Company: Autodesk, Inc."
 90
     1024
280
     0
281
     0
  0
CLASS
  1
ACMCENTERLINESTANDARDISO
  2
AmdtCenterLineStdISO
  3
"Amdt_StdImp|Product Description: AutoCAD Mechanical|Company: Autodesk, Inc."
 90
     1024
280
     0
281
     0
  0
CLASS
  1
ACMTHREADLINESTANDARDISO
  2
AmdtThreadLineStdISO
  3
"Amdt_StdImp|Product Description: AutoCAD Mechanical|Company: Autodesk, Inc."
 90
     1024
280
     0
281
     0
  0
CLASS
  1
ACMNOTESTANDARDISO
  2
AmdtNoteStdISO
  3
"Amdt_StdImp|Product Description: AutoCAD Mechanical|Company: Autodesk, Inc."
 90
     1024
280
     0
281
     0
  0
CLASS
  1
ACAMGHOLECHARTSTDISO
  2
AcAmgHoleChartStdISO
  3
AmgDim|Product Description: AutoCAD Mechanical|Company: Autodesk, Inc.
 90
     1024
280
     0
281
     0
  0
CLASS
  1
AMDTEDGESTANDARDISO13715
  2
AmdtEdgeStdISO13715
  3
"Amdt_StdImp|Product Description: AutoCAD Mechanical|Company: Autodesk, Inc."
 90
     1024
280
     0
281
     0
  0
CLASS
  1
ACMTAPERSTANDARDISO
  2
AcmTaperStdISO
  3
"Amdt_StdImp|Product Description: AutoCAD Mechanical|Company: Autodesk, Inc."
 90
     1024
280
     0
281
     0
  0
CLASS
  1
DIMASSOC
  2
AcDbDimAssoc
  3
"AcDbDimAssoc|Product Desc:     AcDim ARX App For Dimension|Company:          Autodesk, Inc.|WEB Address:      www.autodesk.com"
 90
    32768
280
     0
281
     0
  0
CLASS
  1
CAMSSTRUCTBTNSTATE
  2
StructBtnState
  3
DesignerAssemblies
 90
    33792
280
     0
281
     0
  0
CLASS
  1
ACMSURFSYM
  2
AcmSurfaceTexture
  3
"AcmSymBB|Product Description: AutoCAD Mechanical|Company: Autodesk, Inc."
 90
    36863
280
     0
281
     1
  0
CLASS
  1
ACDBLINERES
  2
AcDbLineRes
  3
AcGrefServices
 90
     1024
280
     0
281
     0
  0
CLASS
  1
SCALE
  2
AcDbScale
  3
ObjectDBX Classes
 90
     1153
280
     0
281
     0
  0
CLASS
  1
MLEADERSTYLE
  2
AcDbMLeaderStyle
  3
ACDB_MLEADERSTYLE_CLASS
 90
     4095
280
     0
281
     0
  0
CLASS
  1
ACMANOOTATIONVIEWSTANDARDJIS
  2
AmdtAnViewStdJIS
  3
"Amdt_StdImp|Product Description: AutoCAD Mechanical|Company: Autodesk, Inc."
 90
     1024
280
     0
281
     0
  0
CLASS
  1
AMDTEDGESTANDARDJIS
  2
AmdtEdgeStdJIS
  3
"Amdt_StdImp|Product Description: AutoCAD Mechanical|Company: Autodesk, Inc."
 90
     1024
280
     0
281
     0
  0
CLASS
  1
ACMANOOTATIONVIEWSTANDARDISO
  2
AmdtAnViewStdISO
  3
"Amdt_StdImp|Product Description: AutoCAD Mechanical|Company: Autodesk, Inc."
 90
     1024
280
     0
281
     0
  0
CLASS
  1
CELLSTYLEMAP
  2
AcDbCellStyleMap
  3
ObjectDBX Classes
 90
     1152
280
     0
281
     0
  0
CLASS
  1
AMDTACMWBLOCKBOMENTITY
  2
AmdtAcmWblockBomEntity
  3
"AcmSymBB|Product Description: AutoCAD Mechanical|Company: Autodesk, Inc."
 90
    36863
280
     0
281
     1
  0
ENDSEC
  0
SECTION
  2
TABLES
  0
TABLE
  2
VPORT
  5
8
102
{ACAD_XDICTIONARY
360
1D17
102
}
330
0
100
AcDbSymbolTable
 70
     1
  0
VPORT
  5
1E18
330
8
100
AcDbSymbolTableRecord
100
AcDbViewportTableRecord
  2
*Active
 70
     0
 10
0.0
 20
0.0
 11
1.0
 21
1.0
 12
188.3698087772238
 22
323.6787753810176
 13
0.0
 23
0.0
 14
2.5
 24
2.5
 15
10.0
 25
10.0
 16
0.0
 26
0.0
 36
1.0
 17
0.0
 27
0.0
 37
0.0
 40
91.41842199918761
 41
2.070938215102974
 42
50.0
 43
0.0
 44
0.0
 50
0.0
 51
0.0
 71
     0
 72
   100
 73
     1
 74
     3
 75
     0
 76
     0
 77
     0
 78
     0
281
     0
 65
     1
110
0.0
120
0.0
130
0.0
111
1.0
121
0.0
131
0.0
112
0.0
122
1.0
132
0.0
 79
     0
146
0.0
  0
ENDTAB
  0
TABLE
  2
LTYPE
  5
5
330
0
100
AcDbSymbolTable
 70
    17
  0
LTYPE
  5
14
330
5
100
AcDbSymbolTableRecord
100
AcDbLinetypeTableRecord
  2
ByBlock
 70
     0
  3

 72
    65
 73
     0
 40
0.0
  0
LTYPE
  5
15
330
5
100
AcDbSymbolTableRecord
100
AcDbLinetypeTableRecord
  2
ByLayer
 70
     0
  3

 72
    65
 73
     0
 40
0.0
  0
LTYPE
  5
16
330
5
100
AcDbSymbolTableRecord
100
AcDbLinetypeTableRecord
  2
Continuous
 70
     0
  3
Solid line
 72
    65
 73
     0
 40
0.0
  0
LTYPE
  5
4B
330
5
100
AcDbSymbolTableRecord
100
AcDbLinetypeTableRecord
  2
AM_ISO02W050
 70
     0
  3
__ __ __ __ __ __ __ __ __ __ __ __ __ __ __
 72
    65
 73
     2
 40
7.5
 49
6.0
 74
     0
 49
-1.5
 74
     0
  0
LTYPE
  5
4C
330
5
100
AcDbSymbolTableRecord
100
AcDbLinetypeTableRecord
  2
AM_ISO08W050
 70
     0
  3
____ . ____ . ____ . ____ . ____ . ____ . ____
 72
    65
 73
     4
 40
18.0
 49
12.0
 74
     0
 49
-1.5
 74
     0
 49
3.0
 74
     0
 49
-1.5
 74
     0
  0
LTYPE
  5
4D
330
5
100
AcDbSymbolTableRecord
100
AcDbLinetypeTableRecord
  2
AM_ISO09W050
 70
     0
  3
_____ . . _____ . . _____ . . ____ .. ____
 72
    65
 73
     6
 40
22.5
 49
12.0
 74
     0
 49
-1.5
 74
     0
 49
3.0
 74
     0
 49
-1.5
 74
     0
 49
3.0
 74
     0
 49
-1.5
 74
     0
  0
LTYPE
  5
4E
330
5
100
AcDbSymbolTableRecord
100
AcDbLinetypeTableRecord
  2
Amconstr
 70
     0
  3
_______________________
 72
    65
 73
     2
 40
9999.0
 49
9999.0
 74
     0
 49
0.0
 74
     0
  0
LTYPE
  5
4F
330
5
100
AcDbSymbolTableRecord
100
AcDbLinetypeTableRecord
  2
AM_ISO02W050x2
 70
     0
  3
 _ _ _ _ _ _ _ _ _ _ _ _
 72
    65
 73
     2
 40
3.75
 49
3.0
 74
     0
 49
-0.75
 74
     0
  0
LTYPE
  5
50
330
5
100
AcDbSymbolTableRecord
100
AcDbLinetypeTableRecord
  2
AM_ISO08W050x2
 70
     0
  3
__ . __ . __ . __ . __ . __
 72
    65
 73
     4
 40
9.0
 49
6.0
 74
     0
 49
-0.75
 74
     0
 49
1.5
 74
     0
 49
-0.75
 74
     0
  0
LTYPE
  5
53
330
5
100
AcDbSymbolTableRecord
100
AcDbLinetypeTableRecord
  2
Amzigzag
 70
     0
  3
/\/-/\/-/\/-/\/-/\/-/\/
 72
    65
 73
     2
 40
11.0001
 49
0.0001
 74
     4
 75
   135
340
52
 46
0.04
 50
0.0
 44
0.0
 45
0.0
 49
-11.0
 74
     0
  0
LTYPE
  5
169
330
5
100
AcDbSymbolTableRecord
100
AcDbLinetypeTableRecord
  2
ACJISTGB
 70
     0
  3
__ . . __ . .
 72
    65
 73
     6
 40
9.0
 49
4.0
 74
     0
 49
-1.0
 74
     0
 49
1.0
 74
     0
 49
-1.0
 74
     0
 49
1.0
 74
     0
 49
-1.0
 74
     0
  0
LTYPE
  5
16A
330
5
100
AcDbSymbolTableRecord
100
AcDbLinetypeTableRecord
  2
ACJISTGL
 70
     0
  3
_ _ _ _ _
 72
    65
 73
     2
 40
3.0
 49
2.0
 74
     0
 49
-1.0
 74
     0
  0
LTYPE
  5
1B0C
330
5
100
AcDbSymbolTableRecord
100
AcDbLinetypeTableRecord
  2
HIDDEN
 70
     0
  3
Hidden __ __ __ __ __ __ __ __ __ __ __ __ __ _
 72
    65
 73
     2
 40
9.524999999999998
 49
6.349999999999999
 74
     0
 49
-3.174999999999999
 74
     0
  0
LTYPE
  5
1B0D
330
5
100
AcDbSymbolTableRecord
100
AcDbLinetypeTableRecord
  2
PHANTOM2
 70
     0
  3
Phantom (.5x) ___ _ _ ___ _ _ ___ _ _ ___ _ _
 72
    65
 73
     6
 40
31.75
 49
15.875
 74
     0
 49
-3.174999999999999
 74
     0
 49
3.174999999999999
 74
     0
 49
-3.174999999999999
 74
     0
 49
3.174999999999999
 74
     0
 49
-3.174999999999999
 74
     0
  0
LTYPE
  5
1B0E
330
5
100
AcDbSymbolTableRecord
100
AcDbLinetypeTableRecord
  2
CENTER
 70
     0
  3
Center ____ _ ____ _ ____ _ ____ _ ____ _ ____
 72
    65
 73
     4
 40
50.8
 49
31.75
 74
     0
 49
-6.349999999999999
 74
     0
 49
6.349999999999999
 74
     0
 49
-6.349999999999999
 74
     0
  0
LTYPE
  5
1C85
330
5
100
AcDbSymbolTableRecord
100
AcDbLinetypeTableRecord
  2
ACISOWELD
 70
     0
  3
_ _ _ _ _
 72
    65
 73
     2
 40
2.0
 49
2.0
 74
     0
 49
-1.0
 74
     0
  0
LTYPE
  5
1C86
330
5
100
AcDbSymbolTableRecord
100
AcDbLinetypeTableRecord
  2
ACISOTGB
 70
     0
  3
__ . . __ . .
 72
    65
 73
     6
 40
9.0
 49
4.0
 74
     0
 49
-1.0
 74
     0
 49
1.0
 74
     0
 49
-1.0
 74
     0
 49
1.0
 74
     0
 49
-1.0
 74
     0
  0
LTYPE
  5
1C87
330
5
100
AcDbSymbolTableRecord
100
AcDbLinetypeTableRecord
  2
ACISOTGL
 70
     0
  3
_ _ _ _ _
 72
    65
 73
     2
 40
3.0
 49
2.0
 74
     0
 49
-1.0
 74
     0
  0
LTYPE
  5
2199
330
5
100
AcDbSymbolTableRecord
100
AcDbLinetypeTableRecord
  2
CENTER2
 70
     0
  3
Center (.5x) ___ _ ___ _ ___ _ ___ _ ___ _ ___
 72
    65
 73
     4
 40
28.575
 49
19.05
 74
     0
 49
-3.174999999999999
 74
     0
 49
3.174999999999999
 74
     0
 49
-3.174999999999999
 74
     0
  0
ENDTAB
  0
TABLE
  2
LAYER
  5
2
102
{ACAD_XDICTIONARY
360
242B
102
}
330
0
100
AcDbSymbolTable
 70
    14
  0
LAYER
  5
10
102
{ACAD_XDICTIONARY
360
2A56
102
}
330
2
100
AcDbSymbolTableRecord
100
AcDbLayerTableRecord
  2
0
 70
     0
 62
     7
  6
Continuous
370
    -3
390
F
  0
LAYER
  5
59
102
{ACAD_XDICTIONARY
360
2A58
102
}
330
2
100
AcDbSymbolTableRecord
100
AcDbLayerTableRecord
  2
AM_0
 70
     0
 62
     7
  6
Continuous
370
    50
390
F
  0
LAYER
  5
5A
102
{ACAD_XDICTIONARY
360
2A5A
102
}
330
2
100
AcDbSymbolTableRecord
100
AcDbLayerTableRecord
  2
AM_BOR
 70
     0
 62
     7
  6
Continuous
370
    50
390
F
  0
LAYER
  5
24D
102
{ACAD_XDICTIONARY
360
2A5C
102
}
330
2
100
AcDbSymbolTableRecord
100
AcDbLayerTableRecord
  2
AM_CL
 70
     0
 62
     1
  6
Amconstr
370
    25
390
F
  0
LAYER
  5
280
102
{ACAD_XDICTIONARY
360
2A5E
102
}
330
2
100
AcDbSymbolTableRecord
100
AcDbLayerTableRecord
  2
AM_7
 70
     0
 62
     4
  6
AM_ISO08W050
370
    25
390
F
  0
LAYER
  5
2C6
102
{ACAD_XDICTIONARY
360
2A60
102
}
330
2
100
AcDbSymbolTableRecord
100
AcDbLayerTableRecord
  2
AM_4
 70
     0
 62
     3
  6
Continuous
370
    25
390
F
  0
LAYER
  5
2C7
102
{ACAD_XDICTIONARY
360
2A62
102
}
330
2
100
AcDbSymbolTableRecord
100
AcDbLayerTableRecord
  2
AM_0N
 70
     0
 62
     7
  6
Continuous
370
    50
390
F
  0
LAYER
  5
2C8
102
{ACAD_XDICTIONARY
360
2A64
102
}
330
2
100
AcDbSymbolTableRecord
100
AcDbLayerTableRecord
  2
AM_PAREF
 70
     0
 62
     4
  6
Continuous
290
     0
370
    25
390
F
  0
LAYER
  5
2C9
102
{ACAD_XDICTIONARY
360
2A66
102
}
330
2
100
AcDbSymbolTableRecord
100
AcDbLayerTableRecord
  2
AM_12N
 70
     0
 62
     7
  6
Continuous
290
     0
370
    50
390
F
  0
LAYER
  5
5A5
102
{ACAD_XDICTIONARY
360
2A68
102
}
330
2
100
AcDbSymbolTableRecord
100
AcDbLayerTableRecord
  2
AM_11
 70
     0
 62
     3
  6
AM_ISO09W050
370
    25
390
F
  0
LAYER
  5
782
102
{ACAD_XDICTIONARY
360
2A6A
102
}
330
2
100
AcDbSymbolTableRecord
100
AcDbLayerTableRecord
  2
AM_8
 70
     0
 62
     1
  6
Continuous
370
    25
390
F
  0
LAYER
  5
BFA
102
{ACAD_XDICTIONARY
360
2A6C
102
}
330
2
100
AcDbSymbolTableRecord
100
AcDbLayerTableRecord
  2
AM_12
 70
     0
 62
     7
  6
Continuous
290
     0
370
    50
390
F
  0
LAYER
  5
C47
102
{ACAD_XDICTIONARY
360
2A6E
102
}
330
2
100
AcDbSymbolTableRecord
100
AcDbLayerTableRecord
  2
AM_5
 70
     0
 62
     3
  6
Continuous
370
    25
390
F
  0
LAYER
  5
C49
330
2
100
AcDbSymbolTableRecord
100
AcDbLayerTableRecord
  2
Defpoints
 70
     0
 62
     7
  6
Continuous
290
     0
370
    -3
390
F
  0
ENDTAB
  0
TABLE
  2
STYLE
  5
3
330
0
100
AcDbSymbolTable
 70
    10
  0
STYLE
  5
11
330
3
100
AcDbSymbolTableRecord
100
AcDbTextStyleTableRecord
  2
STANDARD
 70
     0
 40
0.0
 41
1.0
 50
0.0
 71
     0
 42
1.5
  3
ISOCP.SHX
  4
EXTFONT.SHX
  0
STYLE
  5
47
330
3
100
AcDbSymbolTableRecord
100
AcDbTextStyleTableRecord
  2
USER1
 70
     0
 40
0.0
 41
1.0
 50
0.0
 71
     0
 42
2.5
  3
TXT.SHX
  4

  0
STYLE
  5
48
330
3
100
AcDbSymbolTableRecord
100
AcDbTextStyleTableRecord
  2
USER2
 70
     0
 40
0.0
 41
1.0
 50
0.0
 71
     0
 42
2.5
  3
SIMPLEX.SHX
  4

  0
STYLE
  5
49
330
3
100
AcDbSymbolTableRecord
100
AcDbTextStyleTableRecord
  2
USER3
 70
     0
 40
0.0
 41
1.0
 50
0.0
 71
     0
 42
2.5
  3
ITALIC.SHX
  4

  0
STYLE
  5
52
330
3
100
AcDbSymbolTableRecord
100
AcDbTextStyleTableRecord
  2

 70
     1
 40
0.0
 41
1.0
 50
0.0
 71
     0
 42
2.5
  3
ltypeshp.shx
  4

  0
STYLE
  5
161
330
3
100
AcDbSymbolTableRecord
100
AcDbTextStyleTableRecord
  2
ACJISTS
 70
     0
 40
1.0
 41
1.0
 50
0.0
 71
     0
 42
2.5
  3
isocp.shx
  4
bigfont.shx
  0
STYLE
  5
168
330
3
100
AcDbSymbolTableRecord
100
AcDbTextStyleTableRecord
  2
ACJISGDT
 70
     0
 40
0.0
 41
1.0
 50
0.0
 71
     0
 42
2.5
  3
amgdt.shx
  4

  0
STYLE
  5
1388
330
3
100
AcDbSymbolTableRecord
100
AcDbTextStyleTableRecord
  2
ｽﾀｲﾙ1
 70
     0
 40
0.0
 41
1.0
 50
0.0
 71
     0
 42
44.62462130138407
  3

  4

1001
ACAD
1000
HGPSoeiKakugothicUB
1071
    32818
  0
STYLE
  5
1C88
330
3
100
AcDbSymbolTableRecord
100
AcDbTextStyleTableRecord
  2
ACISOTS
 70
     0
 40
1.0
 41
1.0
 50
0.0
 71
     0
 42
3.0
  3
isocp.shx
  4
extfont.shx
  0
STYLE
  5
1C89
330
3
100
AcDbSymbolTableRecord
100
AcDbTextStyleTableRecord
  2
ACISOGDT
 70
     0
 40
0.0
 41
1.0
 50
0.0
 71
     0
 42
3.0
  3
amgdt.shx
  4

  0
ENDTAB
  0
TABLE
  2
VIEW
  5
6
330
0
100
AcDbSymbolTable
 70
     6
  0
VIEW
  5
7C
330
6
100
AcDbSymbolTableRecord
100
AcDbViewTableRecord
  2
AM_VIEW1
 70
     0
 40
74.25
 10
171.352069031158
 20
358.4925262532765
 41
112.1648936170213
 11
0.0
 21
0.0
 31
1.0
 12
0.0
 22
0.0
 32
0.0
 42
50.0
 43
0.0
 44
0.0
 50
0.0
 71
     0
281
     0
 72
     0
  0
VIEW
  5
7D
330
6
100
AcDbSymbolTableRecord
100
AcDbViewTableRecord
  2
AM_VIEW2
 70
     0
 40
74.25
 10
269.2086039855653
 20
358.4925262532765
 41
112.1648936170213
 11
0.0
 21
0.0
 31
1.0
 12
0.0
 22
0.0
 32
0.0
 42
50.0
 43
0.0
 44
0.0
 50
0.0
 71
     0
281
     0
 72
     0
  0
VIEW
  5
7E
330
6
100
AcDbSymbolTableRecord
100
AcDbViewTableRecord
  2
AM_VIEW3
 70
     0
 40
74.25000000000006
 10
171.352069031158
 20
284.2425262532765
 41
112.1648936170213
 11
0.0
 21
0.0
 31
1.0
 12
0.0
 22
0.0
 32
0.0
 42
50.0
 43
0.0
 44
0.0
 50
0.0
 71
     0
281
     0
 72
     0
  0
VIEW
  5
7F
330
6
100
AcDbSymbolTableRecord
100
AcDbViewTableRecord
  2
AM_VIEW4
 70
     0
 40
74.25000000000006
 10
269.2086039855653
 20
284.2425262532765
 41
112.1648936170213
 11
0.0
 21
0.0
 31
1.0
 12
0.0
 22
0.0
 32
0.0
 42
50.0
 43
0.0
 44
0.0
 50
0.0
 71
     0
281
     0
 72
     0
  0
VIEW
  5
80
330
6
100
AcDbSymbolTableRecord
100
AcDbViewTableRecord
  2
AM_VIEW5
 70
     0
 40
74.25
 10
220.2803365083617
 20
321.3675262532766
 41
112.1648936170213
 11
0.0
 21
0.0
 31
1.0
 12
0.0
 22
0.0
 32
0.0
 42
50.0
 43
0.0
 44
0.0
 50
0.0
 71
     0
281
     0
 72
     0
  0
VIEW
  5
81
330
6
100
AcDbSymbolTableRecord
100
AcDbViewTableRecord
  2
AM_VIEW6
 70
     0
 40
148.498515
 10
220.2803365083617
 20
321.3675262532766
 41
224.3275439361703
 11
0.0
 21
0.0
 31
1.0
 12
0.0
 22
0.0
 32
0.0
 42
50.0
 43
0.0
 44
0.0
 50
0.0
 71
     0
281
     0
 72
     0
  0
ENDTAB
  0
TABLE
  2
UCS
  5
7
330
0
100
AcDbSymbolTable
 70
     0
  0
ENDTAB
  0
TABLE
  2
APPID
  5
9
330
0
100
AcDbSymbolTable
 70
    39
  0
APPID
  5
12
330
9
100
AcDbSymbolTableRecord
100
AcDbRegAppTableRecord
  2
ACAD
 70
     0
  0
APPID
  5
30
330
9
100
AcDbSymbolTableRecord
100
AcDbRegAppTableRecord
  2
MCAD_NO_VIS
 70
     0
  0
APPID
  5
31
330
9
100
AcDbSymbolTableRecord
100
AcDbRegAppTableRecord
  2
ACAD_TEMP_GRAPHIC
 70
     0
  0
APPID
  5
5B
330
9
100
AcDbSymbolTableRecord
100
AcDbRegAppTableRecord
  2
GENIUS_GENREC_14
 70
     0
  0
APPID
  5
5C
330
9
100
AcDbSymbolTableRecord
100
AcDbRegAppTableRecord
  2
GENIUS_GENODEF_13
 70
     0
  0
APPID
  5
5D
330
9
100
AcDbSymbolTableRecord
100
AcDbRegAppTableRecord
  2
GENIUS_GENOBJ-N-REC_13
 70
     0
  0
APPID
  5
96
330
9
100
AcDbSymbolTableRecord
100
AcDbRegAppTableRecord
  2
GENIUS_GENOBJ-N-CEN_13
 70
     0
  0
APPID
  5
C1
330
9
100
AcDbSymbolTableRecord
100
AcDbRegAppTableRecord
  2
GENIUS_GENOBJ-N-TIT_13
 70
     0
  0
APPID
  5
C2
330
9
100
AcDbSymbolTableRecord
100
AcDbRegAppTableRecord
  2
GENIUS_GENTITLE_13
 70
     0
  0
APPID
  5
C3
330
9
100
AcDbSymbolTableRecord
100
AcDbRegAppTableRecord
  2
GENIUS_GENOENT_13
 70
     0
  0
APPID
  5
C4
330
9
100
AcDbSymbolTableRecord
100
AcDbRegAppTableRecord
  2
GENIUS_GENOREF_13
 70
     0
  0
APPID
  5
C5
330
9
100
AcDbSymbolTableRecord
100
AcDbRegAppTableRecord
  2
GENIUS_GENOLIS_13
 70
     0
  0
APPID
  5
C6
330
9
100
AcDbSymbolTableRecord
100
AcDbRegAppTableRecord
  2
GENIUS_GENZVEED_13
 70
     0
  0
APPID
  5
C7
330
9
100
AcDbSymbolTableRecord
100
AcDbRegAppTableRecord
  2
GENIUS_GENSCREG_15
 70
     0
  0
APPID
  5
C8
330
9
100
AcDbSymbolTableRecord
100
AcDbRegAppTableRecord
  2
GENIUS_GENOBJ-N-SDF_13
 70
     0
  0
APPID
  5
297
330
9
100
AcDbSymbolTableRecord
100
AcDbRegAppTableRecord
  2
GENIUS_GENOBJ-N-FIL_13
 70
     0
  0
APPID
  5
2CA
330
9
100
AcDbSymbolTableRecord
100
AcDbRegAppTableRecord
  2
GENIUS_GEFSH_13
 70
     0
  0
APPID
  5
2CB
330
9
100
AcDbSymbolTableRecord
100
AcDbRegAppTableRecord
  2
GENIUS_GENOBJ-F-SHS_13
 70
     0
  0
APPID
  5
2CC
330
9
100
AcDbSymbolTableRecord
100
AcDbRegAppTableRecord
  2
GENIUS_GENFIL_13
 70
     0
  0
APPID
  5
2CD
330
9
100
AcDbSymbolTableRecord
100
AcDbRegAppTableRecord
  2
GENIUS_GENOBJ-N-CHA_13
 70
     0
  0
APPID
  5
783
330
9
100
AcDbSymbolTableRecord
100
AcDbRegAppTableRecord
  2
GENIUS_GENOBJ-N-HTC_13
 70
     0
  0
APPID
  5
784
330
9
100
AcDbSymbolTableRecord
100
AcDbRegAppTableRecord
  2
GENIUS_GENHATCH_13
 70
     0
  0
APPID
  5
C83
330
9
100
AcDbSymbolTableRecord
100
AcDbRegAppTableRecord
  2
GENIUS_GENDTOL_13
 70
     0
  0
APPID
  5
CFA
330
9
100
AcDbSymbolTableRecord
100
AcDbRegAppTableRecord
  2
GENIUS_GENDIMSH_14
 70
     0
  0
APPID
  5
16C5
330
9
100
AcDbSymbolTableRecord
100
AcDbRegAppTableRecord
  2
GENIUS_GENOBJ-N-CRS_13
 70
     0
  0
APPID
  5
1B10
330
9
100
AcDbSymbolTableRecord
100
AcDbRegAppTableRecord
  2
AD_DRAW
 70
     0
  0
APPID
  5
1B13
330
9
100
AcDbSymbolTableRecord
100
AcDbRegAppTableRecord
  2
ACATTRIBSERVICES
 70
     0
  0
APPID
  5
1B32
330
9
100
AcDbSymbolTableRecord
100
AcDbRegAppTableRecord
  2
DESIGNERASSEMBLIES
 70
     0
  0
APPID
  5
1B4C
330
9
100
AcDbSymbolTableRecord
100
AcDbRegAppTableRecord
  2
ACADM_DIM_EDIT
 70
     0
  0
APPID
  5
1B4D
330
9
100
AcDbSymbolTableRecord
100
AcDbRegAppTableRecord
  2
AMDT_DM_ADJ
 70
     0
  0
APPID
  5
1C10
330
9
100
AcDbSymbolTableRecord
100
AcDbRegAppTableRecord
  2
GENIUS_GENCEN_19
 70
     0
  0
APPID
  5
1C23
330
9
100
AcDbSymbolTableRecord
100
AcDbRegAppTableRecord
  2
ACAD_PSEXT
 70
     0
  0
APPID
  5
1C5A
330
9
100
AcDbSymbolTableRecord
100
AcDbRegAppTableRecord
  2
ACAD_EXEMPT_FROM_CAD_STANDARDS
 70
     0
  0
APPID
  5
27D2
330
9
100
AcDbSymbolTableRecord
100
AcDbRegAppTableRecord
  2
ACAECLAYERSTANDARD
 70
     0
  0
APPID
  5
28B3
330
9
100
AcDbSymbolTableRecord
100
AcDbRegAppTableRecord
  2
ACAD_DSTYLE_DIMINSPECT
 70
     0
  0
APPID
  5
2AC5
330
9
100
AcDbSymbolTableRecord
100
AcDbRegAppTableRecord
  2
ACAD_MLEADERVER
 70
     0
  0
APPID
  5
2BF5
330
9
100
AcDbSymbolTableRecord
100
AcDbRegAppTableRecord
  2
ACAD_DSTYLE_DIMANGULAR_EXTENSION
 70
     0
  0
APPID
  5
2C15
330
9
100
AcDbSymbolTableRecord
100
AcDbRegAppTableRecord
  2
ACAD_DSTYLE_DIMBREAK
 70
     0
  0
APPID
  5
2C16
330
9
100
AcDbSymbolTableRecord
100
AcDbRegAppTableRecord
  2
ACAD_DSTYLE_DIMJAG
 70
     0
  0
ENDTAB
  0
TABLE
  2
DIMSTYLE
  5
A
330
0
100
AcDbSymbolTable
 70
    12
100
AcDbDimStyleTable
 71
     2
340
8F
340
27
  0
DIMSTYLE
105
27
330
A
100
AcDbSymbolTableRecord
100
AcDbDimStyleTableRecord
  2
ISO-25
 70
     0
 41
2.5
 42
0.625
 43
3.75
 44
1.25
 73
     0
 74
     0
 77
     1
 78
     8
140
2.5
141
2.5
143
0.03937007874016
147
0.625
171
     3
172
     1
271
     2
272
     2
274
     3
283
     0
284
     8
340
11
  0
DIMSTYLE
105
8F
330
A
100
AcDbSymbolTableRecord
100
AcDbDimStyleTableRecord
  2
AM_JIS
 70
     0
  4
"
 40
0.5
 41
2.5
 42
1.0
 43
10.0
 44
1.0
 47
0.1
 48
0.1
 73
     0
 74
     0
 77
     3
 78
     8
 79
     2
140
3.5
141
0.0
143
0.0393701
146
0.71
147
1.5
172
     1
176
   256
177
   256
178
     2
271
     2
272
     3
274
     4
283
     0
340
11
341
84
342
84
343
84
344
84
371
    -1
372
    -1
  0
DIMSTYLE
105
90
330
A
100
AcDbSymbolTableRecord
100
AcDbDimStyleTableRecord
  2
AM_JIS$3
 70
     0
  4
"
 40
0.5
 41
2.5
 42
1.0
 43
10.0
 44
1.0
 47
0.1
 48
0.1
 73
     0
 77
     3
 78
     8
 79
     2
140
3.5
141
0.0
143
0.0393701
146
0.71
147
1.5
176
   256
177
   256
178
     2
271
     2
272
     3
274
     4
283
     0
288
     1
289
     0
340
11
341
84
342
84
343
84
344
84
371
    -1
372
    -1
  0
DIMSTYLE
105
91
330
A
100
AcDbSymbolTableRecord
100
AcDbDimStyleTableRecord
  2
AM_JIS$4
 70
     0
  4
"
 40
0.5
 41
2.5
 42
1.0
 43
10.0
 44
1.0
 47
0.1
 48
0.1
 73
     0
 77
     3
 78
     8
 79
     2
140
3.5
141
0.0
143
0.0393701
146
0.71
147
1.5
176
   256
177
   256
178
     2
271
     2
272
     3
274
     4
283
     0
288
     1
289
     0
340
11
341
84
342
84
343
84
344
84
371
    -1
372
    -1
  0
DIMSTYLE
105
92
330
A
100
AcDbSymbolTableRecord
100
AcDbDimStyleTableRecord
  2
AM_JIS$6
 70
     0
  4
"
 40
0.5
 41
2.5
 42
1.0
 43
10.0
 44
1.0
 47
0.1
 48
0.1
 73
     0
 74
     0
 78
     8
 79
     2
140
3.5
141
0.0
143
0.0393701
146
0.71
147
1.5
172
     1
176
   256
177
   256
178
     2
271
     2
272
     3
274
     4
283
     0
340
11
341
84
342
84
343
84
344
84
371
    -1
372
    -1
  0
DIMSTYLE
105
93
330
A
100
AcDbSymbolTableRecord
100
AcDbDimStyleTableRecord
  2
AM_JIS$7
 70
     0
  4
"
 40
0.5
 41
2.5
 42
1.0
 43
10.0
 44
1.0
 47
0.1
 48
0.1
 73
     0
 74
     0
 77
     3
 78
     8
 79
     2
140
5.0
141
0.0
143
0.0393701
146
0.71
147
1.5
172
     1
176
   256
177
   256
178
     2
271
     2
272
     3
274
     4
283
     0
340
11
341
84
342
84
343
84
344
84
371
    -1
372
    -1
  0
DIMSTYLE
105
94
330
A
100
AcDbSymbolTableRecord
100
AcDbDimStyleTableRecord
  2
AM_JIS$SF
 70
     0
  4
"
 40
0.5
 41
2.5
 42
1.0
 43
10.0
 44
1.0
 47
0.1
 48
0.1
 73
     0
 74
     0
 75
     1
 76
     1
 77
     3
 78
     8
 79
     2
140
3.5
141
0.0
143
0.0393701
146
0.71
147
1.5
172
     1
176
   256
177
   256
178
     2
271
     2
272
     3
274
     4
283
     0
340
11
341
84
342
84
343
84
344
84
371
    -1
372
    -1
  0
DIMSTYLE
105
95
330
A
100
AcDbSymbolTableRecord
100
AcDbDimStyleTableRecord
  2
AM_JIS$SH
 70
     0
  4
"
 40
0.5
 41
2.5
 42
1.0
 43
10.0
 44
1.0
 47
0.1
 48
0.1
 73
     0
 74
     0
 75
     1
 76
     1
 77
     3
 78
     8
 79
     2
140
3.5
141
0.0
143
0.0393701
144
2.0
146
0.71
147
1.5
172
     1
173
     1
176
   256
177
   256
178
     2
271
     2
272
     3
274
     4
283
     0
340
11
341
84
342
84
343
8A
344
84
371
    -1
372
    -1
  0
DIMSTYLE
105
1BE1
330
A
100
AcDbSymbolTableRecord
100
AcDbDimStyleTableRecord
  2
AM_JIS$0
 70
     0
  4
"
 40
0.5
 41
2.5
 42
1.0
 43
10.0
 44
1.0
 47
0.1
 48
0.1
 73
     0
 74
     0
 77
     3
 78
     8
 79
     2
140
3.5
141
0.0
143
0.0393701
146
0.71
147
1.5
172
     1
176
   256
177
   256
178
     2
271
     2
272
     3
274
     4
283
     0
340
11
341
84
342
84
343
84
344
84
371
    -1
372
    -1
  0
DIMSTYLE
105
241C
330
A
100
AcDbSymbolTableRecord
100
AcDbDimStyleTableRecord
  2
ISO-25$0
 70
     0
 41
3.0
 42
0.625
 43
3.0
 44
1.25
 45
0.001
 73
     0
 74
     0
 77
     1
 78
     8
140
3.0
141
3.0
143
0.03937007874016
147
0.625
171
     3
172
     1
176
     1
177
     1
271
     2
272
     2
274
     3
283
     0
284
     8
340
11
371
     5
372
     5
  0
DIMSTYLE
105
250A
330
A
100
AcDbSymbolTableRecord
100
AcDbDimStyleTableRecord
  2
AM_ANSI
 70
     0
  4
mm
 40
0.5
 41
0.1
 42
0.05
 43
0.5
 44
0.1
 47
0.1
 48
0.1
 78
     7
 79
     2
140
0.12
141
0.0
146
0.71
147
0.06
176
   256
177
   256
178
     2
274
     4
284
     7
340
11
371
    -1
372
    -1
  0
DIMSTYLE
105
250B
330
A
100
AcDbSymbolTableRecord
100
AcDbDimStyleTableRecord
  2
AM_JIS$2
 70
     0
  4
"
 40
0.5
 41
2.5
 42
1.0
 43
10.0
 44
1.0
 47
0.1
 48
0.1
 73
     0
 74
     0
 77
     3
 78
     8
 79
     2
140
3.5
141
0.0
143
0.0393701
146
0.71
147
1.5
172
     1
176
   256
177
   256
178
     2
271
     2
272
     3
274
     4
283
     0
284
     8
340
11
341
84
342
84
343
84
344
84
371
    -1
372
    -1
  0
ENDTAB
  0
TABLE
  2
BLOCK_RECORD
  5
1
330
0
100
AcDbSymbolTable
 70
    13
  0
BLOCK_RECORD
  5
1F
102
{ACAD_XDICTIONARY
360
C9
102
}
330
1
100
AcDbSymbolTableRecord
100
AcDbBlockTableRecord
  2
*Model_Space
340
22
  0
BLOCK_RECORD
  5
1B
330
1
100
AcDbSymbolTableRecord
100
AcDbBlockTableRecord
  2
*Paper_Space
340
1E
  0
BLOCK_RECORD
  5
23
330
1
100
AcDbSymbolTableRecord
100
AcDbBlockTableRecord
  2
*Paper_Space0
340
26
  0
BLOCK_RECORD
  5
84
330
1
100
AcDbSymbolTableRecord
100
AcDbBlockTableRecord
  2
_Open30
340
0
  0
BLOCK_RECORD
  5
8A
330
1
100
AcDbSymbolTableRecord
100
AcDbBlockTableRecord
  2
GENAXEH
340
0
  0
BLOCK_RECORD
  5
1217
330
1
100
AcDbSymbolTableRecord
100
AcDbBlockTableRecord
  2
GENDOT
340
0
  0
BLOCK_RECORD
  5
1354
330
1
100
AcDbSymbolTableRecord
100
AcDbBlockTableRecord
  2
AA-3-BW
340
0
  0
BLOCK_RECORD
  5
136C
330
1
100
AcDbSymbolTableRecord
100
AcDbBlockTableRecord
  2
A$C2D292097
340
0
  0
BLOCK_RECORD
  5
1389
330
1
100
AcDbSymbolTableRecord
100
AcDbBlockTableRecord
  2
ASO
340
0
  0
BLOCK_RECORD
  5
1C8A
102
{ACAD_XDICTIONARY
360
1CBB
102
}
330
1
100
AcDbSymbolTableRecord
100
AcDbBlockTableRecord
  2
ASO-A
340
0
  0
BLOCK_RECORD
  5
2217
330
1
100
AcDbSymbolTableRecord
100
AcDbBlockTableRecord
  2
*D9
340
0
  0
BLOCK_RECORD
  5
2223
330
1
100
AcDbSymbolTableRecord
100
AcDbBlockTableRecord
  2
A$C75206A3A
340
0
1001
ACAD
1000
DesignCenter Data
1002
{
1070
     1
1070
     4
1002
}
  0
BLOCK_RECORD
  5
295B
330
1
100
AcDbSymbolTableRecord
100
AcDbBlockTableRecord
  2
_None
340
0
  0
BLOCK_RECORD
  5
3B51
102
{ACAD_XDICTIONARY
360
3B7B
102
}
330
1
100
AcDbSymbolTableRecord
100
AcDbBlockTableRecord
  2
A$C447A4038
340
0
1001
ACAD
1000
DesignCenter Data
1002
{
1070
     1
1070
     4
1002
}
  0
ENDTAB
  0
ENDSEC
  0
SECTION
  2
BLOCKS
  0
BLOCK
  5
20
330
1F
100
AcDbEntity
  8
0
100
AcDbBlockBegin
  2
*Model_Space
 70
     0
 10
0.0
 20
0.0
 30
0.0
  3
*Model_Space
  1

  0
ENDBLK
  5
21
330
1F
100
AcDbEntity
  8
0
100
AcDbBlockEnd
  0
BLOCK
  5
1C
330
1B
100
AcDbEntity
 67
     1
  8
0
100
AcDbBlockBegin
  2
*Paper_Space
 70
     0
 10
0.0
 20
0.0
 30
0.0
  3
*Paper_Space
  1

  0
ENDBLK
  5
1D
330
1B
100
AcDbEntity
 67
     1
  8
0
100
AcDbBlockEnd
  0
BLOCK
  5
24
330
23
100
AcDbEntity
 67
     1
  8
0
100
AcDbBlockBegin
  2
*Paper_Space0
 70
     0
 10
0.0
 20
0.0
 30
0.0
  3
*Paper_Space0
  1

  0
ENDBLK
  5
25
330
23
100
AcDbEntity
 67
     1
  8
0
100
AcDbBlockEnd
  0
BLOCK
  5
88
330
84
100
AcDbEntity
  8
0
100
AcDbBlockBegin
  2
_Open30
 70
     0
 10
0.0
 20
0.0
 30
0.0
  3
_Open30
  1

  0
LINE
  5
85
330
84
100
AcDbEntity
  8
0
 62
     0
370
    -2
100
AcDbLine
 10
-1.0
 20
0.26794919
 30
0.0
 11
0.0
 21
0.0
 31
0.0
  0
LINE
  5
86
330
84
100
AcDbEntity
  8
0
 62
     0
370
    -2
100
AcDbLine
 10
0.0
 20
0.0
 30
0.0
 11
-1.0
 21
-0.26794919
 31
0.0
  0
LINE
  5
87
330
84
100
AcDbEntity
  8
0
 62
     0
370
    -2
100
AcDbLine
 10
0.0
 20
0.0
 30
0.0
 11
-1.0
 21
0.0
 31
0.0
  0
ENDBLK
  5
89
330
84
100
AcDbEntity
  8
0
100
AcDbBlockEnd
  0
BLOCK
  5
8C
330
8A
100
AcDbEntity
  8
0
100
AcDbBlockBegin
  2
GENAXEH
 70
     0
 10
0.0
 20
0.0
 30
0.0
  3
GENAXEH
  1

  0
LINE
  5
8B
330
8A
100
AcDbEntity
  8
0
100
AcDbLine
 10
-1.0
 20
0.0
 30
0.0
 11
1.0
 21
0.0
 31
0.0
  0
ENDBLK
  5
8D
330
8A
100
AcDbEntity
  8
0
100
AcDbBlockEnd
  0
BLOCK
  5
121A
330
1217
100
AcDbEntity
  8
0
100
AcDbBlockBegin
  2
GENDOT
 70
     0
 10
0.0
 20
0.0
 30
0.0
  3
GENDOT
  1

  0
LINE
  5
1218
330
1217
100
AcDbEntity
  8
0
100
AcDbLine
 10
0.0
 20
0.0
 30
0.0
 11
-1.0
 21
0.0
 31
0.0
  0
LWPOLYLINE
  5
1219
330
1217
100
AcDbEntity
  8
0
100
AcDbPolyline
 90
        2
 70
     1
 43
0.25
 10
-0.125
 20
0.0
 42
1.0
 10
0.125
 20
0.0
 42
1.0
  0
ENDBLK
  5
121B
330
1217
100
AcDbEntity
  8
0
100
AcDbBlockEnd
  0
BLOCK
  5
1362
330
1354
100
AcDbEntity
  8
0
100
AcDbBlockBegin
  2
AA-3-BW
 70
     0
 10
0.0
 20
0.0
 30
0.0
  3
AA-3-BW
  1

  0
LWPOLYLINE
  5
1355
330
1354
100
AcDbEntity
  8
AM_BOR
 62
   231
100
AcDbPolyline
 90
        4
 70
     1
 43
0.0
 10
11.31798825946299
 20
285.680442839147
 10
11.31798825946292
 20
11.31955716085312
 10
408.7322739737486
 20
11.31955716085296
 10
408.7322739737486
 20
285.680442839147
1001
GENIUS_GENREC_14
1002
{
1000
PYDIR
1011
408.7322739737486
1021
285.680442839147
1031
0.0
1002
}
1002
{
1000
PXDIR
1011
11.31798825946292
1021
11.31955716085312
1031
0.0
1002
}
1002
{
1000
PORI
1011
11.31798825946299
1021
285.680442839147
1031
0.0
1002
}
1002
{
1000
PINS
1011
11.31798825946299
1021
285.680442839147
1031
0.0
1002
}
1002
{
1000
HVAL
1000
281
1002
}
1002
{
1000
H
1070
     2
1002
}
1002
{
1000
WVAL
1000
183
1002
}
1002
{
1000
W
1070
     2
1002
}
1002
{
1000
C
1070
     1
1002
}
1001
GENIUS_GENODEF_13
1002
{
1000
HIER
1070
     0
1002
}
1002
{
1000
MANEDIT
1070
     0
1002
}
1002
{
1000
NOSEL
1070
     0
1002
}
1002
{
1000
BEHIND
1070
     0
1002
}
1002
{
1000
REACTOR
1002
}
1001
GENIUS_GENOBJ-N-REC_13
1002
{
1000
OWNER
1000
GEN
1002
}
  0
TEXT
  5
1356
330
1354
100
AcDbEntity
  8
AM_BOR
 60
     1
100
AcDbText
 10
420.0428571428571
 20
296.9999999999998
 30
0.0
 40
5.0
  1
!GENTITLE-MAX
100
AcDbText
  0
LINE
  5
1357
330
1354
100
AcDbEntity
  8
AM_BOR
100
AcDbLine
 10
0.0000000000000799
 20
297.0
 30
0.0
 11
0.0000000000000799
 21
275.7857142857142
 31
0.0
1001
GENIUS_GENREC_14
1002
{
1000
PYDIR
1011
420.0428571428571
1021
296.9999999999998
1031
0.0
1002
}
1002
{
1000
PXDIR
1011
0.0
1021
0.0
1031
0.0
1002
}
1002
{
1000
PORI
1011
0.0000000000000799
1021
297.0
1031
0.0
1002
}
1002
{
1000
PINS
1011
0.0000000000000799
1021
297.0
1031
0.0
1002
}
1002
{
1000
HVAL
1000
297
1002
}
1002
{
1000
H
1070
     2
1002
}
1002
{
1000
WVAL
1000
210
1002
}
1002
{
1000
W
1070
     2
1002
}
1002
{
1000
C
1070
     1
1002
}
1001
GENIUS_GENODEF_13
1002
{
1000
HIER
1070
     0
1002
}
1002
{
1000
MANEDIT
1070
     0
1002
}
1002
{
1000
NOSEL
1070
     0
1002
}
1002
{
1000
BEHIND
1070
     0
1002
}
1002
{
1000
REACTOR
1002
}
1001
GENIUS_GENOBJ-N-REC_13
1002
{
1000
OWNER
1000
GEN
1002
}
  0
LINE
  5
1358
330
1354
100
AcDbEntity
  8
AM_BOR
100
AcDbLine
 10
0.0
 20
0.0
 30
0.0
 11
21.21428571428571
 21
0.0
 31
0.0
1001
GENIUS_GENREC_14
1002
{
1000
PYDIR
1011
420.0428571428571
1021
296.9999999999998
1031
0.0
1002
}
1002
{
1000
PXDIR
1011
0.0
1021
0.0
1031
0.0
1002
}
1002
{
1000
PORI
1011
0.0000000000000799
1021
297.0
1031
0.0
1002
}
1002
{
1000
PINS
1011
0.0000000000000799
1021
297.0
1031
0.0
1002
}
1002
{
1000
HVAL
1000
297
1002
}
1002
{
1000
H
1070
     2
1002
}
1002
{
1000
WVAL
1000
210
1002
}
1002
{
1000
W
1070
     2
1002
}
1002
{
1000
C
1070
     1
1002
}
1001
GENIUS_GENODEF_13
1002
{
1000
HIER
1070
     0
1002
}
1002
{
1000
MANEDIT
1070
     0
1002
}
1002
{
1000
NOSEL
1070
     0
1002
}
1002
{
1000
BEHIND
1070
     0
1002
}
1002
{
1000
REACTOR
1002
}
1001
GENIUS_GENOBJ-N-REC_13
1002
{
1000
OWNER
1000
GEN
1002
}
  0
LINE
  5
1359
330
1354
100
AcDbEntity
  8
AM_BOR
100
AcDbLine
 10
420.0428571428571
 20
-0.0000000000000799
 30
0.0
 11
420.0428571428571
 21
21.21428571428563
 31
0.0
1001
GENIUS_GENREC_14
1002
{
1000
PYDIR
1011
420.0428571428571
1021
296.9999999999998
1031
0.0
1002
}
1002
{
1000
PXDIR
1011
0.0
1021
0.0
1031
0.0
1002
}
1002
{
1000
PORI
1011
0.0000000000000799
1021
297.0
1031
0.0
1002
}
1002
{
1000
PINS
1011
0.0000000000000799
1021
297.0
1031
0.0
1002
}
1002
{
1000
HVAL
1000
297
1002
}
1002
{
1000
H
1070
     2
1002
}
1002
{
1000
WVAL
1000
210
1002
}
1002
{
1000
W
1070
     2
1002
}
1002
{
1000
C
1070
     1
1002
}
1001
GENIUS_GENODEF_13
1002
{
1000
HIER
1070
     0
1002
}
1002
{
1000
MANEDIT
1070
     0
1002
}
1002
{
1000
NOSEL
1070
     0
1002
}
1002
{
1000
BEHIND
1070
     0
1002
}
1002
{
1000
REACTOR
1002
}
1001
GENIUS_GENOBJ-N-REC_13
1002
{
1000
OWNER
1000
GEN
1002
}
  0
LINE
  5
135A
330
1354
100
AcDbEntity
  8
AM_BOR
100
AcDbLine
 10
420.0428571428571
 20
296.9999999999998
 30
0.0
 11
398.8285714285715
 21
296.9999999999998
 31
0.0
1001
GENIUS_GENREC_14
1002
{
1000
PYDIR
1011
420.0428571428571
1021
296.9999999999998
1031
0.0
1002
}
1002
{
1000
PXDIR
1011
0.0
1021
0.0
1031
0.0
1002
}
1002
{
1000
PORI
1011
0.0000000000000799
1021
297.0
1031
0.0
1002
}
1002
{
1000
PINS
1011
0.0000000000000799
1021
297.0
1031
0.0
1002
}
1002
{
1000
HVAL
1000
297
1002
}
1002
{
1000
H
1070
     2
1002
}
1002
{
1000
WVAL
1000
210
1002
}
1002
{
1000
W
1070
     2
1002
}
1002
{
1000
C
1070
     1
1002
}
1001
GENIUS_GENODEF_13
1002
{
1000
HIER
1070
     0
1002
}
1002
{
1000
MANEDIT
1070
     0
1002
}
1002
{
1000
NOSEL
1070
     0
1002
}
1002
{
1000
BEHIND
1070
     0
1002
}
1002
{
1000
REACTOR
1002
}
1001
GENIUS_GENOBJ-N-REC_13
1002
{
1000
OWNER
1000
GEN
1002
}
  0
LINE
  5
135B
330
1354
100
AcDbEntity
  8
AM_BOR
100
AcDbLine
 10
21.2142857142858
 20
297.0
 30
0.0
 11
0.0000000000000799
 21
297.0
 31
0.0
1001
GENIUS_GENREC_14
1002
{
1000
PYDIR
1011
420.0428571428571
1021
296.9999999999998
1031
0.0
1002
}
1002
{
1000
PXDIR
1011
0.0
1021
0.0
1031
0.0
1002
}
1002
{
1000
PORI
1011
0.0000000000000799
1021
297.0
1031
0.0
1002
}
1002
{
1000
PINS
1011
0.0000000000000799
1021
297.0
1031
0.0
1002
}
1002
{
1000
HVAL
1000
297
1002
}
1002
{
1000
H
1070
     2
1002
}
1002
{
1000
WVAL
1000
210
1002
}
1002
{
1000
W
1070
     2
1002
}
1002
{
1000
C
1070
     1
1002
}
1001
GENIUS_GENODEF_13
1002
{
1000
HIER
1070
     0
1002
}
1002
{
1000
MANEDIT
1070
     0
1002
}
1002
{
1000
NOSEL
1070
     0
1002
}
1002
{
1000
BEHIND
1070
     0
1002
}
1002
{
1000
REACTOR
1002
}
1001
GENIUS_GENOBJ-N-REC_13
1002
{
1000
OWNER
1000
GEN
1002
}
  0
LINE
  5
135C
330
1354
100
AcDbEntity
  8
AM_BOR
100
AcDbLine
 10
420.0428571428571
 20
275.7857142857141
 30
0.0
 11
420.0428571428571
 21
296.9999999999998
 31
0.0
1001
GENIUS_GENREC_14
1002
{
1000
PYDIR
1011
420.0428571428571
1021
296.9999999999998
1031
0.0
1002
}
1002
{
1000
PXDIR
1011
0.0
1021
0.0
1031
0.0
1002
}
1002
{
1000
PORI
1011
0.0000000000000799
1021
297.0
1031
0.0
1002
}
1002
{
1000
PINS
1011
0.0000000000000799
1021
297.0
1031
0.0
1002
}
1002
{
1000
HVAL
1000
297
1002
}
1002
{
1000
H
1070
     2
1002
}
1002
{
1000
WVAL
1000
210
1002
}
1002
{
1000
W
1070
     2
1002
}
1002
{
1000
C
1070
     1
1002
}
1001
GENIUS_GENODEF_13
1002
{
1000
HIER
1070
     0
1002
}
1002
{
1000
MANEDIT
1070
     0
1002
}
1002
{
1000
NOSEL
1070
     0
1002
}
1002
{
1000
BEHIND
1070
     0
1002
}
1002
{
1000
REACTOR
1002
}
1001
GENIUS_GENOBJ-N-REC_13
1002
{
1000
OWNER
1000
GEN
1002
}
  0
LINE
  5
135D
330
1354
100
AcDbEntity
  8
AM_BOR
100
AcDbLine
 10
398.8285714285715
 20
-0.0000000000000799
 30
0.0
 11
420.0428571428571
 21
-0.0000000000000799
 31
0.0
1001
GENIUS_GENREC_14
1002
{
1000
PYDIR
1011
420.0428571428571
1021
296.9999999999998
1031
0.0
1002
}
1002
{
1000
PXDIR
1011
0.0
1021
0.0
1031
0.0
1002
}
1002
{
1000
PORI
1011
0.0000000000000799
1021
297.0
1031
0.0
1002
}
1002
{
1000
PINS
1011
0.0000000000000799
1021
297.0
1031
0.0
1002
}
1002
{
1000
HVAL
1000
297
1002
}
1002
{
1000
H
1070
     2
1002
}
1002
{
1000
WVAL
1000
210
1002
}
1002
{
1000
W
1070
     2
1002
}
1002
{
1000
C
1070
     1
1002
}
1001
GENIUS_GENODEF_13
1002
{
1000
HIER
1070
     0
1002
}
1002
{
1000
MANEDIT
1070
     0
1002
}
1002
{
1000
NOSEL
1070
     0
1002
}
1002
{
1000
BEHIND
1070
     0
1002
}
1002
{
1000
REACTOR
1002
}
1001
GENIUS_GENOBJ-N-REC_13
1002
{
1000
OWNER
1000
GEN
1002
}
  0
LINE
  5
135E
330
1354
100
AcDbEntity
  8
AM_BOR
100
AcDbLine
 10
0.0
 20
21.21428571428571
 30
0.0
 11
0.0
 21
0.0
 31
0.0
1001
GENIUS_GENREC_14
1002
{
1000
PYDIR
1011
420.0428571428571
1021
296.9999999999998
1031
0.0
1002
}
1002
{
1000
PXDIR
1011
0.0
1021
0.0
1031
0.0
1002
}
1002
{
1000
PORI
1011
0.0000000000000799
1021
297.0
1031
0.0
1002
}
1002
{
1000
PINS
1011
0.0000000000000799
1021
297.0
1031
0.0
1002
}
1002
{
1000
HVAL
1000
297
1002
}
1002
{
1000
H
1070
     2
1002
}
1002
{
1000
WVAL
1000
210
1002
}
1002
{
1000
W
1070
     2
1002
}
1002
{
1000
C
1070
     1
1002
}
1001
GENIUS_GENODEF_13
1002
{
1000
HIER
1070
     0
1002
}
1002
{
1000
MANEDIT
1070
     0
1002
}
1002
{
1000
NOSEL
1070
     0
1002
}
1002
{
1000
BEHIND
1070
     0
1002
}
1002
{
1000
REACTOR
1002
}
1001
GENIUS_GENOBJ-N-REC_13
1002
{
1000
OWNER
1000
GEN
1002
}
  0
TEXT
  5
135F
330
1354
100
AcDbEntity
  8
AM_0
 60
     1
100
AcDbText
 10
408.7322739737486
 20
285.680442839147
 30
0.0
 40
5.0
  1
!GENTITLE-RU
100
AcDbText
  0
TEXT
  5
1360
330
1354
100
AcDbEntity
  8
AM_0
 60
     1
100
AcDbText
 10
16.00523592247285
 20
16.0074545709034
 30
0.0
 40
5.0
  1
!GENTITLE-LL
100
AcDbText
  0
TEXT
  5
1361
330
1354
100
AcDbEntity
  8
AM_0
 60
     1
100
AcDbText
 10
408.7322739737486
 20
11.31955716085296
 30
0.0
 40
5.0
  1
!GENTITLE-INSERT
100
AcDbText
  0
ENDBLK
  5
1363
330
1354
100
AcDbEntity
  8
0
100
AcDbBlockEnd
  0
BLOCK
  5
137C
330
136C
100
AcDbEntity
  8
0
100
AcDbBlockBegin
  2
A$C2D292097
 70
     0
 10
0.0
 20
0.0
 30
0.0
  3
A$C2D292097
  1

  0
TEXT
  5
136D
330
136C
100
AcDbEntity
  8
0
100
AcDbText
 10
197.1044423511698
 20
31.0035981017752
 30
0.0
 40
10.0
  1
ASOH   CO.LTD
 41
5.0
  7
ｽﾀｲﾙ1
100
AcDbText
  0
TEXT
  5
136E
330
136C
100
AcDbEntity
  8
0
100
AcDbText
 10
127.3589261501835
 20
61.98001452360745
 30
0.0
 40
66.93693195207612
  1
アソー株式会社
  7
ｽﾀｲﾙ1
100
AcDbText
  0
HATCH
  5
136F
330
136C
100
AcDbEntity
  8
AM_8
100
AcDbHatch
 10
0.0
 20
0.0
 30
0.0
210
0.0
220
0.0
230
1.0
  2
SOLID
 70
     1
 71
     0
 91
        1
 92
        1
 93
       10
 72
     1
 10
26.27998696211468
 20
119.622038302041
 11
19.72254667781421
 21
94.20654351522143
 72
     1
 10
19.72254667781422
 20
94.20654351522143
 11
20.10217910550261
 21
94.65251979790156
 72
     3
 10
29.97494128357687
 20
79.68778553387966
 11
0.2402016329913216
 21
19.99855752736968
 40
0.7499999999999996
 50
-34.10238568201522
 51
52.41091053102508
 73
     0
 72
     1
 10
43.0844862433824
 20
89.53104876041368
 11
63.55518980891033
 21
40.6543652059048
 72
     3
 10
76.66473476871587
 20
50.49762843243886
 11
0.2402016329913144
 21
19.99855752736968
 40
0.7499999999999999
 50
127.589089468975
 51
243.9002512902304
 73
     1
 72
     1
 10
90.66060611817196
 20
43.43151697692579
 11
98.94218718925374
 21
72.13430932636422
 72
     1
 10
98.94218718925376
 20
72.13430932636422
 11
97.4258024259505
 21
70.16225780455534
 72
     3
 10
86.98981389832653
 20
84.43075959876276
 11
-0.2402016329912594
 21
-19.99855752736953
 40
0.7499999999999996
 50
-36.86989764584386
 51
52.41091053102518
 73
     0
 72
     1
 10
73.88026893852099
 20
74.58749637222874
 11
53.57102076277776
 21
123.0786824781806
 72
     3
 10
40.46147580297221
 20
113.2354192516466
 11
-0.240201632991281
 21
-19.99855752736967
 40
0.7500000000000002
 50
127.5890894689749
 51
246.4437724078177
 73
     1
 97
        0
 75
     0
 76
     1
 98
        1
 10
-11.02788873631791
 20
-99.90118815091953
1001
GENIUS_GENODEF_13
1002
{
1000
HIER
1070
     0
1002
}
1002
{
1000
MANEDIT
1070
     0
1002
}
1002
{
1000
NOSEL
1070
     0
1002
}
1002
{
1000
BEHIND
1070
     0
1002
}
1002
{
1000
REACTOR
1002
}
1001
GENIUS_GENOBJ-N-HTC_13
1002
{
1000
OWNER
1000
GEN
1002
}
1001
GENIUS_GENHATCH_13
1002
{
1000
DATA
1040
0.0
1042
0.9999999999999998
1000
SOLID
1070
     0
1011
65.16661907668134
1021
74.10910423558471
1031
0.0
1002
}
1002
{
1000
UCS
1010
0.0
1020
0.0
1030
0.0
1010
1.0
1020
0.0
1030
0.0
1010
0.0
1020
1.0
1030
0.0
1002
}
  0
HATCH
  5
1370
330
136C
100
AcDbEntity
  8
AM_8
100
AcDbHatch
 10
0.0
 20
0.0
 30
0.0
210
0.0
220
0.0
230
1.0
  2
SOLID
 70
     1
 71
     0
 91
        1
 92
        1
 93
        2
 72
     2
 10
27.87973327687144
 20
49.81037059826576
 40
18.33631541869489
 50
10.7710123686058
 51
355.3294096482469
 73
     1
 72
     2
 10
27.87973327687144
 20
49.81037059826576
 40
18.33631541869488
 50
355.3294096482469
 51
370.7710123686058
 73
     1
 97
        0
 75
     0
 76
     1
 98
        1
 10
-11.02788873631791
 20
-99.90118815091953
1001
GENIUS_GENODEF_13
1002
{
1000
HIER
1070
     0
1002
}
1002
{
1000
MANEDIT
1070
     0
1002
}
1002
{
1000
NOSEL
1070
     0
1002
}
1002
{
1000
BEHIND
1070
     0
1002
}
1002
{
1000
REACTOR
1002
}
1001
GENIUS_GENOBJ-N-HTC_13
1002
{
1000
OWNER
1000
GEN
1002
}
1001
GENIUS_GENHATCH_13
1002
{
1000
DATA
1040
0.0
1042
0.9999999999999998
1000
SOLID
1070
     0
1011
30.27624113759819
1021
49.61458016509695
1031
0.0
1002
}
1002
{
1000
UCS
1010
0.0
1020
0.0
1030
0.0
1010
1.0
1020
0.0
1030
0.0
1010
0.0
1020
1.0
1030
0.0
1002
}
  0
CIRCLE
  5
1371
330
136C
100
AcDbEntity
  8
0
100
AcDbCircle
 10
27.87973327687145
 20
49.81037059826573
 30
0.0
 40
18.33631541869488
  0
LINE
  5
1372
330
136C
100
AcDbEntity
  8
0
100
AcDbLine
 10
98.94218718925376
 20
72.13430932636422
 30
0.0
 11
90.66060611817196
 21
43.43151697692576
 31
0.0
  0
LINE
  5
1373
330
136C
100
AcDbEntity
  8
0
100
AcDbLine
 10
43.0844862433824
 20
89.5310487604137
 30
0.0
 11
63.55518980891034
 21
40.6543652059048
 31
0.0
  0
ELLIPSE
  5
1374
330
136C
100
AcDbEntity
  8
0
100
AcDbEllipse
 10
76.66473476871587
 20
50.49762843243886
 30
0.0
 11
0.2402016329913116
 21
19.99855752736953
 31
0.0
210
0.0
220
0.0
230
0.9999999999999998
 40
0.7499999999999999
 41
2.094395102393195
 42
4.360282821964076
1001
GENIUS_GENODEF_13
1002
{
1000
HIER
1070
     0
1002
}
1002
{
1000
MANEDIT
1070
     0
1002
}
1002
{
1000
NOSEL
1070
     0
1002
}
1002
{
1000
BEHIND
1070
     0
1002
}
1002
{
1000
REACTOR
1002
}
1001
GENIUS_GENOBJ-N-FIL_13
1002
{
1000
OWNER
1000
GEN
1002
}
  0
ELLIPSE
  5
1375
330
136C
100
AcDbEntity
  8
0
100
AcDbEllipse
 10
86.98981389832653
 20
84.43075959876276
 30
0.0
 11
0.2402016329912594
 21
19.99855752736953
 31
0.0
210
0.0
220
0.0
230
1.0
 40
0.7499999999999996
 41
2.094395102393192
 42
3.926990816987234
1001
GENIUS_GENODEF_13
1002
{
1000
HIER
1070
     0
1002
}
1002
{
1000
MANEDIT
1070
     0
1002
}
1002
{
1000
NOSEL
1070
     0
1002
}
1002
{
1000
BEHIND
1070
     0
1002
}
1002
{
1000
REACTOR
1002
}
1001
GENIUS_GENOBJ-N-FIL_13
1002
{
1000
OWNER
1000
GEN
1002
}
  0
ELLIPSE
  5
1376
330
136C
100
AcDbEntity
  8
0
100
AcDbEllipse
 10
29.97494128357687
 20
79.68778553387966
 30
0.0
 11
0.2402016329913188
 21
19.99855752736953
 31
0.0
210
0.0
220
0.0
230
0.9999999999999998
 40
0.7499999999999996
 41
-1.047197551196598
 42
0.7343684516294112
1001
GENIUS_GENODEF_13
1002
{
1000
HIER
1070
     0
1002
}
1002
{
1000
MANEDIT
1070
     0
1002
}
1002
{
1000
NOSEL
1070
     0
1002
}
1002
{
1000
BEHIND
1070
     0
1002
}
1002
{
1000
REACTOR
1002
}
1001
GENIUS_GENOBJ-N-FIL_13
1002
{
1000
OWNER
1000
GEN
1002
}
  0
ELLIPSE
  5
1377
330
136C
100
AcDbEntity
  8
0
100
AcDbEllipse
 10
40.46147580297221
 20
113.2354192516466
 30
0.0
 11
0.2402016329912781
 21
19.99855752736952
 31
0.0
210
0.0
220
0.0
230
0.9999999999999996
 40
0.75
 41
-1.047197551196599
 42
1.254770269777095
1001
GENIUS_GENODEF_13
1002
{
1000
HIER
1070
     0
1002
}
1002
{
1000
MANEDIT
1070
     0
1002
}
1002
{
1000
NOSEL
1070
     0
1002
}
1002
{
1000
BEHIND
1070
     0
1002
}
1002
{
1000
REACTOR
1002
}
1001
GENIUS_GENOBJ-N-FIL_13
1002
{
1000
OWNER
1000
GEN
1002
}
  0
LINE
  5
1378
330
136C
100
AcDbEntity
  8
0
100
AcDbLine
 10
73.88026893852099
 20
74.58749637222874
 30
0.0
 11
53.57102076277774
 21
123.0786824781806
 31
0.0
  0
LINE
  5
1379
330
136C
100
AcDbEntity
  8
0
100
AcDbLine
 10
26.27998696211472
 20
119.6220383020412
 30
0.0
 11
19.72254667781422
 21
94.20654351522143
 31
0.0
  0
LINE
  5
137A
330
136C
100
AcDbEntity
  8
0
100
AcDbLine
 10
19.72254667781422
 20
94.20654351522143
 30
0.0
 11
20.1021791055026
 21
94.65251979790158
 31
0.0
  0
LINE
  5
137B
330
136C
100
AcDbEntity
  8
0
100
AcDbLine
 10
98.94218718925372
 20
72.13430932636422
 30
0.0
 11
97.42580242595048
 21
70.16225780455531
 31
0.0
  0
ENDBLK
  5
137D
330
136C
100
AcDbEntity
  8
0
100
AcDbBlockEnd
  0
BLOCK
  5
13B7
330
1389
100
AcDbEntity
  8
0
100
AcDbBlockBegin
  2
ASO
 70
     2
 10
0.0
 20
0.0
 30
0.0
  3
ASO
  1

  0
LINE
  5
138A
330
1389
100
AcDbEntity
  8
AM_BOR
 62
   211
100
AcDbLine
 10
-110.0
 20
0.0
 30
0.0
 11
0.0
 21
0.0
 31
0.0
1001
GENIUS_GENREC_14
1002
{
1000
PYDIR
1011
-110.0
1021
40.0
1031
0.0
1002
}
1002
{
1000
PXDIR
1011
0.0
1021
0.0
1031
0.0
1002
}
1002
{
1000
PORI
1011
-110.0
1021
0.0
1031
0.0
1002
}
1002
{
1000
PINS
1011
-110.0
1021
0.0
1031
0.0
1002
}
1002
{
1000
HVAL
1000
40
1002
}
1002
{
1000
H
1070
     2
1002
}
1002
{
1000
WVAL
1000
110
1002
}
1002
{
1000
W
1070
     2
1002
}
1002
{
1000
C
1070
     1
1002
}
1001
GENIUS_GENODEF_13
1002
{
1000
HIER
1070
     0
1002
}
1002
{
1000
MANEDIT
1070
     0
1002
}
1002
{
1000
NOSEL
1070
     0
1002
}
1002
{
1000
BEHIND
1070
     0
1002
}
1002
{
1000
REACTOR
1002
}
1001
GENIUS_GENOBJ-N-REC_13
1002
{
1000
OWNER
1000
GEN
1002
}
  0
LINE
  5
138B
330
1389
100
AcDbEntity
  8
AM_BOR
 62
   211
100
AcDbLine
 10
0.0
 20
0.0
 30
0.0
 11
0.0
 21
40.0
 31
0.0
1001
GENIUS_GENREC_14
1002
{
1000
PYDIR
1011
-110.0
1021
40.0
1031
0.0
1002
}
1002
{
1000
PXDIR
1011
0.0
1021
0.0
1031
0.0
1002
}
1002
{
1000
PORI
1011
-110.0
1021
0.0
1031
0.0
1002
}
1002
{
1000
PINS
1011
-110.0
1021
0.0
1031
0.0
1002
}
1002
{
1000
HVAL
1000
40
1002
}
1002
{
1000
H
1070
     2
1002
}
1002
{
1000
WVAL
1000
110
1002
}
1002
{
1000
W
1070
     2
1002
}
1002
{
1000
C
1070
     1
1002
}
1001
GENIUS_GENODEF_13
1002
{
1000
HIER
1070
     0
1002
}
1002
{
1000
MANEDIT
1070
     0
1002
}
1002
{
1000
NOSEL
1070
     0
1002
}
1002
{
1000
BEHIND
1070
     0
1002
}
1002
{
1000
REACTOR
1002
}
1001
GENIUS_GENOBJ-N-REC_13
1002
{
1000
OWNER
1000
GEN
1002
}
  0
LINE
  5
138C
330
1389
100
AcDbEntity
  8
AM_BOR
 62
   211
100
AcDbLine
 10
0.0
 20
40.0
 30
0.0
 11
-110.0
 21
40.00000000000001
 31
0.0
1001
GENIUS_GENREC_14
1002
{
1000
PYDIR
1011
-110.0
1021
40.0
1031
0.0
1002
}
1002
{
1000
PXDIR
1011
0.0
1021
0.0
1031
0.0
1002
}
1002
{
1000
PORI
1011
-110.0
1021
0.0
1031
0.0
1002
}
1002
{
1000
PINS
1011
-110.0
1021
0.0
1031
0.0
1002
}
1002
{
1000
HVAL
1000
40
1002
}
1002
{
1000
H
1070
     2
1002
}
1002
{
1000
WVAL
1000
110
1002
}
1002
{
1000
W
1070
     2
1002
}
1002
{
1000
C
1070
     1
1002
}
1001
GENIUS_GENODEF_13
1002
{
1000
HIER
1070
     0
1002
}
1002
{
1000
MANEDIT
1070
     0
1002
}
1002
{
1000
NOSEL
1070
     0
1002
}
1002
{
1000
BEHIND
1070
     0
1002
}
1002
{
1000
REACTOR
1002
}
1001
GENIUS_GENOBJ-N-REC_13
1002
{
1000
OWNER
1000
GEN
1002
}
  0
LINE
  5
138D
330
1389
100
AcDbEntity
  8
AM_BOR
 62
   211
100
AcDbLine
 10
-110.0
 20
40.00000000000001
 30
0.0
 11
-110.0
 21
0.0
 31
0.0
1001
GENIUS_GENREC_14
1002
{
1000
PYDIR
1011
-110.0
1021
40.0
1031
0.0
1002
}
1002
{
1000
PXDIR
1011
0.0
1021
0.0
1031
0.0
1002
}
1002
{
1000
PORI
1011
-110.0
1021
0.0
1031
0.0
1002
}
1002
{
1000
PINS
1011
-110.0
1021
0.0
1031
0.0
1002
}
1002
{
1000
HVAL
1000
40
1002
}
1002
{
1000
H
1070
     2
1002
}
1002
{
1000
WVAL
1000
110
1002
}
1002
{
1000
W
1070
     2
1002
}
1002
{
1000
C
1070
     1
1002
}
1001
GENIUS_GENODEF_13
1002
{
1000
HIER
1070
     0
1002
}
1002
{
1000
MANEDIT
1070
     0
1002
}
1002
{
1000
NOSEL
1070
     0
1002
}
1002
{
1000
BEHIND
1070
     0
1002
}
1002
{
1000
REACTOR
1002
}
1001
GENIUS_GENOBJ-N-REC_13
1002
{
1000
OWNER
1000
GEN
1002
}
  0
LINE
  5
138E
330
1389
100
AcDbEntity
  8
AM_BOR
 62
     5
100
AcDbLine
 10
-60.0
 20
9.999999999999992
 30
0.0
 11
0.0
 21
10.0
 31
0.0
1001
GENIUS_GENREC_14
1002
{
1000
PYDIR
1011
-110.0
1021
40.0
1031
0.0
1002
}
1002
{
1000
PXDIR
1011
0.0
1021
0.0
1031
0.0
1002
}
1002
{
1000
PORI
1011
-110.0
1021
0.0
1031
0.0
1002
}
1002
{
1000
PINS
1011
-110.0
1021
0.0
1031
0.0
1002
}
1002
{
1000
HVAL
1000
40
1002
}
1002
{
1000
H
1070
     2
1002
}
1002
{
1000
WVAL
1000
110
1002
}
1002
{
1000
W
1070
     2
1002
}
1002
{
1000
C
1070
     1
1002
}
  0
LINE
  5
138F
330
1389
100
AcDbEntity
  8
AM_BOR
 62
     5
100
AcDbLine
 10
-110.0
 20
19.0
 30
0.0
 11
0.0
 21
19.0
 31
0.0
1001
GENIUS_GENREC_14
1002
{
1000
PYDIR
1011
-110.0
1021
40.0
1031
0.0
1002
}
1002
{
1000
PXDIR
1011
0.0
1021
0.0
1031
0.0
1002
}
1002
{
1000
PORI
1011
-110.0
1021
0.0
1031
0.0
1002
}
1002
{
1000
PINS
1011
-110.0
1021
0.0
1031
0.0
1002
}
1002
{
1000
HVAL
1000
40
1002
}
1002
{
1000
H
1070
     2
1002
}
1002
{
1000
WVAL
1000
110
1002
}
1002
{
1000
W
1070
     2
1002
}
1002
{
1000
C
1070
     1
1002
}
1001
GENIUS_GENODEF_13
1002
{
1000
HIER
1070
     0
1002
}
1002
{
1000
MANEDIT
1070
     0
1002
}
1002
{
1000
NOSEL
1070
     0
1002
}
1002
{
1000
BEHIND
1070
     0
1002
}
1002
{
1000
REACTOR
1002
}
1001
GENIUS_GENOBJ-N-REC_13
1002
{
1000
OWNER
1000
GEN
1002
}
  0
LINE
  5
1390
330
1389
100
AcDbEntity
  8
AM_BOR
 62
     5
100
AcDbLine
 10
-110.0
 20
26.0
 30
0.0
 11
0.0
 21
26.0
 31
0.0
1001
GENIUS_GENREC_14
1002
{
1000
PYDIR
1011
-110.0
1021
40.0
1031
0.0
1002
}
1002
{
1000
PXDIR
1011
0.0
1021
0.0
1031
0.0
1002
}
1002
{
1000
PORI
1011
-110.0
1021
0.0
1031
0.0
1002
}
1002
{
1000
PINS
1011
-110.0
1021
0.0
1031
0.0
1002
}
1002
{
1000
HVAL
1000
40
1002
}
1002
{
1000
H
1070
     2
1002
}
1002
{
1000
WVAL
1000
110
1002
}
1002
{
1000
W
1070
     2
1002
}
1002
{
1000
C
1070
     1
1002
}
1001
GENIUS_GENODEF_13
1002
{
1000
HIER
1070
     0
1002
}
1002
{
1000
MANEDIT
1070
     0
1002
}
1002
{
1000
NOSEL
1070
     0
1002
}
1002
{
1000
BEHIND
1070
     0
1002
}
1002
{
1000
REACTOR
1002
}
1001
GENIUS_GENOBJ-N-REC_13
1002
{
1000
OWNER
1000
GEN
1002
}
  0
LINE
  5
1391
330
1389
100
AcDbEntity
  8
AM_BOR
 62
     5
100
AcDbLine
 10
-110.0
 20
33.0
 30
0.0
 11
0.0
 21
33.0
 31
0.0
1001
GENIUS_GENREC_14
1002
{
1000
PYDIR
1011
-110.0
1021
40.0
1031
0.0
1002
}
1002
{
1000
PXDIR
1011
0.0
1021
0.0
1031
0.0
1002
}
1002
{
1000
PORI
1011
-110.0
1021
0.0
1031
0.0
1002
}
1002
{
1000
PINS
1011
-110.0
1021
0.0
1031
0.0
1002
}
1002
{
1000
HVAL
1000
40
1002
}
1002
{
1000
H
1070
     2
1002
}
1002
{
1000
WVAL
1000
110
1002
}
1002
{
1000
W
1070
     2
1002
}
1002
{
1000
C
1070
     1
1002
}
1001
GENIUS_GENODEF_13
1002
{
1000
HIER
1070
     0
1002
}
1002
{
1000
MANEDIT
1070
     0
1002
}
1002
{
1000
NOSEL
1070
     0
1002
}
1002
{
1000
BEHIND
1070
     0
1002
}
1002
{
1000
REACTOR
1002
}
1001
GENIUS_GENOBJ-N-REC_13
1002
{
1000
OWNER
1000
GEN
1002
}
  0
LINE
  5
1392
330
1389
100
AcDbEntity
  8
AM_BOR
 62
     5
100
AcDbLine
 10
-85.0
 20
33.0
 30
0.0
 11
-85.0
 21
18.99999999999998
 31
0.0
1001
GENIUS_GENREC_14
1002
{
1000
PYDIR
1011
-110.0
1021
40.0
1031
0.0
1002
}
1002
{
1000
PXDIR
1011
0.0
1021
0.0
1031
0.0
1002
}
1002
{
1000
PORI
1011
-110.0
1021
0.0
1031
0.0
1002
}
1002
{
1000
PINS
1011
-110.0
1021
0.0
1031
0.0
1002
}
1002
{
1000
HVAL
1000
40
1002
}
1002
{
1000
H
1070
     2
1002
}
1002
{
1000
WVAL
1000
110
1002
}
1002
{
1000
W
1070
     2
1002
}
1002
{
1000
C
1070
     1
1002
}
1001
GENIUS_GENODEF_13
1002
{
1000
HIER
1070
     0
1002
}
1002
{
1000
MANEDIT
1070
     0
1002
}
1002
{
1000
NOSEL
1070
     0
1002
}
1002
{
1000
BEHIND
1070
     0
1002
}
1002
{
1000
REACTOR
1002
}
1001
GENIUS_GENOBJ-N-REC_13
1002
{
1000
OWNER
1000
GEN
1002
}
  0
LINE
  5
1393
330
1389
100
AcDbEntity
  8
AM_BOR
 62
     5
100
AcDbLine
 10
-60.0
 20
40.00000000000001
 30
0.0
 11
-60.0
 21
0.0
 31
0.0
1001
GENIUS_GENREC_14
1002
{
1000
PYDIR
1011
-110.0
1021
40.0
1031
0.0
1002
}
1002
{
1000
PXDIR
1011
0.0
1021
0.0
1031
0.0
1002
}
1002
{
1000
PORI
1011
-110.0
1021
0.0
1031
0.0
1002
}
1002
{
1000
PINS
1011
-110.0
1021
0.0
1031
0.0
1002
}
1002
{
1000
HVAL
1000
40
1002
}
1002
{
1000
H
1070
     2
1002
}
1002
{
1000
WVAL
1000
110
1002
}
1002
{
1000
W
1070
     2
1002
}
1002
{
1000
C
1070
     1
1002
}
1001
GENIUS_GENODEF_13
1002
{
1000
HIER
1070
     0
1002
}
1002
{
1000
MANEDIT
1070
     0
1002
}
1002
{
1000
NOSEL
1070
     0
1002
}
1002
{
1000
BEHIND
1070
     0
1002
}
1002
{
1000
REACTOR
1002
}
1001
GENIUS_GENOBJ-N-REC_13
1002
{
1000
OWNER
1000
GEN
1002
}
  0
LINE
  5
1394
330
1389
100
AcDbEntity
  8
AM_BOR
 62
     5
100
AcDbLine
 10
-20.0
 20
33.0
 30
0.0
 11
-20.0
 21
40.0
 31
0.0
1001
GENIUS_GENREC_14
1002
{
1000
PYDIR
1011
-110.0
1021
40.0
1031
0.0
1002
}
1002
{
1000
PXDIR
1011
0.0
1021
0.0
1031
0.0
1002
}
1002
{
1000
PORI
1011
-110.0
1021
0.0
1031
0.0
1002
}
1002
{
1000
PINS
1011
-110.0
1021
0.0
1031
0.0
1002
}
1002
{
1000
HVAL
1000
40
1002
}
1002
{
1000
H
1070
     2
1002
}
1002
{
1000
WVAL
1000
110
1002
}
1002
{
1000
W
1070
     2
1002
}
1002
{
1000
C
1070
     1
1002
}
1001
GENIUS_GENODEF_13
1002
{
1000
HIER
1070
     0
1002
}
1002
{
1000
MANEDIT
1070
     0
1002
}
1002
{
1000
NOSEL
1070
     0
1002
}
1002
{
1000
BEHIND
1070
     0
1002
}
1002
{
1000
REACTOR
1002
}
1001
GENIUS_GENOBJ-N-REC_13
1002
{
1000
OWNER
1000
GEN
1002
}
  0
LINE
  5
1395
330
1389
100
AcDbEntity
  8
AM_BOR
 62
     5
100
AcDbLine
 10
-40.0
 20
33.0
 30
0.0
 11
-40.0
 21
40.0
 31
0.0
1001
GENIUS_GENREC_14
1002
{
1000
PYDIR
1011
-110.0
1021
40.0
1031
0.0
1002
}
1002
{
1000
PXDIR
1011
0.0
1021
0.0
1031
0.0
1002
}
1002
{
1000
PORI
1011
-110.0
1021
0.0
1031
0.0
1002
}
1002
{
1000
PINS
1011
-110.0
1021
0.0
1031
0.0
1002
}
1002
{
1000
HVAL
1000
40
1002
}
1002
{
1000
H
1070
     2
1002
}
1002
{
1000
WVAL
1000
110
1002
}
1002
{
1000
W
1070
     2
1002
}
1002
{
1000
C
1070
     1
1002
}
1001
GENIUS_GENODEF_13
1002
{
1000
HIER
1070
     0
1002
}
1002
{
1000
MANEDIT
1070
     0
1002
}
1002
{
1000
NOSEL
1070
     0
1002
}
1002
{
1000
BEHIND
1070
     0
1002
}
1002
{
1000
REACTOR
1002
}
1001
GENIUS_GENOBJ-N-REC_13
1002
{
1000
OWNER
1000
GEN
1002
}
  0
LINE
  5
1396
330
1389
100
AcDbEntity
  8
AM_BOR
 62
     5
100
AcDbLine
 10
-80.0
 20
33.0
 30
0.0
 11
-80.0
 21
40.0
 31
0.0
1001
GENIUS_GENREC_14
1002
{
1000
PYDIR
1011
-110.0
1021
40.0
1031
0.0
1002
}
1002
{
1000
PXDIR
1011
0.0
1021
0.0
1031
0.0
1002
}
1002
{
1000
PORI
1011
-110.0
1021
0.0
1031
0.0
1002
}
1002
{
1000
PINS
1011
-110.0
1021
0.0
1031
0.0
1002
}
1002
{
1000
HVAL
1000
40
1002
}
1002
{
1000
H
1070
     2
1002
}
1002
{
1000
WVAL
1000
110
1002
}
1002
{
1000
W
1070
     2
1002
}
1002
{
1000
C
1070
     1
1002
}
1001
GENIUS_GENODEF_13
1002
{
1000
HIER
1070
     0
1002
}
1002
{
1000
MANEDIT
1070
     0
1002
}
1002
{
1000
NOSEL
1070
     0
1002
}
1002
{
1000
BEHIND
1070
     0
1002
}
1002
{
1000
REACTOR
1002
}
1001
GENIUS_GENOBJ-N-REC_13
1002
{
1000
OWNER
1000
GEN
1002
}
  0
TEXT
  5
1397
330
1389
100
AcDbEntity
  8
AM_BOR
 62
     2
100
AcDbText
 10
-57.4
 20
35.0
 30
0.0
 40
3.0
  1
単位 ｍｍ
 72
     4
 11
-50.0
 21
36.5
 31
0.0
100
AcDbText
  0
TEXT
  5
1398
330
1389
100
AcDbEntity
  8
AM_BOR
 62
     2
100
AcDbText
 10
-39.0
 20
35.0
 30
0.0
 40
3.0
  1
尺度
 41
0.9
 11
-39.0
 21
36.5
 31
0.0
100
AcDbText
 73
     2
  0
TEXT
  5
1399
330
1389
100
AcDbEntity
  8
AM_BOR
 62
     2
100
AcDbText
 10
-19.0
 20
35.0
 30
0.0
 40
3.0
  1
日付
 41
0.9
 11
-19.0
 21
36.5
 31
0.0
100
AcDbText
 73
     2
  0
TEXT
  5
139A
330
1389
100
AcDbEntity
  8
AM_BOR
 62
     2
100
AcDbText
 10
-76.79999999999999
 20
34.99999999999999
 30
0.0
 40
3.0
  1
第３角法
 72
     4
 11
-70.0
 21
36.49999999999999
 31
0.0
100
AcDbText
  0
TEXT
  5
139B
330
1389
100
AcDbEntity
  8
AM_BOR
 62
     2
100
AcDbText
 10
-59.0
 20
29.5
 30
0.0
 40
3.0
  1
材 質
 11
-59.0
 21
31.0
 31
0.0
100
AcDbText
 73
     2
  0
TEXT
  5
139C
330
1389
100
AcDbEntity
  8
AM_BOR
 62
     2
100
AcDbText
 10
-59.0
 20
22.5
 30
0.0
 40
3.0
  1
備 考
 11
-59.0
 21
24.0
 31
0.0
100
AcDbText
 73
     2
  0
TEXT
  5
139D
330
1389
100
AcDbEntity
  8
AM_BOR
 62
     2
100
AcDbText
 10
-59.0
 20
15.5
 30
0.0
 40
3.0
  1
品 名
 11
-59.0
 21
17.0
 31
0.0
100
AcDbText
 73
     2
  0
TEXT
  5
139E
330
1389
100
AcDbEntity
  8
AM_BOR
 62
     2
100
AcDbText
 10
-59.0
 20
6.499999999999992
 30
0.0
 40
3.0
  1
図 番
 11
-59.0
 21
7.999999999999992
 31
0.0
100
AcDbText
 73
     2
  0
TEXT
  5
139F
330
1389
100
AcDbEntity
  8
AM_BOR
 62
     2
100
AcDbText
 10
-109.0
 20
29.5
 30
0.0
 40
3.0
  1
承認
 11
-109.0
 21
31.0
 31
0.0
100
AcDbText
 73
     2
  0
TEXT
  5
13A0
330
1389
100
AcDbEntity
  8
AM_BOR
 62
     2
100
AcDbText
 10
-109.0
 20
22.5
 30
0.0
 40
3.0
  1
設計
 11
-109.0
 21
24.0
 31
0.0
100
AcDbText
 73
     2
  0
TEXT
  5
13A1
330
1389
100
AcDbEntity
  8
AM_BOR
 62
     2
100
AcDbText
 10
-84.0
 20
22.5
 30
0.0
 40
3.0
  1
製図
 11
-84.0
 21
24.0
 31
0.0
100
AcDbText
 73
     2
  0
TEXT
  5
13A2
330
1389
100
AcDbEntity
  8
AM_BOR
 62
     2
100
AcDbText
 10
-84.0
 20
29.5
 30
0.0
 40
3.0
  1
検図
 11
-84.0
 21
31.0
 31
0.0
100
AcDbText
 73
     2
  0
ATTDEF
  5
13A3
330
1389
100
AcDbEntity
  8
AM_BOR
100
AcDbText
 10
-49.48020001333898
 20
12.75
 30
0.0
 40
3.5
  1

 11
-49.48020001333898
 21
14.5
 31
0.0
100
AcDbAttributeDefinition
  3
品名
  2
HINMEI{14}
 70
     0
 74
     2
  0
ATTDEF
  5
13A4
330
1389
100
AcDbEntity
  8
AM_BOR
100
AcDbText
 10
-49.48020001333898
 20
3.249999999999992
 30
0.0
 40
3.5
  1

 11
-49.48020001333898
 21
4.999999999999992
 31
0.0
100
AcDbAttributeDefinition
  3
図番
  2
ZUBAN{14}
 70
     0
 74
     2
  0
ATTDEF
  5
13A5
330
1389
100
AcDbEntity
  8
AM_BOR
 62
     2
100
AcDbText
 10
-11.91705654530994
 20
35.0
 30
0.0
 40
3.0
  1

 41
0.8
 11
-11.91705654530994
 21
36.5
 31
0.0
100
AcDbAttributeDefinition
  3
日付
  2
GEN-TITLE-DAT{3.5}
 70
     0
 74
     2
  0
ATTDEF
  5
13A6
330
1389
100
AcDbEntity
  8
AM_BOR
 62
     2
100
AcDbText
 10
-71.63012018472975
 20
20.00000000000001
 30
0.0
 40
3.0
  1
水 田
 72
     4
 11
-67.63012018472974
 21
21.50000000000002
 31
0.0
100
AcDbAttributeDefinition
  3
製図
  2
SEIZU
 70
     0
  0
ATTDEF
  5
13A7
330
1389
100
AcDbEntity
  8
AM_BOR
 62
     2
100
AcDbText
 10
-31.91705654530995
 20
35.0
 30
0.0
 40
3.0
  1

 11
-31.91705654530995
 21
36.5
 31
0.0
100
AcDbAttributeDefinition
  3
尺度
  2
GEN-TITLE-SCA
 70
     0
 74
     2
  0
LINE
  5
13A8
330
1389
100
AcDbEntity
  8
0
100
AcDbLine
 10
-106.9502221859465
 20
14.71456568209314
 30
0.0
 11
-107.7139711131768
 21
11.16237652835879
 31
0.0
  0
LINE
  5
13A9
330
1389
100
AcDbEntity
  8
0
100
AcDbLine
 10
-107.7139711131768
 20
11.16237652835879
 30
0.0
 11
-107.6697551010107
 21
11.22470827233807
 31
0.0
  0
ELLIPSE
  5
13AA
330
1389
100
AcDbEntity
  8
0
100
AcDbEllipse
 10
-106.5198686826232
 20
9.133166589319488
 30
0.0
 11
0.0200858413762701
 21
2.795177724472429
 31
0.0
210
0.0
220
0.0
230
1.0
 40
0.6250197778053533
 41
-1.051714224928873
 42
0.7298517778971401
1001
GENIUS_GENODEF_13
1002
{
1000
HIER
1070
     0
1002
}
1002
{
1000
MANEDIT
1070
     0
1002
}
1002
{
1000
NOSEL
1070
     0
1002
}
1002
{
1000
BEHIND
1070
     0
1002
}
1002
{
1000
REACTOR
1002
}
1001
GENIUS_GENOBJ-N-FIL_13
1002
{
1000
OWNER
1000
GEN
1002
}
  0
ELLIPSE
  5
13AB
330
1389
100
AcDbEntity
  8
0
100
AcDbEllipse
 10
-105.2984958385996
 20
13.8219417489321
 30
0.0
 11
0.0200858413762916
 21
2.795177724472415
 31
0.0
210
0.0
220
0.0
230
1.0
 40
0.6250197778053527
 41
-1.051714224928867
 42
1.250253596044828
1001
GENIUS_GENODEF_13
1002
{
1000
HIER
1070
     0
1002
}
1002
{
1000
MANEDIT
1070
     0
1002
}
1002
{
1000
NOSEL
1070
     0
1002
}
1002
{
1000
BEHIND
1070
     0
1002
}
1002
{
1000
REACTOR
1002
}
1001
GENIUS_GENOBJ-N-FIL_13
1002
{
1000
OWNER
1000
GEN
1002
}
  0
LINE
  5
13AC
330
1389
100
AcDbEntity
  8
0
100
AcDbLine
 10
-98.48721298302093
 20
8.077457208786752
 30
0.0
 11
-99.45177360188811
 21
4.065819878065248
 31
0.0
  0
ELLIPSE
  5
13AD
330
1389
100
AcDbEntity
  8
0
100
AcDbEllipse
 10
-101.0818809708247
 20
5.053412867376919
 30
0.0
 11
0.0200858413762853
 21
2.795177724472413
 31
0.0
210
0.0
220
0.0
230
1.0
 40
0.6250197778053547
 41
2.089878428660925
 42
4.355766148231805
1001
GENIUS_GENODEF_13
1002
{
1000
HIER
1070
     0
1002
}
1002
{
1000
MANEDIT
1070
     0
1002
}
1002
{
1000
NOSEL
1070
     0
1002
}
1002
{
1000
BEHIND
1070
     0
1002
}
1002
{
1000
REACTOR
1002
}
1001
GENIUS_GENOBJ-N-FIL_13
1002
{
1000
OWNER
1000
GEN
1002
}
  0
LINE
  5
13AE
330
1389
100
AcDbEntity
  8
0
100
AcDbLine
 10
-98.48721298302093
 20
8.077457208786752
 30
0.0
 11
-98.66382720839389
 21
7.801834007856294
 31
0.0
  0
ELLIPSE
  5
13AF
330
1389
100
AcDbEntity
  8
0
100
AcDbEllipse
 10
-99.87931293102301
 20
9.796066964505511
 30
0.0
 11
0.0200858413762724
 21
2.795177724472415
 31
0.0
210
0.0
220
0.0
230
0.9999999999999998
 40
0.6250197778053552
 41
2.08987842866092
 42
3.922474143254961
1001
GENIUS_GENODEF_13
1002
{
1000
HIER
1070
     0
1002
}
1002
{
1000
MANEDIT
1070
     0
1002
}
1002
{
1000
NOSEL
1070
     0
1002
}
1002
{
1000
BEHIND
1070
     0
1002
}
1002
{
1000
REACTOR
1002
}
1001
GENIUS_GENOBJ-N-FIL_13
1002
{
1000
OWNER
1000
GEN
1002
}
  0
HATCH
  5
13B0
330
1389
100
AcDbEntity
  8
AM_8
100
AcDbHatch
 10
0.0
 20
0.0
 30
0.0
210
0.0
220
0.0
230
1.0
  2
SOLID
 70
     1
 71
     0
 91
        1
 92
        1
 93
        2
 72
     3
 10
-106.7638987916396
 20
4.957358478318376
 11
0.0000000000000547
 21
2.56276973145977
 40
0.8333333333333941
 50
-77.14069946214277
 51
264.4007371808275
 73
     1
 72
     3
 10
-106.7638987916396
 20
4.957358478318376
 11
-0.0000000000003928
 21
2.562769731461267
 40
0.8333333333328997
 50
264.4007371808174
 51
282.8593005378472
 73
     1
 97
        0
 75
     0
 76
     1
 98
        1
 10
65.20293740923941
 20
-32.16820874956388
1001
GENIUS_GENODEF_13
1002
{
1000
HIER
1070
     0
1002
}
1002
{
1000
MANEDIT
1070
     0
1002
}
1002
{
1000
NOSEL
1070
     0
1002
}
1002
{
1000
BEHIND
1070
     0
1002
}
1002
{
1000
REACTOR
1002
}
1001
GENIUS_GENOBJ-N-HTC_13
1002
{
1000
OWNER
1000
GEN
1002
}
1001
GENIUS_GENHATCH_13
1002
{
1000
DATA
1040
0.0
1042
0.0015799698758396
1000
SOLID
1070
     0
1011
70.0136537122014
1021
-14.7540192633455
1031
0.0
1002
}
1002
{
1000
UCS
1010
0.0
1020
0.0
1030
0.0
1010
1.0
1020
0.0
1030
0.0
1010
0.0
1020
1.0
1030
0.0
1002
}
  0
ELLIPSE
  5
13B1
330
1389
100
AcDbEntity
  8
0
100
AcDbEllipse
 10
-106.7638987916396
 20
4.957358478318417
 30
0.0
 11
0.0000000000000006
 21
2.562769731459943
 31
0.0
210
0.0
220
0.0
230
1.0
 40
0.8333333333333353
 41
-1.570796326794896
 42
4.712388980384689
  0
HATCH
  5
13B2
330
1389
100
AcDbEntity
  8
AM_8
100
AcDbHatch
 10
0.0
 20
0.0
 30
0.0
210
0.0
220
0.0
230
1.0
  2
SOLID
 70
     1
 71
     0
 91
        1
 92
        1
 93
       10
 72
     1
 10
-106.9502221859465
 20
14.71456568209311
 11
-107.7139711131768
 21
11.16237652835879
 72
     1
 10
-107.7139711131768
 20
11.16237652835879
 11
-107.6697551010108
 21
11.22470827233809
 72
     3
 10
-106.5198686826232
 20
9.133166589319488
 11
0.0200858413762859
 21
2.795177724472421
 40
0.6250197778053525
 50
-29.21280058452436
 51
47.56891328106517
 73
     0
 72
     1
 10
-104.9929922696577
 20
10.5089073790986
 11
-102.6087573837903
 21
3.677672077597827
 72
     3
 10
-101.0818809708247
 20
5.053412867376919
 11
0.0200858413762844
 21
2.79517772447242
 40
0.625019777805353
 50
132.4310867189347
 51
239.202331800838
 73
     1
 72
     1
 10
-99.45177360188809
 20
4.065819878065248
 11
-98.48721298302093
 21
8.077457208786761
 72
     1
 10
-98.48721298302095
 20
8.077457208786752
 11
-98.66382720839393
 21
7.801834007856288
 72
     3
 10
-99.87931293102301
 20
9.796066964505511
 11
0.0200858413762811
 21
2.795177724472416
 40
0.6250197778053536
 50
148.2259629226598
 51
227.5689132810653
 73
     0
 72
     1
 10
-101.4061893439886
 20
8.420326174726406
 11
-103.771619425634
 21
15.19768253871121
 72
     3
 10
-105.2984958385996
 20
13.8219417489321
 11
0.02008584137625
 21
2.795177724472417
 40
0.6250197778053583
 50
-47.56891328106589
 51
62.02409398278944
 73
     1
 97
        0
 75
     0
 76
     1
 98
        1
 10
65.20293740923941
 20
-32.16820874956388
1001
GENIUS_GENODEF_13
1002
{
1000
HIER
1070
     0
1002
}
1002
{
1000
MANEDIT
1070
     0
1002
}
1002
{
1000
NOSEL
1070
     0
1002
}
1002
{
1000
BEHIND
1070
     0
1002
}
1002
{
1000
REACTOR
1002
}
1001
GENIUS_GENOBJ-N-HTC_13
1002
{
1000
OWNER
1000
GEN
1002
}
1001
GENIUS_GENHATCH_13
1002
{
1000
DATA
1040
0.0
1042
0.0015799698758396
1000
SOLID
1070
     0
1011
74.07735655451816
1021
-11.90112763631223
1031
0.0
1002
}
1002
{
1000
UCS
1010
0.0
1020
0.0
1030
0.0
1010
1.0
1020
0.0
1030
0.0
1010
0.0
1020
1.0
1030
0.0
1002
}
  0
LINE
  5
13B3
330
1389
100
AcDbEntity
  8
0
100
AcDbLine
 10
-104.9929922696577
 20
10.5089073790986
 30
0.0
 11
-102.6087573837903
 21
3.677672077597847
 31
0.0
  0
LINE
  5
13B4
330
1389
100
AcDbEntity
  8
0
100
AcDbLine
 10
-101.4061893439886
 20
8.420326174726406
 30
0.0
 11
-103.771619425634
 21
15.1976825387112
 31
0.0
  0
TEXT
  5
13B5
330
1389
100
AcDbEntity
  8
0
100
AcDbText
 10
-92.04358977334541
 20
2.736280326823534
 30
0.0
 40
1.397647058823528
  1
ASOH   CO.LTD
 41
2.222222222222219
  7
ｽﾀｲﾙ1
100
AcDbText
  0
TEXT
  5
13B6
330
1389
100
AcDbEntity
  8
0
100
AcDbText
 10
-96.37601713265375
 20
7.065690057310197
 30
0.0
 40
9.355420606948992
  1
アソー株式会社
 41
0.4444444444444381
  7
ｽﾀｲﾙ1
100
AcDbText
  0
ENDBLK
  5
13B8
330
1389
100
AcDbEntity
  8
0
100
AcDbBlockEnd
  0
BLOCK
  5
1CBC
330
1C8A
100
AcDbEntity
  8
0
100
AcDbBlockBegin
  2
ASO-A
 70
     2
 10
0.0
 20
0.0
 30
0.0
  3
ASO-A
  1

  0
LINE
  5
1C8B
330
1C8A
100
AcDbEntity
  8
AM_BOR
 62
   211
100
AcDbLine
 10
-110.0
 20
0.0
 30
0.0
 11
0.0
 21
0.0
 31
0.0
1001
GENIUS_GENREC_14
1002
{
1000
PYDIR
1011
-110.0
1021
40.0
1031
0.0
1002
}
1002
{
1000
PXDIR
1011
0.0
1021
0.0
1031
0.0
1002
}
1002
{
1000
PORI
1011
-110.0
1021
0.0
1031
0.0
1002
}
1002
{
1000
PINS
1011
-110.0
1021
0.0
1031
0.0
1002
}
1002
{
1000
HVAL
1000
40
1002
}
1002
{
1000
H
1070
     2
1002
}
1002
{
1000
WVAL
1000
110
1002
}
1002
{
1000
W
1070
     2
1002
}
1002
{
1000
C
1070
     1
1002
}
1001
GENIUS_GENODEF_13
1002
{
1000
HIER
1070
     0
1002
}
1002
{
1000
MANEDIT
1070
     0
1002
}
1002
{
1000
NOSEL
1070
     0
1002
}
1002
{
1000
BEHIND
1070
     0
1002
}
1002
{
1000
REACTOR
1002
}
1001
GENIUS_GENOBJ-N-REC_13
1002
{
1000
OWNER
1000
GEN
1002
}
  0
LINE
  5
1C8C
330
1C8A
100
AcDbEntity
  8
AM_BOR
 62
   211
100
AcDbLine
 10
0.0
 20
0.0
 30
0.0
 11
0.0
 21
40.0
 31
0.0
1001
GENIUS_GENREC_14
1002
{
1000
PYDIR
1011
-110.0
1021
40.0
1031
0.0
1002
}
1002
{
1000
PXDIR
1011
0.0
1021
0.0
1031
0.0
1002
}
1002
{
1000
PORI
1011
-110.0
1021
0.0
1031
0.0
1002
}
1002
{
1000
PINS
1011
-110.0
1021
0.0
1031
0.0
1002
}
1002
{
1000
HVAL
1000
40
1002
}
1002
{
1000
H
1070
     2
1002
}
1002
{
1000
WVAL
1000
110
1002
}
1002
{
1000
W
1070
     2
1002
}
1002
{
1000
C
1070
     1
1002
}
1001
GENIUS_GENODEF_13
1002
{
1000
HIER
1070
     0
1002
}
1002
{
1000
MANEDIT
1070
     0
1002
}
1002
{
1000
NOSEL
1070
     0
1002
}
1002
{
1000
BEHIND
1070
     0
1002
}
1002
{
1000
REACTOR
1002
}
1001
GENIUS_GENOBJ-N-REC_13
1002
{
1000
OWNER
1000
GEN
1002
}
  0
LINE
  5
1C8D
330
1C8A
100
AcDbEntity
  8
AM_BOR
 62
   211
100
AcDbLine
 10
0.0
 20
40.0
 30
0.0
 11
-110.0
 21
40.00000000000001
 31
0.0
1001
GENIUS_GENREC_14
1002
{
1000
PYDIR
1011
-110.0
1021
40.0
1031
0.0
1002
}
1002
{
1000
PXDIR
1011
0.0
1021
0.0
1031
0.0
1002
}
1002
{
1000
PORI
1011
-110.0
1021
0.0
1031
0.0
1002
}
1002
{
1000
PINS
1011
-110.0
1021
0.0
1031
0.0
1002
}
1002
{
1000
HVAL
1000
40
1002
}
1002
{
1000
H
1070
     2
1002
}
1002
{
1000
WVAL
1000
110
1002
}
1002
{
1000
W
1070
     2
1002
}
1002
{
1000
C
1070
     1
1002
}
1001
GENIUS_GENODEF_13
1002
{
1000
HIER
1070
     0
1002
}
1002
{
1000
MANEDIT
1070
     0
1002
}
1002
{
1000
NOSEL
1070
     0
1002
}
1002
{
1000
BEHIND
1070
     0
1002
}
1002
{
1000
REACTOR
1002
}
1001
GENIUS_GENOBJ-N-REC_13
1002
{
1000
OWNER
1000
GEN
1002
}
  0
LINE
  5
1C8E
330
1C8A
100
AcDbEntity
  8
AM_BOR
 62
   211
100
AcDbLine
 10
-110.0
 20
40.00000000000001
 30
0.0
 11
-110.0
 21
0.0
 31
0.0
1001
GENIUS_GENREC_14
1002
{
1000
PYDIR
1011
-110.0
1021
40.0
1031
0.0
1002
}
1002
{
1000
PXDIR
1011
0.0
1021
0.0
1031
0.0
1002
}
1002
{
1000
PORI
1011
-110.0
1021
0.0
1031
0.0
1002
}
1002
{
1000
PINS
1011
-110.0
1021
0.0
1031
0.0
1002
}
1002
{
1000
HVAL
1000
40
1002
}
1002
{
1000
H
1070
     2
1002
}
1002
{
1000
WVAL
1000
110
1002
}
1002
{
1000
W
1070
     2
1002
}
1002
{
1000
C
1070
     1
1002
}
1001
GENIUS_GENODEF_13
1002
{
1000
HIER
1070
     0
1002
}
1002
{
1000
MANEDIT
1070
     0
1002
}
1002
{
1000
NOSEL
1070
     0
1002
}
1002
{
1000
BEHIND
1070
     0
1002
}
1002
{
1000
REACTOR
1002
}
1001
GENIUS_GENOBJ-N-REC_13
1002
{
1000
OWNER
1000
GEN
1002
}
  0
LINE
  5
1C8F
330
1C8A
100
AcDbEntity
  8
AM_BOR
 62
     5
100
AcDbLine
 10
-60.0
 20
9.999999999999992
 30
0.0
 11
0.0
 21
10.0
 31
0.0
1001
GENIUS_GENREC_14
1002
{
1000
PYDIR
1011
-110.0
1021
40.0
1031
0.0
1002
}
1002
{
1000
PXDIR
1011
0.0
1021
0.0
1031
0.0
1002
}
1002
{
1000
PORI
1011
-110.0
1021
0.0
1031
0.0
1002
}
1002
{
1000
PINS
1011
-110.0
1021
0.0
1031
0.0
1002
}
1002
{
1000
HVAL
1000
40
1002
}
1002
{
1000
H
1070
     2
1002
}
1002
{
1000
WVAL
1000
110
1002
}
1002
{
1000
W
1070
     2
1002
}
1002
{
1000
C
1070
     1
1002
}
  0
LINE
  5
1C90
330
1C8A
100
AcDbEntity
  8
AM_BOR
 62
     5
100
AcDbLine
 10
-110.0
 20
19.0
 30
0.0
 11
0.0
 21
19.0
 31
0.0
1001
GENIUS_GENREC_14
1002
{
1000
PYDIR
1011
-110.0
1021
40.0
1031
0.0
1002
}
1002
{
1000
PXDIR
1011
0.0
1021
0.0
1031
0.0
1002
}
1002
{
1000
PORI
1011
-110.0
1021
0.0
1031
0.0
1002
}
1002
{
1000
PINS
1011
-110.0
1021
0.0
1031
0.0
1002
}
1002
{
1000
HVAL
1000
40
1002
}
1002
{
1000
H
1070
     2
1002
}
1002
{
1000
WVAL
1000
110
1002
}
1002
{
1000
W
1070
     2
1002
}
1002
{
1000
C
1070
     1
1002
}
1001
GENIUS_GENODEF_13
1002
{
1000
HIER
1070
     0
1002
}
1002
{
1000
MANEDIT
1070
     0
1002
}
1002
{
1000
NOSEL
1070
     0
1002
}
1002
{
1000
BEHIND
1070
     0
1002
}
1002
{
1000
REACTOR
1002
}
1001
GENIUS_GENOBJ-N-REC_13
1002
{
1000
OWNER
1000
GEN
1002
}
  0
LINE
  5
1C91
330
1C8A
100
AcDbEntity
  8
AM_BOR
 62
     5
100
AcDbLine
 10
-110.0
 20
26.0
 30
0.0
 11
0.0
 21
26.0
 31
0.0
1001
GENIUS_GENREC_14
1002
{
1000
PYDIR
1011
-110.0
1021
40.0
1031
0.0
1002
}
1002
{
1000
PXDIR
1011
0.0
1021
0.0
1031
0.0
1002
}
1002
{
1000
PORI
1011
-110.0
1021
0.0
1031
0.0
1002
}
1002
{
1000
PINS
1011
-110.0
1021
0.0
1031
0.0
1002
}
1002
{
1000
HVAL
1000
40
1002
}
1002
{
1000
H
1070
     2
1002
}
1002
{
1000
WVAL
1000
110
1002
}
1002
{
1000
W
1070
     2
1002
}
1002
{
1000
C
1070
     1
1002
}
1001
GENIUS_GENODEF_13
1002
{
1000
HIER
1070
     0
1002
}
1002
{
1000
MANEDIT
1070
     0
1002
}
1002
{
1000
NOSEL
1070
     0
1002
}
1002
{
1000
BEHIND
1070
     0
1002
}
1002
{
1000
REACTOR
1002
}
1001
GENIUS_GENOBJ-N-REC_13
1002
{
1000
OWNER
1000
GEN
1002
}
  0
LINE
  5
1C92
330
1C8A
100
AcDbEntity
  8
AM_BOR
 62
     5
100
AcDbLine
 10
-110.0
 20
33.0
 30
0.0
 11
0.0
 21
33.0
 31
0.0
1001
GENIUS_GENREC_14
1002
{
1000
PYDIR
1011
-110.0
1021
40.0
1031
0.0
1002
}
1002
{
1000
PXDIR
1011
0.0
1021
0.0
1031
0.0
1002
}
1002
{
1000
PORI
1011
-110.0
1021
0.0
1031
0.0
1002
}
1002
{
1000
PINS
1011
-110.0
1021
0.0
1031
0.0
1002
}
1002
{
1000
HVAL
1000
40
1002
}
1002
{
1000
H
1070
     2
1002
}
1002
{
1000
WVAL
1000
110
1002
}
1002
{
1000
W
1070
     2
1002
}
1002
{
1000
C
1070
     1
1002
}
1001
GENIUS_GENODEF_13
1002
{
1000
HIER
1070
     0
1002
}
1002
{
1000
MANEDIT
1070
     0
1002
}
1002
{
1000
NOSEL
1070
     0
1002
}
1002
{
1000
BEHIND
1070
     0
1002
}
1002
{
1000
REACTOR
1002
}
1001
GENIUS_GENOBJ-N-REC_13
1002
{
1000
OWNER
1000
GEN
1002
}
  0
LINE
  5
1C93
330
1C8A
100
AcDbEntity
  8
AM_BOR
 62
     5
100
AcDbLine
 10
-85.0
 20
33.0
 30
0.0
 11
-85.0
 21
18.99999999999998
 31
0.0
1001
GENIUS_GENREC_14
1002
{
1000
PYDIR
1011
-110.0
1021
40.0
1031
0.0
1002
}
1002
{
1000
PXDIR
1011
0.0
1021
0.0
1031
0.0
1002
}
1002
{
1000
PORI
1011
-110.0
1021
0.0
1031
0.0
1002
}
1002
{
1000
PINS
1011
-110.0
1021
0.0
1031
0.0
1002
}
1002
{
1000
HVAL
1000
40
1002
}
1002
{
1000
H
1070
     2
1002
}
1002
{
1000
WVAL
1000
110
1002
}
1002
{
1000
W
1070
     2
1002
}
1002
{
1000
C
1070
     1
1002
}
1001
GENIUS_GENODEF_13
1002
{
1000
HIER
1070
     0
1002
}
1002
{
1000
MANEDIT
1070
     0
1002
}
1002
{
1000
NOSEL
1070
     0
1002
}
1002
{
1000
BEHIND
1070
     0
1002
}
1002
{
1000
REACTOR
1002
}
1001
GENIUS_GENOBJ-N-REC_13
1002
{
1000
OWNER
1000
GEN
1002
}
  0
LINE
  5
1C94
330
1C8A
100
AcDbEntity
  8
AM_BOR
 62
     5
100
AcDbLine
 10
-60.0
 20
40.00000000000001
 30
0.0
 11
-60.0
 21
0.0
 31
0.0
1001
GENIUS_GENREC_14
1002
{
1000
PYDIR
1011
-110.0
1021
40.0
1031
0.0
1002
}
1002
{
1000
PXDIR
1011
0.0
1021
0.0
1031
0.0
1002
}
1002
{
1000
PORI
1011
-110.0
1021
0.0
1031
0.0
1002
}
1002
{
1000
PINS
1011
-110.0
1021
0.0
1031
0.0
1002
}
1002
{
1000
HVAL
1000
40
1002
}
1002
{
1000
H
1070
     2
1002
}
1002
{
1000
WVAL
1000
110
1002
}
1002
{
1000
W
1070
     2
1002
}
1002
{
1000
C
1070
     1
1002
}
1001
GENIUS_GENODEF_13
1002
{
1000
HIER
1070
     0
1002
}
1002
{
1000
MANEDIT
1070
     0
1002
}
1002
{
1000
NOSEL
1070
     0
1002
}
1002
{
1000
BEHIND
1070
     0
1002
}
1002
{
1000
REACTOR
1002
}
1001
GENIUS_GENOBJ-N-REC_13
1002
{
1000
OWNER
1000
GEN
1002
}
  0
LINE
  5
1C95
330
1C8A
100
AcDbEntity
  8
AM_BOR
 62
     5
100
AcDbLine
 10
-20.0
 20
33.0
 30
0.0
 11
-20.0
 21
40.0
 31
0.0
1001
GENIUS_GENREC_14
1002
{
1000
PYDIR
1011
-110.0
1021
40.0
1031
0.0
1002
}
1002
{
1000
PXDIR
1011
0.0
1021
0.0
1031
0.0
1002
}
1002
{
1000
PORI
1011
-110.0
1021
0.0
1031
0.0
1002
}
1002
{
1000
PINS
1011
-110.0
1021
0.0
1031
0.0
1002
}
1002
{
1000
HVAL
1000
40
1002
}
1002
{
1000
H
1070
     2
1002
}
1002
{
1000
WVAL
1000
110
1002
}
1002
{
1000
W
1070
     2
1002
}
1002
{
1000
C
1070
     1
1002
}
1001
GENIUS_GENODEF_13
1002
{
1000
HIER
1070
     0
1002
}
1002
{
1000
MANEDIT
1070
     0
1002
}
1002
{
1000
NOSEL
1070
     0
1002
}
1002
{
1000
BEHIND
1070
     0
1002
}
1002
{
1000
REACTOR
1002
}
1001
GENIUS_GENOBJ-N-REC_13
1002
{
1000
OWNER
1000
GEN
1002
}
  0
LINE
  5
1C96
330
1C8A
100
AcDbEntity
  8
AM_BOR
 62
     5
100
AcDbLine
 10
-40.0
 20
33.0
 30
0.0
 11
-40.0
 21
40.0
 31
0.0
1001
GENIUS_GENREC_14
1002
{
1000
PYDIR
1011
-110.0
1021
40.0
1031
0.0
1002
}
1002
{
1000
PXDIR
1011
0.0
1021
0.0
1031
0.0
1002
}
1002
{
1000
PORI
1011
-110.0
1021
0.0
1031
0.0
1002
}
1002
{
1000
PINS
1011
-110.0
1021
0.0
1031
0.0
1002
}
1002
{
1000
HVAL
1000
40
1002
}
1002
{
1000
H
1070
     2
1002
}
1002
{
1000
WVAL
1000
110
1002
}
1002
{
1000
W
1070
     2
1002
}
1002
{
1000
C
1070
     1
1002
}
1001
GENIUS_GENODEF_13
1002
{
1000
HIER
1070
     0
1002
}
1002
{
1000
MANEDIT
1070
     0
1002
}
1002
{
1000
NOSEL
1070
     0
1002
}
1002
{
1000
BEHIND
1070
     0
1002
}
1002
{
1000
REACTOR
1002
}
1001
GENIUS_GENOBJ-N-REC_13
1002
{
1000
OWNER
1000
GEN
1002
}
  0
LINE
  5
1C97
330
1C8A
100
AcDbEntity
  8
AM_BOR
 62
     5
100
AcDbLine
 10
-80.0
 20
33.0
 30
0.0
 11
-80.0
 21
40.0
 31
0.0
1001
GENIUS_GENREC_14
1002
{
1000
PYDIR
1011
-110.0
1021
40.0
1031
0.0
1002
}
1002
{
1000
PXDIR
1011
0.0
1021
0.0
1031
0.0
1002
}
1002
{
1000
PORI
1011
-110.0
1021
0.0
1031
0.0
1002
}
1002
{
1000
PINS
1011
-110.0
1021
0.0
1031
0.0
1002
}
1002
{
1000
HVAL
1000
40
1002
}
1002
{
1000
H
1070
     2
1002
}
1002
{
1000
WVAL
1000
110
1002
}
1002
{
1000
W
1070
     2
1002
}
1002
{
1000
C
1070
     1
1002
}
1001
GENIUS_GENODEF_13
1002
{
1000
HIER
1070
     0
1002
}
1002
{
1000
MANEDIT
1070
     0
1002
}
1002
{
1000
NOSEL
1070
     0
1002
}
1002
{
1000
BEHIND
1070
     0
1002
}
1002
{
1000
REACTOR
1002
}
1001
GENIUS_GENOBJ-N-REC_13
1002
{
1000
OWNER
1000
GEN
1002
}
  0
TEXT
  5
1C98
330
1C8A
100
AcDbEntity
  8
AM_BOR
 62
     2
100
AcDbText
 10
-57.4
 20
35.0
 30
0.0
 40
3.0
  1
単位 ｍｍ
 72
     4
 11
-50.0
 21
36.5
 31
0.0
100
AcDbText
  0
TEXT
  5
1C99
330
1C8A
100
AcDbEntity
  8
AM_BOR
 62
     2
100
AcDbText
 10
-39.0
 20
35.0
 30
0.0
 40
3.0
  1
尺度
 41
0.9
 11
-39.0
 21
36.5
 31
0.0
100
AcDbText
 73
     2
  0
TEXT
  5
1C9A
330
1C8A
100
AcDbEntity
  8
AM_BOR
 62
     2
100
AcDbText
 10
-19.0
 20
35.0
 30
0.0
 40
3.0
  1
日付
 41
0.9
 11
-19.0
 21
36.5
 31
0.0
100
AcDbText
 73
     2
  0
TEXT
  5
1C9B
330
1C8A
100
AcDbEntity
  8
AM_BOR
 62
     2
100
AcDbText
 10
-76.79999999999999
 20
34.99999999999999
 30
0.0
 40
3.0
  1
第３角法
 72
     4
 11
-70.0
 21
36.49999999999999
 31
0.0
100
AcDbText
  0
TEXT
  5
1C9C
330
1C8A
100
AcDbEntity
  8
AM_BOR
 62
     2
100
AcDbText
 10
-59.0
 20
29.5
 30
0.0
 40
3.0
  1
材 質
 11
-59.0
 21
31.0
 31
0.0
100
AcDbText
 73
     2
  0
TEXT
  5
1C9D
330
1C8A
100
AcDbEntity
  8
AM_BOR
 62
     2
100
AcDbText
 10
-59.0
 20
22.5
 30
0.0
 40
3.0
  1
備 考
 11
-59.0
 21
24.0
 31
0.0
100
AcDbText
 73
     2
  0
TEXT
  5
1C9E
330
1C8A
100
AcDbEntity
  8
AM_BOR
 62
     2
100
AcDbText
 10
-59.0
 20
15.5
 30
0.0
 40
3.0
  1
品 名
 11
-59.0
 21
17.0
 31
0.0
100
AcDbText
 73
     2
  0
TEXT
  5
1C9F
330
1C8A
100
AcDbEntity
  8
AM_BOR
 62
     2
100
AcDbText
 10
-59.0
 20
6.499999999999992
 30
0.0
 40
3.0
  1
図 番
 11
-59.0
 21
7.999999999999992
 31
0.0
100
AcDbText
 73
     2
  0
TEXT
  5
1CA0
330
1C8A
100
AcDbEntity
  8
AM_BOR
 62
     2
100
AcDbText
 10
-109.0
 20
29.5
 30
0.0
 40
3.0
  1
承認
 11
-109.0
 21
31.0
 31
0.0
100
AcDbText
 73
     2
  0
TEXT
  5
1CA1
330
1C8A
100
AcDbEntity
  8
AM_BOR
 62
     2
100
AcDbText
 10
-109.0
 20
22.5
 30
0.0
 40
3.0
  1
設計
 11
-109.0
 21
24.0
 31
0.0
100
AcDbText
 73
     2
  0
TEXT
  5
1CA2
330
1C8A
100
AcDbEntity
  8
AM_BOR
 62
     2
100
AcDbText
 10
-84.0
 20
22.5
 30
0.0
 40
3.0
  1
製図
 11
-84.0
 21
24.0
 31
0.0
100
AcDbText
 73
     2
  0
TEXT
  5
1CA3
330
1C8A
100
AcDbEntity
  8
AM_BOR
 62
     2
100
AcDbText
 10
-84.0
 20
29.5
 30
0.0
 40
3.0
  1
検図
 11
-84.0
 21
31.0
 31
0.0
100
AcDbText
 73
     2
  0
ATTDEF
  5
1CA4
330
1C8A
100
AcDbEntity
  8
AM_BOR
100
AcDbText
 10
-50.25926794017573
 20
12.75
 30
0.0
 40
3.5
  1

 11
-50.25926794017573
 21
14.5
 31
0.0
100
AcDbAttributeDefinition
  3
品名
  2
HINMEI{14}
 70
     0
 74
     2
  0
ATTDEF
  5
1CA5
330
1C8A
100
AcDbEntity
  8
AM_BOR
100
AcDbText
 10
-50.10873010396898
 20
3.249999999999992
 30
0.0
 40
3.5
  1

 11
-50.10873010396898
 21
4.999999999999992
 31
0.0
100
AcDbAttributeDefinition
  3
図番
  2
ZUBAN{14}
 70
     0
 74
     2
  0
ATTDEF
  5
1CA6
330
1C8A
100
AcDbEntity
  8
AM_BOR
 62
     2
100
AcDbText
 10
-11.91705654530994
 20
35.0
 30
0.0
 40
3.0
  1

 41
0.8
 11
-11.91705654530994
 21
36.5
 31
0.0
100
AcDbAttributeDefinition
  3
日付
  2
GEN-TITLE-DAT{3.5}
 70
     0
 74
     2
  0
ATTDEF
  5
1CA7
330
1C8A
100
AcDbEntity
  8
AM_BOR
 62
     2
100
AcDbText
 10
-71.63012018472975
 20
20.00000000000001
 30
0.0
 40
3.0
  1
水 田
 72
     4
 11
-67.63012018472974
 21
21.50000000000002
 31
0.0
100
AcDbAttributeDefinition
  3
製図
  2
SEIZU
 70
     0
  0
ATTDEF
  5
1CA8
330
1C8A
100
AcDbEntity
  8
AM_BOR
 62
     2
100
AcDbText
 10
-31.91705654530995
 20
35.0
 30
0.0
 40
3.0
  1

 11
-31.91705654530995
 21
36.5
 31
0.0
100
AcDbAttributeDefinition
  3
尺度
  2
GEN-TITLE-SCA
 70
     0
 74
     2
  0
LINE
  5
1CA9
330
1C8A
100
AcDbEntity
  8
0
100
AcDbLine
 10
-106.9502221859465
 20
14.71456568209314
 30
0.0
 11
-107.7139711131768
 21
11.16237652835879
 31
0.0
  0
LINE
  5
1CAA
330
1C8A
100
AcDbEntity
  8
0
100
AcDbLine
 10
-107.7139711131768
 20
11.16237652835879
 30
0.0
 11
-107.6697551010107
 21
11.22470827233807
 31
0.0
  0
ELLIPSE
  5
1CAB
330
1C8A
100
AcDbEntity
  8
0
100
AcDbEllipse
 10
-106.5198686826232
 20
9.133166589319488
 30
0.0
 11
0.0200858413762701
 21
2.795177724472429
 31
0.0
210
0.0
220
0.0
230
1.0
 40
0.6250197778053533
 41
-1.051714224928873
 42
0.7298517778971401
1001
GENIUS_GENODEF_13
1002
{
1000
HIER
1070
     0
1002
}
1002
{
1000
MANEDIT
1070
     0
1002
}
1002
{
1000
NOSEL
1070
     0
1002
}
1002
{
1000
BEHIND
1070
     0
1002
}
1002
{
1000
REACTOR
1002
}
1001
GENIUS_GENOBJ-N-FIL_13
1002
{
1000
OWNER
1000
GEN
1002
}
  0
ELLIPSE
  5
1CAC
330
1C8A
100
AcDbEntity
  8
0
100
AcDbEllipse
 10
-105.2984958385996
 20
13.8219417489321
 30
0.0
 11
0.0200858413762916
 21
2.795177724472415
 31
0.0
210
0.0
220
0.0
230
1.0
 40
0.6250197778053527
 41
-1.051714224928867
 42
1.250253596044828
1001
GENIUS_GENODEF_13
1002
{
1000
HIER
1070
     0
1002
}
1002
{
1000
MANEDIT
1070
     0
1002
}
1002
{
1000
NOSEL
1070
     0
1002
}
1002
{
1000
BEHIND
1070
     0
1002
}
1002
{
1000
REACTOR
1002
}
1001
GENIUS_GENOBJ-N-FIL_13
1002
{
1000
OWNER
1000
GEN
1002
}
  0
LINE
  5
1CAD
330
1C8A
100
AcDbEntity
  8
0
100
AcDbLine
 10
-98.48721298302093
 20
8.077457208786752
 30
0.0
 11
-99.45177360188811
 21
4.065819878065248
 31
0.0
  0
ELLIPSE
  5
1CAE
330
1C8A
100
AcDbEntity
  8
0
100
AcDbEllipse
 10
-101.0818809708247
 20
5.053412867376919
 30
0.0
 11
0.0200858413762853
 21
2.795177724472413
 31
0.0
210
0.0
220
0.0
230
1.0
 40
0.6250197778053547
 41
2.089878428660925
 42
4.355766148231805
1001
GENIUS_GENODEF_13
1002
{
1000
HIER
1070
     0
1002
}
1002
{
1000
MANEDIT
1070
     0
1002
}
1002
{
1000
NOSEL
1070
     0
1002
}
1002
{
1000
BEHIND
1070
     0
1002
}
1002
{
1000
REACTOR
1002
}
1001
GENIUS_GENOBJ-N-FIL_13
1002
{
1000
OWNER
1000
GEN
1002
}
  0
LINE
  5
1CAF
330
1C8A
100
AcDbEntity
  8
0
100
AcDbLine
 10
-98.48721298302093
 20
8.077457208786752
 30
0.0
 11
-98.66382720839389
 21
7.801834007856294
 31
0.0
  0
ELLIPSE
  5
1CB0
330
1C8A
100
AcDbEntity
  8
0
100
AcDbEllipse
 10
-99.87931293102301
 20
9.796066964505511
 30
0.0
 11
0.0200858413762724
 21
2.795177724472415
 31
0.0
210
0.0
220
0.0
230
0.9999999999999998
 40
0.6250197778053552
 41
2.08987842866092
 42
3.922474143254961
1001
GENIUS_GENODEF_13
1002
{
1000
HIER
1070
     0
1002
}
1002
{
1000
MANEDIT
1070
     0
1002
}
1002
{
1000
NOSEL
1070
     0
1002
}
1002
{
1000
BEHIND
1070
     0
1002
}
1002
{
1000
REACTOR
1002
}
1001
GENIUS_GENOBJ-N-FIL_13
1002
{
1000
OWNER
1000
GEN
1002
}
  0
HATCH
  5
1CB1
330
1C8A
100
AcDbEntity
  8
AM_8
100
AcDbHatch
 10
0.0
 20
0.0
 30
0.0
210
0.0
220
0.0
230
1.0
  2
SOLID
 70
     1
 71
     0
 91
        1
 92
        1
 93
        2
 72
     3
 10
-106.7638987916396
 20
4.957358478318376
 11
0.0000000000000547
 21
2.56276973145977
 40
0.8333333333333941
 50
-77.14069946214277
 51
264.4007371808275
 73
     1
 72
     3
 10
-106.7638987916396
 20
4.957358478318376
 11
-0.0000000000003928
 21
2.562769731461267
 40
0.8333333333328997
 50
264.4007371808174
 51
282.8593005378472
 73
     1
 97
        0
 75
     0
 76
     1
 98
        1
 10
65.20293740923941
 20
-32.16820874956388
1001
GENIUS_GENODEF_13
1002
{
1000
HIER
1070
     0
1002
}
1002
{
1000
MANEDIT
1070
     0
1002
}
1002
{
1000
NOSEL
1070
     0
1002
}
1002
{
1000
BEHIND
1070
     0
1002
}
1002
{
1000
REACTOR
1002
}
1001
GENIUS_GENOBJ-N-HTC_13
1002
{
1000
OWNER
1000
GEN
1002
}
1001
GENIUS_GENHATCH_13
1002
{
1000
DATA
1040
0.0
1042
0.0015799698758396
1000
SOLID
1070
     0
1011
70.0136537122014
1021
-14.7540192633455
1031
0.0
1002
}
1002
{
1000
UCS
1010
0.0
1020
0.0
1030
0.0
1010
1.0
1020
0.0
1030
0.0
1010
0.0
1020
1.0
1030
0.0
1002
}
  0
ELLIPSE
  5
1CB2
330
1C8A
100
AcDbEntity
  8
0
100
AcDbEllipse
 10
-106.7638987916396
 20
4.957358478318417
 30
0.0
 11
0.0000000000000006
 21
2.562769731459943
 31
0.0
210
0.0
220
0.0
230
1.0
 40
0.8333333333333353
 41
-1.570796326794896
 42
4.712388980384689
  0
HATCH
  5
1CB3
330
1C8A
100
AcDbEntity
  8
AM_8
100
AcDbHatch
 10
0.0
 20
0.0
 30
0.0
210
0.0
220
0.0
230
1.0
  2
SOLID
 70
     1
 71
     0
 91
        1
 92
        1
 93
       10
 72
     1
 10
-106.9502221859465
 20
14.71456568209311
 11
-107.7139711131768
 21
11.16237652835879
 72
     1
 10
-107.7139711131768
 20
11.16237652835879
 11
-107.6697551010108
 21
11.22470827233809
 72
     3
 10
-106.5198686826232
 20
9.133166589319488
 11
0.0200858413762859
 21
2.795177724472421
 40
0.6250197778053525
 50
-29.21280058452436
 51
47.56891328106517
 73
     0
 72
     1
 10
-104.9929922696577
 20
10.5089073790986
 11
-102.6087573837903
 21
3.677672077597827
 72
     3
 10
-101.0818809708247
 20
5.053412867376919
 11
0.0200858413762844
 21
2.79517772447242
 40
0.625019777805353
 50
132.4310867189347
 51
239.202331800838
 73
     1
 72
     1
 10
-99.45177360188809
 20
4.065819878065248
 11
-98.48721298302093
 21
8.077457208786761
 72
     1
 10
-98.48721298302095
 20
8.077457208786752
 11
-98.66382720839393
 21
7.801834007856288
 72
     3
 10
-99.87931293102301
 20
9.796066964505511
 11
0.0200858413762811
 21
2.795177724472416
 40
0.6250197778053536
 50
148.2259629226598
 51
227.5689132810653
 73
     0
 72
     1
 10
-101.4061893439886
 20
8.420326174726406
 11
-103.771619425634
 21
15.19768253871121
 72
     3
 10
-105.2984958385996
 20
13.8219417489321
 11
0.02008584137625
 21
2.795177724472417
 40
0.6250197778053583
 50
-47.56891328106589
 51
62.02409398278944
 73
     1
 97
        0
 75
     0
 76
     1
 98
        1
 10
65.20293740923941
 20
-32.16820874956388
1001
GENIUS_GENODEF_13
1002
{
1000
HIER
1070
     0
1002
}
1002
{
1000
MANEDIT
1070
     0
1002
}
1002
{
1000
NOSEL
1070
     0
1002
}
1002
{
1000
BEHIND
1070
     0
1002
}
1002
{
1000
REACTOR
1002
}
1001
GENIUS_GENOBJ-N-HTC_13
1002
{
1000
OWNER
1000
GEN
1002
}
1001
GENIUS_GENHATCH_13
1002
{
1000
DATA
1040
0.0
1042
0.0015799698758396
1000
SOLID
1070
     0
1011
74.07735655451816
1021
-11.90112763631223
1031
0.0
1002
}
1002
{
1000
UCS
1010
0.0
1020
0.0
1030
0.0
1010
1.0
1020
0.0
1030
0.0
1010
0.0
1020
1.0
1030
0.0
1002
}
  0
LINE
  5
1CB4
330
1C8A
100
AcDbEntity
  8
0
100
AcDbLine
 10
-104.9929922696577
 20
10.5089073790986
 30
0.0
 11
-102.6087573837903
 21
3.677672077597847
 31
0.0
  0
LINE
  5
1CB5
330
1C8A
100
AcDbEntity
  8
0
100
AcDbLine
 10
-101.4061893439886
 20
8.420326174726406
 30
0.0
 11
-103.771619425634
 21
15.1976825387112
 31
0.0
  0
TEXT
  5
1CB6
330
1C8A
100
AcDbEntity
  8
0
100
AcDbText
 10
-92.04358977334541
 20
2.736280326823534
 30
0.0
 40
1.397647058823528
  1
ASOH   CO.LTD
 41
2.222222222222219
  7
ｽﾀｲﾙ1
100
AcDbText
  0
TEXT
  5
1CB7
330
1C8A
100
AcDbEntity
  8
0
100
AcDbText
 10
-96.37601713265375
 20
7.065690057310197
 30
0.0
 40
9.355420606948992
  1
アソー株式会社
 41
0.4444444444444381
  7
ｽﾀｲﾙ1
100
AcDbText
  0
ATTDEF
  5
1CB8
330
1C8A
100
AcDbEntity
  8
AM_BOR
 62
     2
100
AcDbText
 10
-98.50320560717072
 20
20.29902073441097
 30
0.0
 40
3.0
  1
水 田
 72
     4
 11
-94.50320560717072
 21
21.79902073441097
 31
0.0
100
AcDbAttributeDefinition
  3
設計
  2
SEKKEI
 70
     0
  0
ATTDEF
  5
1CB9
330
1C8A
100
AcDbEntity
  8
AM_BOR
 62
     2
100
AcDbText
 10
-97.04186970375872
 20
27.05583171251668
 30
0.0
 40
3.0
  1
樫井
 72
     4
 11
-93.8418697037587
 21
28.55583171251668
 31
0.0
100
AcDbAttributeDefinition
  3
承認
  2
SYOUNIN
 70
     0
  0
ATTDEF
  5
1CBA
330
1C8A
100
AcDbEntity
  8
AM_BOR
 62
     2
100
AcDbText
 10
-72.04186970375871
 20
27.05583171251668
 30
0.0
 40
3.0
  1
樫井
 72
     4
 11
-68.8418697037587
 21
28.55583171251668
 31
0.0
100
AcDbAttributeDefinition
  3
検図
  2
KENZU
 70
     0
  0
ENDBLK
  5
1CBD
330
1C8A
100
AcDbEntity
  8
0
100
AcDbBlockEnd
  0
BLOCK
  5
2218
330
2217
100
AcDbEntity
  8
0
 62
     0
100
AcDbBlockBegin
  2
*D9
 70
     1
 10
0.0
 20
0.0
 30
0.0
  3
*D9
  1

  0
LINE
  5
2219
330
2217
100
AcDbEntity
  8
0
 62
     1
370
     5
100
AcDbLine
 10
165.3962282334899
 20
163.5980764008556
 30
0.0
 11
166.0135334463623
 21
163.6958479415058
 31
0.0
  0
LINE
  5
221A
330
2217
100
AcDbEntity
  8
0
 62
     1
370
     5
100
AcDbLine
 10
166.6477039538118
 20
155.6965696760945
 30
0.0
 11
167.2650091666841
 21
155.7943412167448
 31
0.0
  0
LINE
  5
221B
330
2217
100
AcDbEntity
  8
0
 62
     1
370
     5
100
AcDbLine
 10
165.248226415739
 20
160.5372398384201
 30
0.0
 11
165.5610953458195
 21
158.5618631572299
 31
0.0
  0
SOLID
  5
221C
330
2217
100
AcDbEntity
  8
0
 62
     1
100
AcDbTrace
 10
165.7420705860366
 20
160.6154570709403
 30
0.0
 11
164.7543822454414
 21
160.4590226059
 31
0.0
 12
164.7789230206183
 22
163.5003048602055
 32
0.0
 13
164.7789230206183
 23
163.5003048602055
 33
0.0
  0
SOLID
  5
221D
330
2217
100
AcDbEntity
  8
0
 62
     1
100
AcDbTrace
 10
166.054939516117
 20
158.64008038975
 30
0.0
 11
165.0672511755219
 21
158.4836459247098
 31
0.0
 12
166.0303987409402
 22
155.5987981354445
 32
0.0
 13
166.0303987409402
 23
155.5987981354445
 33
0.0
  0
MTEXT
  5
221E
330
2217
100
AcDbEntity
  8
0
 62
     0
100
AcDbMText
 10
167.5034986045439
 20
159.8819747360355
 30
0.0
 40
3.0
 41
0.0
 71
     5
 72
     1
  1
%%c{\fMS UI Gothic|b0|i0|c0|p17;4}
 11
0.1564344650402309
 21
-0.9876883405951378
 31
0.0
 73
     1
 44
1.0
1001
ACAD
1000
MTEXTBEGIN
1070
    73
1070
     1
1070
    44
1040
1.0
1070
    74
1070
     0
1000
MTEXTEND
  0
POINT
  5
221F
330
2217
100
AcDbEntity
  8
Defpoints
 62
     0
100
AcDbPoint
 10
164.7789230206179
 20
163.5003048602055
 30
0.0
  0
POINT
  5
2220
330
2217
100
AcDbEntity
  8
Defpoints
 62
     0
100
AcDbPoint
 10
166.0303987409398
 20
155.5987981354444
 30
0.0
  0
POINT
  5
2221
330
2217
100
AcDbEntity
  8
Defpoints
 62
     0
100
AcDbPoint
 10
166.0303987409402
 20
155.5987981354445
 30
0.0
  0
ENDBLK
  5
2222
330
2217
100
AcDbEntity
  8
0
 62
     0
100
AcDbBlockEnd
  0
BLOCK
  5
224F
330
2223
100
AcDbEntity
  8
0
100
AcDbBlockBegin
  2
A$C75206A3A
 70
     0
 10
0.0
 20
0.0
 30
0.0
  3
A$C75206A3A
  1

  0
ARC
  5
2224
330
2223
100
AcDbEntity
  8
0
 62
     1
370
     5
100
AcDbCircle
 10
-52.99999999999994
 20
-0.0000000000000853
 30
0.0
 40
14.84788965049511
100
AcDbArc
 50
336.8073346070382
 51
348.4036673035199
  0
LINE
  5
2225
330
2223
100
AcDbEntity
  8
0
 62
     0
100
AcDbLine
 10
-50.99999999999997
 20
-5.000000000000056
 30
0.0
 11
-49.66025403784434
 21
-0.0000000000000568
 31
0.0
  0
LINE
  5
2226
330
2223
100
AcDbEntity
  8
0
 62
     0
100
AcDbLine
 10
-51.0
 20
4.999999999999914
 30
0.0
 11
-50.99999999999994
 21
-5.000000000000056
 31
0.0
  0
LINE
  5
2227
330
2223
100
AcDbEntity
  8
0
 62
     0
100
AcDbLine
 10
-52.99999999999997
 20
5.999999999999943
 30
0.0
 11
-53.0
 21
-6.000000000000056
 31
0.0
  0
LINE
  5
2228
330
2223
100
AcDbEntity
  8
0
 62
     0
100
AcDbLine
 10
-26.99999999999997
 20
-11.11200000000005
 30
0.0
 11
-42.88799999999994
 21
-11.11200000000008
 31
0.0
  0
LINE
  5
2229
330
2223
100
AcDbEntity
  8
0
100
AcDbLine
 10
-44.26199999999997
 20
-9.738000000000084
 30
0.0
 11
-30.00000000000006
 21
-9.738000000000084
 31
0.0
  0
LINE
  5
222A
330
2223
100
AcDbEntity
  8
0
100
AcDbLine
 10
-50.00000000000003
 20
-9.000000000000085
 30
0.0
 11
-44.99999999999992
 21
-9.000000000000113
 31
0.0
  0
LINE
  5
222B
330
2223
100
AcDbEntity
  8
0
 62
     0
100
AcDbLine
 10
-52.99999999999997
 20
-6.000000000000056
 30
0.0
 11
-50.00000000000003
 21
-9.000000000000085
 31
0.0
  0
LINE
  5
222C
330
2223
100
AcDbEntity
  8
0
 62
     0
100
AcDbLine
 10
-52.99999999999997
 20
-5.000000000000056
 30
0.0
 11
-50.99999999999997
 21
-5.000000000000056
 31
0.0
  0
LINE
  5
222D
330
2223
100
AcDbEntity
  8
0
 62
     0
100
AcDbLine
 10
-45.0
 20
-9.000000000000028
 30
0.0
 11
-42.88799999999994
 21
-11.11200000000008
 31
0.0
  0
LINE
  5
222E
330
2223
100
AcDbEntity
  8
0
 62
     0
100
AcDbLine
 10
-42.88799999999994
 20
-11.11200000000008
 30
0.0
 11
-42.88799999999994
 21
-9.738000000000113
 31
0.0
  0
LINE
  5
222F
330
2223
100
AcDbEntity
  8
0
 62
     0
100
AcDbLine
 10
-30.00000000000006
 20
-9.738000000000084
 30
0.0
 11
-26.99999999999997
 21
-11.11200000000005
 31
0.0
  0
LINE
  5
2230
330
2223
100
AcDbEntity
  8
0
 62
     0
100
AcDbLine
 10
-30.00000000000006
 20
-9.738000000000056
 30
0.0
 11
-29.99999999999997
 21
-11.11200000000005
 31
0.0
  0
LINE
  5
2231
330
2223
100
AcDbEntity
  8
0
 62
     0
100
AcDbLine
 10
-27.0
 20
-11.11200000000002
 30
0.0
 11
-26.99999999999997
 21
-14.50000000000005
 31
0.0
  0
LINE
  5
2232
330
2223
100
AcDbEntity
  8
0
 62
     0
100
AcDbLine
 10
-26.99999999999997
 20
11.11199999999993
 30
0.0
 11
-42.88799999999994
 21
11.11199999999996
 31
0.0
  0
LINE
  5
2233
330
2223
100
AcDbEntity
  8
0
100
AcDbLine
 10
-44.26199999999997
 20
9.737999999999971
 30
0.0
 11
-30.00000000000006
 21
9.737999999999971
 31
0.0
  0
MTEXT
  5
2234
330
2223
100
AcDbEntity
  8
0
 62
     0
100
AcDbMText
 10
-35.84545978432942
 20
3.978914931605544
 30
0.0
 40
3.0
 41
0.0
 71
     5
 72
     1
  1
9\U+00B0
 11
0.2871331697209103
 21
-0.9578906737441506
 31
0.0
 73
     1
 44
1.0
1001
ACAD
1000
MTEXTBEGIN
1070
    73
1070
     1
1070
    44
1040
1.0
1070
    74
1070
     0
1000
MTEXTEND
  0
LINE
  5
2235
330
2223
100
AcDbEntity
  8
0
 62
     1
370
     5
100
AcDbLine
 10
-53.0
 20
6.837479487260281
 30
0.0
 11
-53.00000000000034
 21
15.98473294044711
 31
0.0
  0
LINE
  5
2236
330
2223
100
AcDbEntity
  8
0
 62
     0
100
AcDbLine
 10
-52.99999999999997
 20
5.999999999999943
 30
0.0
 11
-50.00000000000003
 21
8.999999999999971
 31
0.0
  0
ARC
  5
2237
330
2223
100
AcDbEntity
  8
0
 62
     1
370
     5
100
AcDbCircle
 10
-52.99999999999994
 20
-0.0000000000000853
 30
0.0
 40
14.84788965049511
100
AcDbArc
 50
20.59633269647966
 51
32.19266539296188
  0
LINE
  5
2238
330
2223
100
AcDbEntity
  8
0
 62
     0
100
AcDbLine
 10
-50.99999999999997
 20
4.999999999999943
 30
0.0
 11
-49.66025403784437
 21
-0.0000000000000284
 31
0.0
  0
LINE
  5
2239
330
2223
100
AcDbEntity
  8
0
 62
     0
100
AcDbLine
 10
-50.36566311889791
 20
-3.632622530612451
 30
0.0
 11
-50.64548778556687
 21
-3.676942403831844
 31
0.0
  0
LINE
  5
223A
330
2223
100
AcDbEntity
  8
0
 62
     0
370
     0
100
AcDbLine
 10
-52.99999999999997
 20
5.999999999999943
 30
0.0
 11
-52.99999999999997
 21
6.212479487260281
 31
0.0
  0
LINE
  5
223B
330
2223
100
AcDbEntity
  8
0
 62
     0
100
AcDbLine
 10
-50.58015735717916
 20
4.433125925808582
 30
0.0
 11
-50.83719800591925
 21
4.392414686517213
 31
0.0
  0
LINE
  5
223C
330
2223
100
AcDbEntity
  8
0
 62
     0
100
AcDbLine
 10
-52.99999999999997
 20
4.999999999999943
 30
0.0
 11
-50.99999999999997
 21
4.999999999999943
 31
0.0
  0
ARC
  5
223D
330
2223
100
AcDbEntity
  8
0
 62
     1
370
     5
100
AcDbCircle
 10
-52.99999999999994
 20
-0.0000000000000853
 30
0.0
 40
14.84788965049511
100
AcDbArc
 50
0.0
 51
9.00000000000031
  0
SOLID
  5
223E
330
2223
100
AcDbEntity
  8
0
 62
     1
370
     0
100
AcDbTrace
 10
-38.952625693844
 20
-2.934139598498717
 30
0.0
 11
-37.95774175139368
 21
-3.035164056203342
 31
0.0
 12
-38.15211034950483
 22
-0.0000000000000853
 32
0.0
 13
-38.15211034950483
 23
-0.0000000000000853
 33
0.0
  0
SOLID
  5
223F
330
2223
100
AcDbEntity
  8
0
 62
     1
370
     0
100
AcDbTrace
 10
-38.61774117707202
 20
5.350923772223069
 30
0.0
 11
-39.5845727402785
 21
5.095508955918887
 31
0.0
 12
-38.33491250976272
 22
2.322721674451514
 32
0.0
 13
-38.33491250976272
 23
2.322721674451514
 33
0.0
  0
LINE
  5
2240
330
2223
100
AcDbEntity
  8
0
100
AcDbLine
 10
-50.00000000000003
 20
8.999999999999971
 30
0.0
 11
-44.99999999999992
 21
9.0
 31
0.0
  0
SOLID
  5
2241
330
2223
100
AcDbEntity
  8
0
 62
     1
370
     0
100
AcDbTrace
 10
-48.9901223833695
 20
14.31092136857799
 30
0.0
 11
-49.56529446822315
 21
13.49288892863134
 31
0.0
 12
-46.8236111059563
 22
12.17638889404372
 32
0.0
 13
-46.8236111059563
 23
12.17638889404372
 33
0.0
  0
LINE
  5
2242
330
2223
100
AcDbEntity
  8
0
 62
     1
370
     5
100
AcDbLine
 10
-49.55805826175842
 20
9.441941738241553
 30
0.0
 11
-45.93972762947311
 21
13.06027237052691
 31
0.0
  0
ARC
  5
2243
330
2223
100
AcDbEntity
  8
0
 62
     1
370
     5
100
AcDbCircle
 10
-52.99999999999997
 20
5.999999999999943
 30
0.0
 40
8.734732940447173
100
AcDbArc
 50
64.77663141394683
 51
70.22336858605509
  0
SOLID
  5
2244
330
2223
100
AcDbEntity
  8
0
 62
     1
370
     0
100
AcDbTrace
 10
-50.13043100078582
 20
13.72697614501126
 30
0.0
 11
-49.95870279681821
 21
14.71212051207735
 31
0.0
 12
-53.00000000000029
 22
14.73473294044711
 32
0.0
 13
-53.00000000000029
 23
14.73473294044711
 33
0.0
  0
LINE
  5
2245
330
2223
100
AcDbEntity
  8
0
 62
     1
370
     5
100
AcDbLine
 10
-41.55805826175845
 20
12.44194173824152
 30
0.0
 11
-37.93972762947314
 21
16.06027237052689
 31
0.0
  0
LINE
  5
2246
330
2223
100
AcDbEntity
  8
0
 62
     0
370
     0
100
AcDbLine
 10
-45.0
 20
8.999999999999914
 30
0.0
 11
-45.0
 21
9.180746679308015
 31
0.0
  0
LINE
  5
2247
330
2223
100
AcDbEntity
  8
0
 62
     0
100
AcDbLine
 10
-42.88799999999994
 20
11.11199999999996
 30
0.0
 11
-42.88799999999994
 21
9.737999999999999
 31
0.0
  0
LINE
  5
2248
330
2223
100
AcDbEntity
  8
0
 62
     0
100
AcDbLine
 10
-45.0
 20
8.999999999999914
 30
0.0
 11
-42.88799999999994
 21
11.11199999999996
 31
0.0
  0
DIMENSION
  5
2249
330
2223
100
AcDbEntity
  8
0
 62
     0
100
AcDbDimension
  2
*D9
 10
-27.76112328263776
 20
0.3644996623770851
 30
0.0
 11
-26.28802341903401
 21
4.647676262968133
 31
0.0
 12
-193.7915220235779
 22
-155.2342984730674
 32
0.0
 70
     1
  1
%%c{\fMS UI Gothic|b0|i0|c0|p17;4}
 71
     5
 42
8.0
  3
ISO-25
100
AcDbAlignedDimension
 13
-29.01259900296
 23
8.266006387138105
 33
0.0
 14
-27.76112328263816
 24
0.3644996623769998
 34
0.0
  0
LINE
  5
224A
330
2223
100
AcDbEntity
  8
0
 62
     0
100
AcDbLine
 10
-30.00000000000006
 20
9.737999999999971
 30
0.0
 11
-26.99999999999997
 21
11.11199999999993
 31
0.0
  0
LINE
  5
224B
330
2223
100
AcDbEntity
  8
0
 62
     0
100
AcDbLine
 10
-30.00000000000006
 20
9.737999999999942
 30
0.0
 11
-29.99999999999997
 21
11.11199999999993
 31
0.0
  0
LINE
  5
224C
330
2223
100
AcDbEntity
  8
0
 62
     0
100
AcDbLine
 10
-26.99999999999997
 20
11.11199999999993
 30
0.0
 11
-26.99999999999997
 21
14.5
 31
0.0
  0
LINE
  5
224D
330
2223
100
AcDbEntity
  8
0
 62
     0
100
AcDbLine
 10
-50.83719800591925
 20
4.392414686517213
 30
0.0
 11
-7.188000000000016
 21
12.13959808775914
 31
0.0
  0
LINE
  5
224E
330
2223
100
AcDbEntity
  8
0
 62
     0
100
AcDbLine
 10
-50.64548778556684
 20
-3.676942403831844
 30
0.0
 11
-7.188000000000016
 21
4.016185192673219
 31
0.0
  0
ENDBLK
  5
2250
330
2223
100
AcDbEntity
  8
0
100
AcDbBlockEnd
  0
BLOCK
  5
295C
330
295B
100
AcDbEntity
  8
0
100
AcDbBlockBegin
  2
_None
 70
     0
 10
0.0
 20
0.0
 30
0.0
  3
_None
  1

  0
ENDBLK
  5
295D
330
295B
100
AcDbEntity
  8
0
100
AcDbBlockEnd
  0
BLOCK
  5
3B7D
330
3B51
100
AcDbEntity
  8
0
100
AcDbBlockBegin
  2
A$C447A4038
 70
     0
 10
0.0
 20
0.0
 30
0.0
  3
A$C447A4038
  1

  0
LINE
  5
3B52
330
3B51
100
AcDbEntity
  8
0
 62
     0
100
AcDbLine
 10
0.356646194124977
 20
3.197485430559197
 30
0.0
 11
1.601661381396269
 21
-0.6342773148388688
 31
0.0
  0
LINE
  5
3B53
330
3B51
100
AcDbEntity
  8
0
 62
     0
100
AcDbLine
 10
-0.3566461930250568
 20
3.197485430559197
 30
0.0
 11
-1.601661380296349
 21
-0.6342773148388688
 31
0.0
  0
LINE
  5
3B54
330
3B51
100
AcDbEntity
  8
0
 62
     0
100
AcDbLine
 10
-0.6896420546354137
 20
-1.132536728398235
 30
0.0
 11
0.6896420557353338
 21
-1.132536728398235
 31
0.0
  0
ARC
  5
3B55
330
3B51
100
AcDbEntity
  8
0
 62
     0
100
AcDbCircle
 10
0.0000000005499885
 20
-4.957536728015725
 30
0.0
 40
2.999999999699999
100
AcDbArc
 50
55.822409278222
 51
124.177590721778
  0
ARC
  5
3B56
330
3B51
100
AcDbEntity
  8
0
 62
     0
100
AcDbCircle
 10
0.0000000005499885
 20
1.139963271374426
 30
0.0
 40
0.149999999985
100
AcDbArc
 50
17.99999999999898
 51
162.000000000001
  0
ARC
  5
3B57
330
3B51
100
AcDbEntity
  8
0
 62
     0
100
AcDbCircle
 10
-2.136290484420982
 20
-1.268395941884875
 30
0.0
 40
0.3749999999625
100
AcDbArc
 50
90.0
 51
195.0000000000011
  0
LINE
  5
3B58
330
3B51
100
AcDbEntity
  8
0
 62
     0
100
AcDbLine
 10
-2.498512669243126
 20
-1.365453083788565
 30
0.0
 11
-2.258161680131678
 21
-2.262455186801844
 31
0.0
  0
LINE
  5
3B59
330
3B51
100
AcDbEntity
  8
0
 62
     0
100
AcDbLine
 10
-2.258161680131678
 20
-2.262455186801844
 30
0.0
 11
-2.498512669243126
 21
-1.365453083788565
 31
0.0
  0
LINE
  5
3B5A
330
3B51
100
AcDbEntity
  8
0
 62
     0
100
AcDbLine
 10
-1.958307573871337
 20
-0.8933959419223924
 30
0.0
 11
-2.136290484420982
 21
-0.8933959419223924
 31
0.0
  0
ARC
  5
3B5B
330
3B51
100
AcDbEntity
  8
0
 62
     0
100
AcDbCircle
 10
-1.895939495309534
 20
-2.165398044898097
 30
0.0
 40
0.3749999999625
100
AcDbArc
 50
194.999999999998
 51
304.1775907217779
  0
ARC
  5
3B5C
330
3B51
100
AcDbEntity
  8
0
 62
     0
100
AcDbCircle
 10
-0.6896420546354137
 20
-0.9825367284132653
 30
0.0
 40
0.149999999985
100
AcDbArc
 50
162.000000000001
 51
270.0
  0
LINE
  5
3B5D
330
3B51
100
AcDbEntity
  8
0
 62
     0
100
AcDbLine
 10
-2.136290484420953
 20
-0.8933959419223356
 30
0.0
 11
-1.958307573871337
 21
-0.8933959419223356
 31
0.0
  0
ARC
  5
3B5E
330
3B51
100
AcDbEntity
  8
0
 62
     0
100
AcDbCircle
 10
-1.958307573871337
 20
-0.5183959419598523
 30
0.0
 40
0.3749999999625
100
AcDbArc
 50
270.0
 51
342.000000000001
  0
LINE
  5
3B5F
330
3B51
100
AcDbEntity
  8
0
 62
     0
100
AcDbLine
 10
-2.258161680131735
 20
-2.262455186801844
 30
0.0
 11
-2.498512669243126
 21
-1.365453083788565
 31
0.0
  0
ARC
  5
3B60
330
3B51
100
AcDbEntity
  8
0
 62
     0
100
AcDbCircle
 10
-2.136290484420953
 20
-1.268395941884818
 30
0.0
 40
0.3749999999625
100
AcDbArc
 50
90.0
 51
195.0000000000011
  0
LINE
  5
3B61
330
3B51
100
AcDbEntity
  8
0
 62
     0
100
AcDbLine
 10
-0.1426584768800296
 20
1.18631582052609
 30
0.0
 11
-0.8323005320654317
 21
-0.9361841792617155
 31
0.0
  0
LINE
  5
3B62
330
3B51
100
AcDbEntity
  8
0
 62
     0
100
AcDbLine
 10
0.1426584779799498
 20
1.18631582052609
 30
0.0
 11
0.8323005331653519
 21
-0.9361841792617155
 31
0.0
  0
ARC
  5
3B63
330
3B51
100
AcDbEntity
  8
0
 62
     0
100
AcDbCircle
 10
1.895939496409511
 20
-2.165398044898097
 30
0.0
 40
0.3749999999625
100
AcDbArc
 50
235.822409278222
 51
345.000000000002
  0
ARC
  5
3B64
330
3B51
100
AcDbEntity
  8
0
 62
     0
100
AcDbCircle
 10
1.958307574971257
 20
-0.5183959419599092
 30
0.0
 40
0.3749999999625
100
AcDbArc
 50
197.9999999999989
 51
270.0
  0
ARC
  5
3B65
330
3B51
100
AcDbEntity
  8
0
 62
     0
100
AcDbCircle
 10
0.6896420557353338
 20
-0.9825367284132653
 30
0.0
 40
0.149999999985
100
AcDbArc
 50
270.0
 51
17.99999999999898
  0
LINE
  5
3B66
330
3B51
100
AcDbEntity
  8
0
 62
     0
100
AcDbLine
 10
1.958307574971257
 20
-0.8933959419223924
 30
0.0
 11
2.136290485520902
 21
-0.8933959419223924
 31
0.0
  0
LINE
  5
3B67
330
3B51
100
AcDbEntity
  8
0
 62
     0
100
AcDbLine
 10
2.258161681231598
 20
-2.262455186801844
 30
0.0
 11
2.498512670343046
 21
-1.365453083788565
 31
0.0
  0
LINE
  5
3B68
330
3B51
100
AcDbEntity
  8
0
 62
     0
100
AcDbLine
 10
2.498512670343046
 20
-1.365453083788565
 30
0.0
 11
2.258161681231598
 21
-2.262455186801844
 31
0.0
  0
ARC
  5
3B69
330
3B51
100
AcDbEntity
  8
0
 62
     0
100
AcDbCircle
 10
2.136290485520902
 20
-1.268395941884875
 30
0.0
 40
0.3749999999625
100
AcDbArc
 50
344.9999999999989
 51
90.0
  0
ARC
  5
3B6A
330
3B51
100
AcDbEntity
  8
0
 62
     0
100
AcDbCircle
 10
0.0000000005499885
 20
3.081604057680181
 30
0.0
 40
0.3749999999625
100
AcDbArc
 50
17.99999999999898
 51
162.000000000001
  0
ARC
  5
3B6B
330
3B51
100
AcDbEntity
  8
0
 62
     0
100
AcDbCircle
 10
5.499999999994457
 20
5.55029378529889
 30
0.0
 40
1.889572893129809
100
AcDbArc
 50
90.0
 51
180.0
  0
LINE
  5
3B6C
330
3B51
100
AcDbEntity
  8
0
 62
     0
100
AcDbLine
 10
-3.610427106864676
 20
5.55029378529889
 30
0.0
 11
-3.610427106864761
 21
-5.614023940655386
 31
0.0
  0
ARC
  5
3B6D
330
3B51
100
AcDbEntity
  8
0
 62
     0
100
AcDbCircle
 10
-5.499999999994543
 20
-5.614023940655329
 30
0.0
 40
1.889572893129809
100
AcDbArc
 50
310.2249957735891
 51
0.0
  0
ARC
  5
3B6E
330
3B51
100
AcDbEntity
  8
0
 62
     0
100
AcDbCircle
 10
-5.499999999994486
 20
5.55029378529889
 30
0.0
 40
1.889572893129809
100
AcDbArc
 50
0.0
 51
90.0
  0
LINE
  5
3B6F
330
3B51
100
AcDbEntity
  8
0
 62
     0
100
AcDbLine
 10
3.610427106864676
 20
5.55029378529889
 30
0.0
 11
3.610427106864705
 21
-5.614023940655386
 31
0.0
  0
ARC
  5
3B70
330
3B51
100
AcDbEntity
  8
0
 62
     0
100
AcDbCircle
 10
5.499999999994486
 20
-5.614023940655329
 30
0.0
 40
1.889572893129809
100
AcDbArc
 50
180.0
 51
229.775004226411
  0
LINE
  5
3B71
330
3B51
100
AcDbEntity
  8
0
100
AcDbLine
 10
7.0
 20
4.0
 30
0.0
 11
7.0
 21
-4.0
 31
0.0
  0
ARC
  5
3B72
330
3B51
100
AcDbEntity
  8
0
100
AcDbCircle
 10
8.0
 20
-4.0
 30
0.0
 40
1.0
100
AcDbArc
 50
180.0
 51
270.0
  0
LINE
  5
3B73
330
3B51
100
AcDbEntity
  8
0
 62
     0
100
AcDbLine
 10
13.5
 20
5.0
 30
0.0
 11
8.0
 21
5.0
 31
0.0
  0
ARC
  5
3B74
330
3B51
100
AcDbEntity
  8
0
100
AcDbCircle
 10
8.0
 20
4.0
 30
0.0
 40
1.0
100
AcDbArc
 50
90.0
 51
180.0
  0
LINE
  5
3B75
330
3B51
100
AcDbEntity
  8
0
 62
     0
100
AcDbLine
 10
13.49999999999997
 20
-5.0
 30
0.0
 11
8.0
 21
-5.0
 31
0.0
  0
LINE
  5
3B76
330
3B51
100
AcDbEntity
  8
0
 62
     0
100
AcDbLine
 10
-13.50000000000003
 20
-4.999999999999943
 30
0.0
 11
-8.000000000000056
 21
-5.0
 31
0.0
  0
LINE
  5
3B77
330
3B51
100
AcDbEntity
  8
0
 62
     0
100
AcDbLine
 10
-13.50000000000003
 20
5.000000000000056
 30
0.0
 11
-8.000000000000028
 21
5.0
 31
0.0
  0
ARC
  5
3B78
330
3B51
100
AcDbEntity
  8
0
100
AcDbCircle
 10
-8.000000000000028
 20
4.0
 30
0.0
 40
1.0
100
AcDbArc
 50
0.0
 51
90.0
  0
LINE
  5
3B79
330
3B51
100
AcDbEntity
  8
0
100
AcDbLine
 10
-7.000000000000028
 20
4.0
 30
0.0
 11
-7.000000000000056
 21
-4.0
 31
0.0
  0
ARC
  5
3B7A
330
3B51
100
AcDbEntity
  8
0
100
AcDbCircle
 10
-8.000000000000056
 20
-4.0
 30
0.0
 40
1.0
100
AcDbArc
 50
270.0
 51
0.0
  0
ENDBLK
  5
3B7E
330
3B51
100
AcDbEntity
  8
0
100
AcDbBlockEnd
  0
ENDSEC
  0
SECTION
  2
ENTITIES
  0
LINE
  5
52A
330
1F
100
AcDbEntity
  8
AM_0
100
AcDbLine
 10
171.7018786262364
 20
320.4009823325083
 30
0.0
 11
171.7018786262364
 21
315.2696758813578
 31
0.0
  0
ARC
  5
17E5
330
1F
100
AcDbEntity
  8
AM_0
100
AcDbCircle
 10
174.7018786262363
 20
355.1776958485501
 30
0.0
 40
12.5
100
AcDbArc
 50
267.0773289794914
 51
272.9226710205085
  0
CIRCLE
  5
17E6
330
1F
100
AcDbEntity
  8
AM_0
100
AcDbCircle
 10
174.7018786262363
 20
355.1776958485501
 30
0.0
 40
10.5
  0
CIRCLE
  5
17E7
330
1F
100
AcDbEntity
  8
AM_0
100
AcDbCircle
 10
174.7018786262363
 20
355.1776958485501
 30
0.0
 40
9.0
  0
ARC
  5
1835
330
1F
100
AcDbEntity
  8
AM_0
100
AcDbCircle
 10
178.9846779667597
 20
368.3587968719041
 30
0.0
 40
3.361078814551376
100
AcDbArc
 50
198.0557259869368
 51
305.9442740130631
  0
ARC
  5
1837
330
1F
100
AcDbEntity
  8
AM_0
100
AcDbCircle
 10
178.9846779667597
 20
341.996594825196
 30
0.0
 40
3.361078814551376
100
AcDbArc
 50
54.05572598693687
 51
161.9442740130631
  0
ARC
  5
1839
330
1F
100
AcDbEntity
  8
AM_0
100
AcDbCircle
 10
185.9143928667223
 20
347.0313274069712
 30
0.0
 40
3.361078814551376
100
AcDbArc
 50
90.05572598693712
 51
197.9442740130629
  0
ARC
  5
183A
330
1F
100
AcDbEntity
  8
AM_0
100
AcDbCircle
 10
188.5613084261614
 20
355.1776958485501
 30
0.0
 40
3.361078814551376
100
AcDbArc
 50
126.0557259869381
 51
233.9442740130627
  0
ARC
  5
183C
330
1F
100
AcDbEntity
  8
AM_0
100
AcDbCircle
 10
185.9143928667223
 20
363.3240642901289
 30
0.0
 40
3.361078814551376
100
AcDbArc
 50
162.0557259869371
 51
269.9442740130629
  0
ARC
  5
183E
330
1F
100
AcDbEntity
  8
AM_0
100
AcDbCircle
 10
170.4190792857128
 20
368.3587968719041
 30
0.0
 40
3.361078814551376
100
AcDbArc
 50
234.0557259869369
 51
341.9442740130631
  0
ARC
  5
183F
330
1F
100
AcDbEntity
  8
AM_0
100
AcDbCircle
 10
163.4893643857502
 20
363.3240642901289
 30
0.0
 40
3.361078814551376
100
AcDbArc
 50
270.0557259869372
 51
17.94427401306296
  0
ARC
  5
1840
330
1F
100
AcDbEntity
  8
AM_0
100
AcDbCircle
 10
160.8424488263111
 20
355.1776958485501
 30
0.0
 40
3.361078814551376
100
AcDbArc
 50
306.0557259869373
 51
53.9442740130619
  0
ARC
  5
1841
330
1F
100
AcDbEntity
  8
AM_0
100
AcDbCircle
 10
163.4893643857502
 20
347.0313274069712
 30
0.0
 40
3.361078814551376
100
AcDbArc
 50
342.055725986937
 51
89.94427401306282
  0
ARC
  5
1842
330
1F
100
AcDbEntity
  8
AM_0
100
AcDbCircle
 10
170.4190792857128
 20
341.996594825196
 30
0.0
 40
3.361078814551376
100
AcDbArc
 50
18.05572598693693
 51
125.9442740130631
  0
ARC
  5
1843
330
1F
100
AcDbEntity
  8
AM_0
100
AcDbCircle
 10
174.7018786262363
 20
355.1776958485501
 30
0.0
 40
12.5
100
AcDbArc
 50
231.0773289794917
 51
236.9226710205083
  0
ARC
  5
1844
330
1F
100
AcDbEntity
  8
AM_0
100
AcDbCircle
 10
174.7018786262363
 20
355.1776958485501
 30
0.0
 40
12.5
100
AcDbArc
 50
195.0773289794913
 51
200.9226710205083
  0
ARC
  5
1845
330
1F
100
AcDbEntity
  8
AM_0
100
AcDbCircle
 10
174.7018786262363
 20
355.1776958485501
 30
0.0
 40
12.5
100
AcDbArc
 50
159.0773289794917
 51
164.9226710205083
  0
ARC
  5
1846
330
1F
100
AcDbEntity
  8
AM_0
100
AcDbCircle
 10
174.7018786262363
 20
355.1776958485501
 30
0.0
 40
12.5
100
AcDbArc
 50
123.0773289794917
 51
128.9226710205083
  0
ARC
  5
1847
330
1F
100
AcDbEntity
  8
AM_0
100
AcDbCircle
 10
174.7018786262363
 20
355.1776958485501
 30
0.0
 40
12.5
100
AcDbArc
 50
87.07732897949146
 51
92.92267102050852
  0
ARC
  5
1848
330
1F
100
AcDbEntity
  8
AM_0
100
AcDbCircle
 10
174.7018786262363
 20
355.1776958485501
 30
0.0
 40
12.5
100
AcDbArc
 50
51.07732897949173
 51
56.92267102050831
  0
ARC
  5
1849
330
1F
100
AcDbEntity
  8
AM_0
100
AcDbCircle
 10
174.7018786262363
 20
355.1776958485501
 30
0.0
 40
12.5
100
AcDbArc
 50
15.07732897949165
 51
20.92267102050832
  0
ARC
  5
184A
330
1F
100
AcDbEntity
  8
AM_0
100
AcDbCircle
 10
174.7018786262363
 20
355.1776958485501
 30
0.0
 40
12.5
100
AcDbArc
 50
339.0773289794916
 51
344.9226710205085
  0
ARC
  5
184B
330
1F
100
AcDbEntity
  8
AM_0
100
AcDbCircle
 10
174.7018786262363
 20
355.1776958485501
 30
0.0
 40
12.5
100
AcDbArc
 50
303.0773289794916
 51
308.9226710205082
  0
ARC
  5
1851
330
1F
100
AcDbEntity
  8
AM_0
100
AcDbCircle
 10
182.2411299879284
 20
364.5136312010053
 30
0.0
 40
0.5
100
AcDbArc
 50
342.0557259869391
 51
51.07732897949415
1001
GENIUS_GENODEF_13
1002
{
1000
HIER
1070
     0
1002
}
1002
{
1000
MANEDIT
1070
     0
1002
}
1002
{
1000
NOSEL
1070
     0
1002
}
1002
{
1000
BEHIND
1070
     0
1002
}
1002
{
1000
REACTOR
1002
}
1001
GENIUS_GENOBJ-N-FIL_13
1002
{
1000
OWNER
1000
GEN
1002
}
  0
ARC
  5
1853
330
1F
100
AcDbEntity
  8
AM_0
100
AcDbCircle
 10
181.2511239832718
 20
365.232912666369
 30
0.0
 40
0.5
100
AcDbArc
 50
56.92267102050699
 51
125.944274013063
1001
GENIUS_GENODEF_13
1002
{
1000
HIER
1070
     0
1002
}
1002
{
1000
MANEDIT
1070
     0
1002
}
1002
{
1000
NOSEL
1070
     0
1002
}
1002
{
1000
BEHIND
1070
     0
1002
}
1002
{
1000
REACTOR
1002
}
1001
GENIUS_GENOBJ-N-FIL_13
1002
{
1000
OWNER
1000
GEN
1002
}
  0
ARC
  5
1856
330
1F
100
AcDbEntity
  8
AM_0
100
AcDbCircle
 10
175.3137359861806
 20
367.1620869708008
 30
0.0
 40
0.5
100
AcDbArc
 50
18.05572598693628
 51
87.07732897949165
1001
GENIUS_GENODEF_13
1002
{
1000
HIER
1070
     0
1002
}
1002
{
1000
MANEDIT
1070
     0
1002
}
1002
{
1000
NOSEL
1070
     0
1002
}
1002
{
1000
BEHIND
1070
     0
1002
}
1002
{
1000
REACTOR
1002
}
1001
GENIUS_GENOBJ-N-FIL_13
1002
{
1000
OWNER
1000
GEN
1002
}
  0
ARC
  5
1858
330
1F
100
AcDbEntity
  8
AM_0
100
AcDbCircle
 10
174.090021266292
 20
367.1620869708008
 30
0.0
 40
0.5
100
AcDbArc
 50
92.92267102050834
 51
161.9442740130637
1001
GENIUS_GENODEF_13
1002
{
1000
HIER
1070
     0
1002
}
1002
{
1000
MANEDIT
1070
     0
1002
}
1002
{
1000
NOSEL
1070
     0
1002
}
1002
{
1000
BEHIND
1070
     0
1002
}
1002
{
1000
REACTOR
1002
}
1001
GENIUS_GENOBJ-N-FIL_13
1002
{
1000
OWNER
1000
GEN
1002
}
  0
ARC
  5
185A
330
1F
100
AcDbEntity
  8
AM_0
100
AcDbCircle
 10
168.1526332692007
 20
365.232912666369
 30
0.0
 40
0.5
100
AcDbArc
 50
54.05572598693696
 51
123.077328979493
1001
GENIUS_GENODEF_13
1002
{
1000
HIER
1070
     0
1002
}
1002
{
1000
MANEDIT
1070
     0
1002
}
1002
{
1000
NOSEL
1070
     0
1002
}
1002
{
1000
BEHIND
1070
     0
1002
}
1002
{
1000
REACTOR
1002
}
1001
GENIUS_GENOBJ-N-FIL_13
1002
{
1000
OWNER
1000
GEN
1002
}
  0
ARC
  5
185C
330
1F
100
AcDbEntity
  8
AM_0
100
AcDbCircle
 10
167.1626272645442
 20
364.5136312010053
 30
0.0
 40
0.5
100
AcDbArc
 50
128.9226710205058
 51
197.9442740130607
1001
GENIUS_GENODEF_13
1002
{
1000
HIER
1070
     0
1002
}
1002
{
1000
MANEDIT
1070
     0
1002
}
1002
{
1000
NOSEL
1070
     0
1002
}
1002
{
1000
BEHIND
1070
     0
1002
}
1002
{
1000
REACTOR
1002
}
1001
GENIUS_GENOBJ-N-FIL_13
1002
{
1000
OWNER
1000
GEN
1002
}
  0
ARC
  5
185E
330
1F
100
AcDbEntity
  8
AM_0
100
AcDbCircle
 10
163.4931196779461
 20
359.4629873017799
 30
0.0
 40
0.5
100
AcDbArc
 50
90.05572598693987
 51
159.0773289794926
1001
GENIUS_GENODEF_13
1002
{
1000
HIER
1070
     0
1002
}
1002
{
1000
MANEDIT
1070
     0
1002
}
1002
{
1000
NOSEL
1070
     0
1002
}
1002
{
1000
BEHIND
1070
     0
1002
}
1002
{
1000
REACTOR
1002
}
1001
GENIUS_GENOBJ-N-FIL_13
1002
{
1000
OWNER
1000
GEN
1002
}
  0
ARC
  5
1860
330
1F
100
AcDbEntity
  8
AM_0
100
AcDbCircle
 10
163.1149710332338
 20
358.2991654433437
 30
0.0
 40
0.5
100
AcDbArc
 50
164.9226710205089
 51
233.944274013062
1001
GENIUS_GENODEF_13
1002
{
1000
HIER
1070
     0
1002
}
1002
{
1000
MANEDIT
1070
     0
1002
}
1002
{
1000
NOSEL
1070
     0
1002
}
1002
{
1000
BEHIND
1070
     0
1002
}
1002
{
1000
REACTOR
1002
}
1001
GENIUS_GENOBJ-N-FIL_13
1002
{
1000
OWNER
1000
GEN
1002
}
  0
ARC
  5
1862
330
1F
100
AcDbEntity
  8
AM_0
100
AcDbCircle
 10
163.1149710332337
 20
352.0562262537565
 30
0.0
 40
0.5
100
AcDbArc
 50
126.0557259869341
 51
195.0773289794927
1001
GENIUS_GENODEF_13
1002
{
1000
HIER
1070
     0
1002
}
1002
{
1000
MANEDIT
1070
     0
1002
}
1002
{
1000
NOSEL
1070
     0
1002
}
1002
{
1000
BEHIND
1070
     0
1002
}
1002
{
1000
REACTOR
1002
}
1001
GENIUS_GENOBJ-N-FIL_13
1002
{
1000
OWNER
1000
GEN
1002
}
  0
ARC
  5
1864
330
1F
100
AcDbEntity
  8
AM_0
100
AcDbCircle
 10
163.4931196779461
 20
350.8924043953202
 30
0.0
 40
0.5
100
AcDbArc
 50
200.9226710205072
 51
269.9442740130601
1001
GENIUS_GENODEF_13
1002
{
1000
HIER
1070
     0
1002
}
1002
{
1000
MANEDIT
1070
     0
1002
}
1002
{
1000
NOSEL
1070
     0
1002
}
1002
{
1000
BEHIND
1070
     0
1002
}
1002
{
1000
REACTOR
1002
}
1001
GENIUS_GENOBJ-N-FIL_13
1002
{
1000
OWNER
1000
GEN
1002
}
  0
ARC
  5
1866
330
1F
100
AcDbEntity
  8
AM_0
100
AcDbCircle
 10
167.1626272645442
 20
345.8417604960948
 30
0.0
 40
0.5
100
AcDbArc
 50
162.0557259869392
 51
231.0773289794942
1001
GENIUS_GENODEF_13
1002
{
1000
HIER
1070
     0
1002
}
1002
{
1000
MANEDIT
1070
     0
1002
}
1002
{
1000
NOSEL
1070
     0
1002
}
1002
{
1000
BEHIND
1070
     0
1002
}
1002
{
1000
REACTOR
1002
}
1001
GENIUS_GENOBJ-N-FIL_13
1002
{
1000
OWNER
1000
GEN
1002
}
  0
ARC
  5
1868
330
1F
100
AcDbEntity
  8
AM_0
100
AcDbCircle
 10
168.1526332692007
 20
345.1224790307311
 30
0.0
 40
0.5
100
AcDbArc
 50
236.9226710205069
 51
305.944274013063
1001
GENIUS_GENODEF_13
1002
{
1000
HIER
1070
     0
1002
}
1002
{
1000
MANEDIT
1070
     0
1002
}
1002
{
1000
NOSEL
1070
     0
1002
}
1002
{
1000
BEHIND
1070
     0
1002
}
1002
{
1000
REACTOR
1002
}
1001
GENIUS_GENOBJ-N-FIL_13
1002
{
1000
OWNER
1000
GEN
1002
}
  0
ARC
  5
186A
330
1F
100
AcDbEntity
  8
AM_0
100
AcDbCircle
 10
174.090021266292
 20
343.1933047262993
 30
0.0
 40
0.5
100
AcDbArc
 50
198.0557259869363
 51
267.0773289794917
1001
GENIUS_GENODEF_13
1002
{
1000
HIER
1070
     0
1002
}
1002
{
1000
MANEDIT
1070
     0
1002
}
1002
{
1000
NOSEL
1070
     0
1002
}
1002
{
1000
BEHIND
1070
     0
1002
}
1002
{
1000
REACTOR
1002
}
1001
GENIUS_GENOBJ-N-FIL_13
1002
{
1000
OWNER
1000
GEN
1002
}
  0
ARC
  5
186C
330
1F
100
AcDbEntity
  8
AM_0
100
AcDbCircle
 10
175.3137359861806
 20
343.1933047262993
 30
0.0
 40
0.5
100
AcDbArc
 50
272.9226710205083
 51
341.9442740130636
1001
GENIUS_GENODEF_13
1002
{
1000
HIER
1070
     0
1002
}
1002
{
1000
MANEDIT
1070
     0
1002
}
1002
{
1000
NOSEL
1070
     0
1002
}
1002
{
1000
BEHIND
1070
     0
1002
}
1002
{
1000
REACTOR
1002
}
1001
GENIUS_GENOBJ-N-FIL_13
1002
{
1000
OWNER
1000
GEN
1002
}
  0
ARC
  5
186E
330
1F
100
AcDbEntity
  8
AM_0
100
AcDbCircle
 10
181.2511239832718
 20
345.1224790307311
 30
0.0
 40
0.5
100
AcDbArc
 50
234.055725986937
 51
303.0773289794931
1001
GENIUS_GENODEF_13
1002
{
1000
HIER
1070
     0
1002
}
1002
{
1000
MANEDIT
1070
     0
1002
}
1002
{
1000
NOSEL
1070
     0
1002
}
1002
{
1000
BEHIND
1070
     0
1002
}
1002
{
1000
REACTOR
1002
}
1001
GENIUS_GENOBJ-N-FIL_13
1002
{
1000
OWNER
1000
GEN
1002
}
  0
ARC
  5
1870
330
1F
100
AcDbEntity
  8
AM_0
100
AcDbCircle
 10
182.2411299879284
 20
345.8417604960948
 30
0.0
 40
0.5
100
AcDbArc
 50
308.9226710205058
 51
17.94427401306077
1001
GENIUS_GENODEF_13
1002
{
1000
HIER
1070
     0
1002
}
1002
{
1000
MANEDIT
1070
     0
1002
}
1002
{
1000
NOSEL
1070
     0
1002
}
1002
{
1000
BEHIND
1070
     0
1002
}
1002
{
1000
REACTOR
1002
}
1001
GENIUS_GENOBJ-N-FIL_13
1002
{
1000
OWNER
1000
GEN
1002
}
  0
ARC
  5
1872
330
1F
100
AcDbEntity
  8
AM_0
100
AcDbCircle
 10
185.9106375745264
 20
350.8924043953202
 30
0.0
 40
0.5
100
AcDbArc
 50
270.0557259869399
 51
339.0773289794927
1001
GENIUS_GENODEF_13
1002
{
1000
HIER
1070
     0
1002
}
1002
{
1000
MANEDIT
1070
     0
1002
}
1002
{
1000
NOSEL
1070
     0
1002
}
1002
{
1000
BEHIND
1070
     0
1002
}
1002
{
1000
REACTOR
1002
}
1001
GENIUS_GENOBJ-N-FIL_13
1002
{
1000
OWNER
1000
GEN
1002
}
  0
ARC
  5
1874
330
1F
100
AcDbEntity
  8
AM_0
100
AcDbCircle
 10
186.2887862192388
 20
352.0562262537565
 30
0.0
 40
0.5
100
AcDbArc
 50
344.9226710205072
 51
53.94427401306579
1001
GENIUS_GENODEF_13
1002
{
1000
HIER
1070
     0
1002
}
1002
{
1000
MANEDIT
1070
     0
1002
}
1002
{
1000
NOSEL
1070
     0
1002
}
1002
{
1000
BEHIND
1070
     0
1002
}
1002
{
1000
REACTOR
1002
}
1001
GENIUS_GENOBJ-N-FIL_13
1002
{
1000
OWNER
1000
GEN
1002
}
  0
ARC
  5
1876
330
1F
100
AcDbEntity
  8
AM_0
100
AcDbCircle
 10
186.2887862192387
 20
358.2991654433437
 30
0.0
 40
0.5
100
AcDbArc
 50
306.055725986938
 51
15.07732897949107
1001
GENIUS_GENODEF_13
1002
{
1000
HIER
1070
     0
1002
}
1002
{
1000
MANEDIT
1070
     0
1002
}
1002
{
1000
NOSEL
1070
     0
1002
}
1002
{
1000
BEHIND
1070
     0
1002
}
1002
{
1000
REACTOR
1002
}
1001
GENIUS_GENOBJ-N-FIL_13
1002
{
1000
OWNER
1000
GEN
1002
}
  0
ARC
  5
1878
330
1F
100
AcDbEntity
  8
AM_0
100
AcDbCircle
 10
185.9106375745264
 20
359.4629873017799
 30
0.0
 40
0.5
100
AcDbArc
 50
20.92267102050729
 51
89.94427401306012
1001
GENIUS_GENODEF_13
1002
{
1000
HIER
1070
     0
1002
}
1002
{
1000
MANEDIT
1070
     0
1002
}
1002
{
1000
NOSEL
1070
     0
1002
}
1002
{
1000
BEHIND
1070
     0
1002
}
1002
{
1000
REACTOR
1002
}
1001
GENIUS_GENOBJ-N-FIL_13
1002
{
1000
OWNER
1000
GEN
1002
}
  0
LINE
  5
193C
330
1F
100
AcDbEntity
  8
AM_0
100
AcDbLine
 10
177.7018786262363
 20
320.4009823325082
 30
0.0
 11
177.7018786262363
 21
315.2696758813578
 31
0.0
  0
TEXT
  5
19AF
330
1F
100
AcDbEntity
  8
AM_0
100
AcDbText
 10
165.7683779314231
 20
354.0856494503723
 30
0.0
 40
3.0
  1
clccolo
 41
1.5
  7
ｽﾀｲﾙ1
100
AcDbText
  0
TEXT
  5
19BC
330
1F
100
AcDbEntity
  8
AM_0
100
AcDbText
 10
166.8436520288337
 20
357.2427171474623
 30
0.0
 40
3.0
  1
▲
 41
0.5
  7
ｽﾀｲﾙ1
100
AcDbText
  0
TEXT
  5
19D6
330
1F
100
AcDbEntity
  8
AM_0
100
AcDbText
 10
182.7134067980092
 20
353.4269001699355
 30
0.0
 40
3.0
  1
▲
 50
180.0
 41
0.5
  7
ｽﾀｲﾙ1
100
AcDbText
  0
ARC
  5
1B97
330
1F
100
AcDbEntity
  8
AM_0
100
AcDbCircle
 10
164.946410451507
 20
331.1467142637853
 30
0.0
 40
1.754268068723236
100
AcDbArc
 50
8.052279597304671
 51
171.9477204026921
  0
ARC
  5
1B98
330
1F
100
AcDbEntity
  8
AM_0
100
AcDbCircle
 10
170.9756213596575
 20
329.9262828919625
 30
0.0
 40
2.97469944054606
100
AcDbArc
 50
19.12700048611885
 51
160.8729995138811
  0
LINE
  5
1B99
330
1F
100
AcDbEntity
  8
AM_0
100
AcDbLine
 10
163.2094382943056
 20
331.392446195062
 30
0.0
 11
163.2094382943056
 21
321.9009823325085
 31
0.0
  0
LINE
  5
1B9A
330
1F
100
AcDbEntity
  8
AM_0
100
AcDbLine
 10
173.7861013475216
 20
330.9009823325085
 30
0.0
 11
173.7861013475216
 21
321.9009823325085
 31
0.0
  0
LINE
  5
1B9B
330
1F
100
AcDbEntity
  8
AM_0
100
AcDbLine
 10
168.1651413717935
 20
330.9009823325084
 30
0.0
 11
168.1651413717935
 21
321.9009823325085
 31
0.0
  0
LINE
  5
1B9C
330
1F
100
AcDbEntity
  8
AM_0
100
AcDbLine
 10
166.6833826087084
 20
331.3924461950626
 30
0.0
 11
166.6833826087085
 21
321.9009823325085
 31
0.0
  0
ARC
  5
1B9D
330
1F
100
AcDbEntity
  8
AM_0
100
AcDbCircle
 10
164.2018786262363
 20
330.9009823325085
 30
0.0
 40
2.0
100
AcDbArc
 50
90.0
 51
180.0
1001
GENIUS_GENODEF_13
1002
{
1000
HIER
1070
     0
1002
}
1002
{
1000
MANEDIT
1070
     0
1002
}
1002
{
1000
NOSEL
1070
     0
1002
}
1002
{
1000
BEHIND
1070
     0
1002
}
1002
{
1000
REACTOR
1002
}
1001
GENIUS_GENOBJ-N-FIL_13
1002
{
1000
OWNER
1000
GEN
1002
}
  0
LINE
  5
1BA2
330
1F
100
AcDbEntity
  8
AM_0
100
AcDbLine
 10
164.2018786262363
 20
332.9009823325085
 30
0.0
 11
174.7018786262363
 21
332.9009823325085
 31
0.0
  0
LINE
  5
1BA3
330
1F
100
AcDbEntity
  8
AM_0
100
AcDbLine
 10
164.2018786262359
 20
320.9009823325083
 30
0.0
 11
174.7018786262363
 21
320.9009823325083
 31
0.0
  0
LINE
  5
1BA5
330
1F
100
AcDbEntity
  8
AM_0
100
AcDbLine
 10
162.7018786262364
 20
321.9009823325082
 30
0.0
 11
174.7018786262363
 21
321.9009823325085
 31
0.0
  0
LINE
  5
1BA6
330
1F
100
AcDbEntity
  8
AM_0
100
AcDbLine
 10
164.2018786262359
 20
321.9009823325083
 30
0.0
 11
164.2018786262359
 21
320.9009823325083
 31
0.0
  0
LINE
  5
1BA7
330
1F
100
AcDbEntity
  8
AM_0
100
AcDbLine
 10
162.2018786262363
 20
330.9009823325085
 30
0.0
 11
162.2018786262364
 21
322.4009823325082
 31
0.0
  0
LINE
  5
1BAD
330
1F
100
AcDbEntity
  8
AM_0
100
AcDbLine
 10
164.7018786262363
 20
334.9009823325086
 30
0.0
 11
174.7018786262363
 21
334.9009823325086
 31
0.0
  0
LINE
  5
1BAE
330
1F
100
AcDbEntity
  8
AM_0
100
AcDbLine
 10
164.2018786262363
 20
332.9009823325085
 30
0.0
 11
164.2018786262363
 21
334.4009823325085
 31
0.0
  0
LINE
  5
1BBD
330
1F
100
AcDbEntity
  8
AM_0
100
AcDbLine
 10
177.2018786262363
 20
320.9009823325083
 30
0.0
 11
177.7018786262363
 21
320.4009823325082
 31
0.0
1001
GENIUS_GENFIL_13
1070
     0
1040
0.5
1040
0.5
1040
0.5
1040
45.0000000000002
1000
~T
1001
GENIUS_GENOREF_13
1005
1BC5
  0
LINE
  5
1BC2
330
1F
100
AcDbEntity
  8
AM_0
100
AcDbLine
 10
172.2018786262364
 20
320.9009823325083
 30
0.0
 11
171.7018786262364
 21
320.4009823325082
 31
0.0
1001
GENIUS_GENFIL_13
1070
     0
1040
0.5
1040
0.5
1040
0.5
1040
45.0000000000002
1000
~T
1001
GENIUS_GENOREF_13
1005
1BC4
  0
LINE
  5
1BC3
330
1F
100
AcDbEntity
  8
AM_0
100
AcDbLine
 10
171.7018786262364
 20
320.4009823325082
 30
0.0
 11
177.7018786262364
 21
320.4009823325082
 31
0.0
  0
POINT
  5
1BC4
330
1F
100
AcDbEntity
  8
0
 60
     1
100
AcDbPoint
 10
453.7825406082839
 20
85.03935940516454
 30
0.0
 50
180.0
1001
GENIUS_GENOENT_13
1002
{
1000
MYREF
1005
1BC4
1002
}
1002
{
1000
GRP
1005
0
1002
}
1001
GENIUS_GENOBJ-N-CHA_13
1002
{
1000
OWNER
1000
GEN
1002
}
1001
GENIUS_GENODEF_13
1002
{
1000
HIER
1070
     1
1002
}
1002
{
1000
MANEDIT
1070
     0
1002
}
1002
{
1000
NOSEL
1070
     0
1002
}
1002
{
1000
BEHIND
1070
     0
1002
}
1002
{
1000
OTHER
1070
     0
1002
}
1002
{
1000
REACTOR
1002
}
1001
GENIUS_GENOLIS_13
1002
{
1000
ENT
1005
1BC2
1002
}
  0
POINT
  5
1BC5
330
1F
100
AcDbEntity
  8
0
 60
     1
100
AcDbPoint
 10
-115.9796571474232
 20
85.03935940516454
 30
0.0
1001
GENIUS_GENOENT_13
1002
{
1000
MYREF
1005
1BC5
1002
}
1002
{
1000
GRP
1005
0
1002
}
1001
GENIUS_GENOBJ-N-CHA_13
1002
{
1000
OWNER
1000
GEN
1002
}
1001
GENIUS_GENODEF_13
1002
{
1000
HIER
1070
     1
1002
}
1002
{
1000
MANEDIT
1070
     0
1002
}
1002
{
1000
NOSEL
1070
     0
1002
}
1002
{
1000
BEHIND
1070
     0
1002
}
1002
{
1000
OTHER
1070
     0
1002
}
1002
{
1000
REACTOR
1002
}
1001
GENIUS_GENOLIS_13
1002
{
1000
ENT
1005
1BBD
1002
}
  0
LINE
  5
1C0F
330
1F
100
AcDbEntity
  8
AM_7
100
AcDbLine
 10
174.7018786262363
 20
336.0886704021315
 30
0.0
 11
174.7018786262364
 21
278.8726758811449
 31
0.0
1001
GENIUS_GENODEF_13
1002
{
1000
HIER
1070
     0
1002
}
1002
{
1000
MANEDIT
1070
     0
1002
}
1002
{
1000
NOSEL
1070
     0
1002
}
1002
{
1000
BEHIND
1070
     0
1002
}
1002
{
1000
OTHER
1070
     0
1002
}
1002
{
1000
REACTOR
1002
}
1001
GENIUS_GENOBJ-N-CEN_13
1002
{
1000
OWNER
1000
GEN
1002
}
1001
GENIUS_GENCEN_19
1002
{
1040
1.397
1002
}
  0
LINE
  5
25DB
330
1F
100
AcDbEntity
  8
AM_7
100
AcDbLine
 10
140.1951828291861
 20
290.7696758811449
 30
0.0
 11
199.763840959999
 21
290.7696758811449
 31
0.0
1001
GENIUS_GENODEF_13
1002
{
1000
HIER
1070
     0
1002
}
1002
{
1000
MANEDIT
1070
     0
1002
}
1002
{
1000
NOSEL
1070
     0
1002
}
1002
{
1000
BEHIND
1070
     0
1002
}
1002
{
1000
OTHER
1070
     0
1002
}
1002
{
1000
REACTOR
1002
}
1001
GENIUS_GENOBJ-N-CEN_13
1002
{
1000
OWNER
1000
GEN
1002
}
1001
GENIUS_GENCEN_19
1002
{
1040
1.397
1002
}
  0
LINE
  5
2B5D
330
1F
100
AcDbEntity
  8
0
100
AcDbLine
 10
197.7018786262365
 20
290.7696758811449
 30
0.0
 11
197.7018786262365
 21
285.5196758811449
 31
0.0
  0
LINE
  5
2B60
330
1F
100
AcDbEntity
  8
AM_0
100
AcDbLine
 10
197.7018786262365
 20
285.5196758811449
 30
0.0
 11
195.6130909724736
 21
284.3137137669649
 31
0.0
  0
LINE
  5
2B61
330
1F
100
AcDbEntity
  8
AM_4
100
AcDbLine
 10
197.1813338668186
 20
285.2191392241697
 30
0.0
 11
188.5859228757914
 21
284.9505326307
 31
0.0
  0
LINE
  5
2B64
330
1F
100
AcDbEntity
  8
AM_0
100
AcDbLine
 10
195.6130909724735
 20
284.3137137669648
 30
0.0
 11
187.7018786262364
 21
284.066488381145
 31
0.0
  0
LINE
  5
2B65
330
1F
100
AcDbEntity
  8
AM_0
100
AcDbLine
 10
195.6130909724735
 20
284.3137137669648
 30
0.0
 11
195.6130909724734
 21
285.1701316337215
 31
0.0
  0
LINE
  5
2B66
330
1F
100
AcDbEntity
  8
AM_4
100
AcDbLine
 10
187.7018786262364
 20
284.066488381145
 30
0.0
 11
188.5859228757914
 21
284.9505326307
 31
0.0
  0
LINE
  5
2B67
330
1F
100
AcDbEntity
  8
AM_0
100
AcDbLine
 10
188.5859228757914
 20
284.9505326307
 30
0.0
 11
188.5859228757914
 21
284.0941147639435
 31
0.0
  0
LINE
  5
2B68
330
1F
100
AcDbEntity
  8
AM_0
100
AcDbLine
 10
197.7018786262365
 20
296.0196758811449
 30
0.0
 11
195.6130909724735
 21
297.225637995325
 31
0.0
  0
LINE
  5
2B69
330
1F
100
AcDbEntity
  8
AM_4
100
AcDbLine
 10
197.1813338668187
 20
296.3202125381201
 30
0.0
 11
188.5859228757918
 21
296.5888191315897
 31
0.0
  0
LINE
  5
2B6B
330
1F
100
AcDbEntity
  8
0
100
AcDbLine
 10
197.7018786262365
 20
290.7696758811449
 30
0.0
 11
197.7018786262365
 21
296.0196758811449
 31
0.0
  0
LINE
  5
2B6D
330
1F
100
AcDbEntity
  8
AM_0
100
AcDbLine
 10
195.6130909724736
 20
297.225637995325
 30
0.0
 11
187.7018786262364
 21
297.4728633811452
 31
0.0
  0
LINE
  5
2B6E
330
1F
100
AcDbEntity
  8
AM_0
100
AcDbLine
 10
195.6130909724736
 20
297.225637995325
 30
0.0
 11
195.6130909724736
 21
296.3692201285685
 31
0.0
  0
LINE
  5
2B70
330
1F
100
AcDbEntity
  8
AM_4
100
AcDbLine
 10
187.7018786262364
 20
297.4728633811452
 30
0.0
 11
188.5859228757918
 21
296.5888191315897
 31
0.0
  0
LINE
  5
2B71
330
1F
100
AcDbEntity
  8
AM_0
100
AcDbLine
 10
188.5859228757918
 20
296.5888191315897
 30
0.0
 11
188.5859228757918
 21
297.4452369983465
 31
0.0
  0
ARC
  5
35E0
330
1F
100
AcDbEntity
  8
AM_0
100
AcDbCircle
 10
164.7018786262363
 20
334.4009823325085
 30
0.0
 40
0.5
100
AcDbArc
 50
90.0
 51
180.0
  0
ARC
  5
35E1
330
1F
100
AcDbEntity
  8
AM_0
100
AcDbCircle
 10
162.7018786262364
 20
322.4009823325082
 30
0.0
 40
0.5
100
AcDbArc
 50
180.0000000000007
 51
270.0000000000016
  0
LINE
  5
3914
330
1F
100
AcDbEntity
  8
AM_0
100
AcDbLine
 10
173.7861013475216
 20
330.9009823325085
 30
0.0
 11
174.7018786262363
 21
330.9009823325085
 31
0.0
  0
LINE
  5
3916
330
1F
100
AcDbEntity
  8
AM_0
100
AcDbLine
 10
168.1651413717935
 20
330.9009823325086
 30
0.0
 11
166.6833826087084
 21
330.9009823325086
 31
0.0
  0
LINE
  5
3917
330
1F
100
AcDbEntity
  8
AM_0
100
AcDbLine
 10
163.2094382943056
 20
330.9009823325086
 30
0.0
 11
162.2018786262363
 21
330.9009823325086
 31
0.0
  0
LINE
  5
3A4E
330
1F
100
AcDbEntity
  8
AM_7
100
AcDbLine
 10
174.7018786262363
 20
369.0746958485501
 30
0.0
 11
174.7018786262363
 21
341.28069584855
 31
0.0
1001
GENIUS_GENOBJ-N-CEN_13
1002
{
1000
OWNER
1000
GEN
1002
}
1001
GENIUS_GENODEF_13
1002
{
1000
HIER
1070
     0
1002
}
1002
{
1000
MANEDIT
1070
     0
1002
}
1002
{
1000
NOSEL
1070
     0
1002
}
1002
{
1000
BEHIND
1070
     0
1002
}
1002
{
1000
OTHER
1070
     0
1002
}
1002
{
1000
REACTOR
1002
}
1001
GENIUS_GENCEN_19
1002
{
1040
1.397
1002
}
  0
LINE
  5
3A4F
330
1F
100
AcDbEntity
  8
AM_7
100
AcDbLine
 10
186.5988786262363
 20
355.1776958485501
 30
0.0
 11
162.8048786262363
 21
355.1776958485501
 31
0.0
1001
GENIUS_GENOBJ-N-CEN_13
1002
{
1000
OWNER
1000
GEN
1002
}
1001
GENIUS_GENODEF_13
1002
{
1000
HIER
1070
     0
1002
}
1002
{
1000
MANEDIT
1070
     0
1002
}
1002
{
1000
NOSEL
1070
     0
1002
}
1002
{
1000
BEHIND
1070
     0
1002
}
1002
{
1000
OTHER
1070
     0
1002
}
1002
{
1000
REACTOR
1002
}
1001
GENIUS_GENCEN_19
1002
{
1040
1.397
1002
}
  0
LINE
  5
3BFB
330
1F
100
AcDbEntity
  8
0
 62
     0
100
AcDbLine
 10
181.1603786262647
 20
306.1709344197985
 30
0.0
 11
181.7018786262671
 21
306.1709344197619
 31
0.0
  0
LINE
  5
3BFC
330
1F
100
AcDbEntity
  8
0
 62
     0
100
AcDbLine
 10
174.7018786262364
 20
315.2696758813578
 30
0.0
 11
166.2018786270492
 21
315.2696758813577
 31
0.0
  0
ARC
  5
3BFD
330
1F
100
AcDbEntity
  8
0
 62
     0
100
AcDbCircle
 10
168.201878626858
 20
304.7275587478357
 30
0.0
 40
0.9999999999043879
100
AcDbArc
 50
0.0
 51
59.99999999999946
  0
LINE
  5
3BFE
330
1F
100
AcDbEntity
  8
0
 62
     0
100
AcDbLine
 10
180.7018786262627
 20
305.5935841505697
 30
0.0
 11
181.7018786262671
 21
306.1709344197619
 31
0.0
  0
ARC
  5
3BFF
330
1F
100
AcDbEntity
  8
0
 62
     0
100
AcDbCircle
 10
181.2018786262649
 20
304.7275587467815
 30
0.0
 40
1.000000000004388
100
AcDbArc
 50
120.0000000000005
 51
180.0
  0
LINE
  5
3C00
330
1F
100
AcDbEntity
  8
0
 62
     0
100
AcDbLine
 10
183.2018786262736
 20
315.2696758813577
 30
0.0
 11
174.7018786262364
 21
315.2696758813578
 31
0.0
  0
LINE
  5
3C01
330
1F
100
AcDbEntity
  8
AM_4
100
AcDbLine
 10
181.1603786262648
 20
307.2696758813226
 30
0.0
 11
181.1603786262649
 21
305.8582992489941
 31
0.0
  0
LINE
  5
3C02
330
1F
100
AcDbEntity
  8
0
 62
     0
100
AcDbLine
 10
181.7018786262672
 20
307.2696758813226
 30
0.0
 11
181.7018786262672
 21
306.1709344197617
 31
0.0
  0
LINE
  5
3C03
330
1F
100
AcDbEntity
  8
0
 62
     0
100
AcDbLine
 10
181.1603786262649
 20
306.1709344197983
 30
0.0
 11
181.7018786262672
 21
306.1709344197617
 31
0.0
  0
LINE
  5
3C04
330
1F
100
AcDbEntity
  8
AM_0
100
AcDbLine
 10
181.1603786262649
 20
306.1709344197983
 30
0.0
 11
174.7018786262364
 21
306.1709344202351
 31
0.0
  0
LINE
  5
3C05
330
1F
100
AcDbEntity
  8
0
 62
     0
100
AcDbLine
 10
168.2433786265784
 20
306.1709344206724
 30
0.0
 11
167.7018786265761
 21
306.170934420709
 31
0.0
  0
LINE
  5
3C06
330
1F
100
AcDbEntity
  8
AM_4
100
AcDbLine
 10
168.243378626727
 20
307.2696758821964
 30
0.0
 11
168.243378626536
 21
305.8582992498679
 31
0.0
  0
LINE
  5
3C07
330
1F
100
AcDbEntity
  8
0
 62
     0
100
AcDbLine
 10
167.7018786267246
 20
307.2696758822697
 30
0.0
 11
167.7018786265759
 21
306.1709344207088
 31
0.0
  0
LINE
  5
3C08
330
1F
100
AcDbEntity
  8
0
 62
     0
100
AcDbLine
 10
168.2433786265782
 20
306.1709344206722
 30
0.0
 11
167.7018786265759
 21
306.1709344207088
 31
0.0
  0
LINE
  5
3C09
330
1F
100
AcDbEntity
  8
AM_0
100
AcDbLine
 10
168.2433786265782
 20
306.1709344206722
 30
0.0
 11
174.7018786266068
 21
306.1709344202351
 31
0.0
  0
LINE
  5
3C0A
330
1F
100
AcDbEntity
  8
0
 62
     0
100
AcDbLine
 10
168.7018786257021
 20
305.5935841513817
 30
0.0
 11
167.7018786257758
 21
306.1709344207092
 31
0.0
  0
LINE
  5
3C0C
330
1F
100
AcDbEntity
  8
AM_0
100
AcDbLine
 10
177.701878626606
 20
315.2696758813578
 30
0.0
 11
177.701878626606
 21
315.2696758813578
 31
0.0
  0
LINE
  5
3C0D
330
1F
100
AcDbEntity
  8
0
 62
     0
100
AcDbLine
 10
165.4518786271202
 20
314.8366631795069
 30
0.0
 11
166.2018786270484
 21
315.2696758813577
 31
0.0
  0
LINE
  5
3C0E
330
1F
100
AcDbEntity
  8
0
 62
     0
100
AcDbLine
 10
174.7018786262356
 20
315.2696758813578
 30
0.0
 11
166.2018786270484
 21
315.2696758813577
 31
0.0
  0
LINE
  5
3C0F
330
1F
100
AcDbEntity
  8
0
 62
     0
100
AcDbLine
 10
165.4512882221065
 20
309.491363791145
 30
0.0
 11
166.2011809610295
 21
309.0581653608996
 31
0.0
  0
LINE
  5
3C10
330
1F
100
AcDbEntity
  8
0
 62
     0
100
AcDbLine
 10
166.7018786265623
 20
308.7696758816185
 30
0.0
 11
165.4518786266818
 21
309.4913637180365
 31
0.0
  0
LINE
  5
3C11
330
1F
100
AcDbEntity
  8
0
 62
     0
100
AcDbLine
 10
166.7018786265623
 20
308.7696758816185
 30
0.0
 11
166.7018786270007
 21
307.2696758821227
 31
0.0
  0
LINE
  5
3C12
330
1F
100
AcDbEntity
  8
0
 62
     0
100
AcDbLine
 10
166.7018786270007
 20
307.2696758821227
 30
0.0
 11
174.7018786262356
 21
307.2696758813224
 31
0.0
  0
LINE
  5
3C13
330
1F
100
AcDbEntity
  8
0
 62
     0
100
AcDbLine
 10
165.4518786271202
 20
314.8366631795069
 30
0.0
 11
165.4518786257632
 21
309.4913637192982
 31
0.0
  0
LINE
  5
3C14
330
1F
100
AcDbEntity
  8
0
 62
     0
100
AcDbLine
 10
183.2018786262727
 20
315.2696758813577
 30
0.0
 11
183.9518786262761
 21
314.8366631794635
 31
0.0
  0
LINE
  5
3C15
330
1F
100
AcDbEntity
  8
0
 62
     0
100
AcDbLine
 10
182.7018786258323
 20
308.7696758810262
 30
0.0
 11
183.9518786258378
 21
309.4913637175164
 31
0.0
  0
LINE
  5
3C16
330
1F
100
AcDbEntity
  8
0
 62
     0
100
AcDbLine
 10
182.7018786262707
 20
307.2696758813226
 30
0.0
 11
174.7018786262356
 21
307.2696758813224
 31
0.0
  0
LINE
  5
3C17
330
1F
100
AcDbEntity
  8
0
 62
     0
100
AcDbLine
 10
182.7018786263453
 20
308.7696758813224
 30
0.0
 11
182.7018786262707
 21
307.2696758813226
 31
0.0
  0
LINE
  5
3C18
330
1F
100
AcDbEntity
  8
0
 62
     0
100
AcDbLine
 10
183.9518786262761
 20
314.8366631794635
 30
0.0
 11
183.9518786262761
 21
309.4913637177695
 31
0.0
  0
LINE
  5
3C19
330
1F
100
AcDbEntity
  8
0
 62
     0
100
AcDbLine
 10
183.2018786262729
 20
315.2696758813577
 30
0.0
 11
174.7018786262356
 21
315.2696758813578
 31
0.0
  0
LINE
  5
3C1A
330
1F
100
AcDbEntity
  8
AM_0
100
AcDbLine
 10
180.1743104905719
 20
314.8366631794724
 30
0.0
 11
180.1743104901335
 21
309.4913637175075
 31
0.0
  0
LINE
  5
3C1B
330
1F
100
AcDbEntity
  8
AM_0
100
AcDbLine
 10
178.479446761901
 20
314.8366631794724
 30
0.0
 11
178.4794467619009
 21
309.4913637175076
 31
0.0
  0
LINE
  5
3C1C
330
1F
100
AcDbEntity
  8
AM_0
100
AcDbLine
 10
169.2294467618993
 20
314.8366631784182
 30
0.0
 11
169.2294467608697
 21
309.4913637185617
 31
0.0
  0
LINE
  5
3C1D
330
1F
100
AcDbEntity
  8
AM_0
100
AcDbLine
 10
170.9243104905702
 20
314.8366631787447
 30
0.0
 11
170.9243104869059
 21
309.4913637182352
 31
0.0
  0
ARC
  5
3C1E
330
1F
100
AcDbEntity
  8
AM_0
100
AcDbCircle
 10
174.7018786261974
 20
298.5755685756649
 30
0.0
 40
16.69410730569285
100
AcDbArc
 50
76.92175184739949
 51
103.0782481523327
  0
ARC
  5
3C1F
330
1F
100
AcDbEntity
  8
AM_0
100
AcDbCircle
 10
182.0630945584149
 20
310.9337692918022
 30
0.0
 40
4.335906589555475
100
AcDbArc
 50
64.17559387687216
 51
115.8244061228554
  0
LINE
  5
3C20
330
1F
100
AcDbEntity
  8
AM_0
100
AcDbLine
 10
180.1743104905719
 20
314.8366631794724
 30
0.0
 11
178.479446761901
 21
314.8366631794724
 31
0.0
  0
ARC
  5
3C21
330
1F
100
AcDbEntity
  8
AM_0
100
AcDbCircle
 10
167.3406626948149
 20
310.9337692903842
 30
0.0
 40
4.335906589555475
100
AcDbArc
 50
64.17559388818007
 51
115.8244061341663
  0
LINE
  5
3C22
330
1F
100
AcDbEntity
  8
AM_0
100
AcDbLine
 10
169.229446761906
 20
314.8366631784182
 30
0.0
 11
170.9243104905769
 21
314.8366631787447
 31
0.0
  0
ARC
  5
3C23
330
1F
100
AcDbEntity
  8
AM_0
100
AcDbCircle
 10
174.7018786257591
 20
325.752458321315
 30
0.0
 40
16.69410730569285
100
AcDbArc
 50
256.9217518476673
 51
283.0782481526005
  0
ARC
  5
3C24
330
1F
100
AcDbEntity
  8
AM_0
100
AcDbCircle
 10
182.0630945579765
 20
313.3942576051776
 30
0.0
 40
4.335906589555475
100
AcDbArc
 50
244.1755938771402
 51
295.8244061231308
  0
LINE
  5
3C25
330
1F
100
AcDbEntity
  8
AM_0
100
AcDbLine
 10
180.1743104901336
 20
309.4913637175075
 30
0.0
 11
178.4794467614626
 21
309.4913637175076
 31
0.0
  0
ARC
  5
3C26
330
1F
100
AcDbEntity
  8
AM_0
100
AcDbCircle
 10
167.3406626943765
 20
313.3942576065956
 30
0.0
 40
4.335906589555475
100
AcDbArc
 50
244.1755938658337
 51
295.8244061118199
  0
LINE
  5
3C27
330
1F
100
AcDbEntity
  8
AM_0
100
AcDbLine
 10
169.2294467614676
 20
309.4913637185617
 30
0.0
 11
170.9243104901386
 21
309.4913637182352
 31
0.0
  0
LINE
  5
3C28
330
1F
100
AcDbEntity
  8
AM_0
100
AcDbLine
 10
182.7018786258323
 20
308.7696758810262
 30
0.0
 11
166.7018786265623
 21
308.7696758816185
 31
0.0
  0
LINE
  5
3C29
330
1F
100
AcDbEntity
  8
0
100
AcDbLine
 10
182.7018786262707
 20
308.7696758813224
 30
0.0
 11
166.7018786270007
 21
308.7696758813224
 31
0.0
  0
LINE
  5
3CC3
330
1F
100
AcDbEntity
  8
AM_7
100
AcDbLine
 10
224.0578480371319
 20
337.1826757579178
 30
0.0
 11
224.0578480371319
 21
278.2818025890471
 31
0.0
1001
GENIUS_GENOBJ-N-CEN_13
1002
{
1000
OWNER
1000
GEN
1002
}
1001
GENIUS_GENODEF_13
1002
{
1000
HIER
1070
     0
1002
}
1002
{
1000
MANEDIT
1070
     0
1002
}
1002
{
1000
NOSEL
1070
     0
1002
}
1002
{
1000
BEHIND
1070
     0
1002
}
1002
{
1000
OTHER
1070
     0
1002
}
1002
{
1000
REACTOR
1002
}
  0
LINE
  5
3CC7
330
1F
100
AcDbEntity
  8
0
 62
     0
100
AcDbLine
 10
230.5163480371603
 20
306.1709344197981
 30
0.0
 11
231.0578480371626
 21
306.1709344197615
 31
0.0
  0
ARC
  5
3CC8
330
1F
100
AcDbEntity
  8
0
 62
     0
100
AcDbCircle
 10
217.5578480377536
 20
304.7275587478353
 30
0.0
 40
0.9999999999043879
100
AcDbArc
 50
0.0
 51
59.99999999999947
  0
LINE
  5
3CC9
330
1F
100
AcDbEntity
  8
0
 62
     0
100
AcDbLine
 10
230.0578480371582
 20
305.5935841505693
 30
0.0
 11
231.0578480371626
 21
306.1709344197615
 31
0.0
  0
ARC
  5
3CCA
330
1F
100
AcDbEntity
  8
0
 62
     0
100
AcDbCircle
 10
230.5578480371604
 20
304.727558746781
 30
0.0
 40
1.000000000004388
100
AcDbArc
 50
120.0000000000005
 51
180.0
  0
LINE
  5
3CCB
330
1F
100
AcDbEntity
  8
AM_0
100
AcDbLine
 10
221.057848037132
 20
320.4009823325081
 30
0.0
 11
221.0578480371321
 21
315.2696758813573
 31
0.0
  0
LINE
  5
3CCC
330
1F
100
AcDbEntity
  8
AM_0
100
AcDbLine
 10
227.0578480371319
 20
320.4009823325081
 30
0.0
 11
227.057848037132
 21
315.2696758813573
 31
0.0
  0
ARC
  5
3CCD
330
1F
100
AcDbEntity
  8
AM_0
100
AcDbCircle
 10
224.0578480371318
 20
329.7204674587639
 30
0.0
 40
3.182186574793173
100
AcDbArc
 50
21.77582284696155
 51
158.2241771530348
  0
LINE
  5
3CCE
330
1F
100
AcDbEntity
  8
AM_0
100
AcDbLine
 10
227.0129615763486
 20
330.9009823325084
 30
0.0
 11
227.0129615763486
 21
321.9009823325084
 31
0.0
  0
LINE
  5
3CCF
330
1F
100
AcDbEntity
  8
AM_0
100
AcDbLine
 10
221.1027344979151
 20
330.9009823325082
 30
0.0
 11
221.1027344979152
 21
321.9009823325084
 31
0.0
  0
ARC
  5
3CD0
330
1F
100
AcDbEntity
  8
AM_0
100
AcDbCircle
 10
213.5578480371318
 20
330.9009823325084
 30
0.0
 40
2.0
100
AcDbArc
 50
90.0
 51
180.0
1001
GENIUS_GENODEF_13
1002
{
1000
HIER
1070
     0
1002
}
1002
{
1000
MANEDIT
1070
     0
1002
}
1002
{
1000
NOSEL
1070
     0
1002
}
1002
{
1000
BEHIND
1070
     0
1002
}
1002
{
1000
REACTOR
1002
}
1001
GENIUS_GENOBJ-N-FIL_13
1002
{
1000
OWNER
1000
GEN
1002
}
  0
LINE
  5
3CD1
330
1F
100
AcDbEntity
  8
AM_0
100
AcDbLine
 10
213.5578480371318
 20
332.9009823325084
 30
0.0
 11
224.0578480371319
 21
332.9009823325084
 31
0.0
  0
LINE
  5
3CD2
330
1F
100
AcDbEntity
  8
AM_0
100
AcDbLine
 10
213.5578480371314
 20
320.9009823325081
 30
0.0
 11
224.0578480371319
 21
320.9009823325081
 31
0.0
  0
LINE
  5
3CD3
330
1F
100
AcDbEntity
  8
AM_0
100
AcDbLine
 10
212.057848037132
 20
321.9009823325081
 30
0.0
 11
224.0578480371319
 21
321.9009823325084
 31
0.0
  0
LINE
  5
3CD4
330
1F
100
AcDbEntity
  8
AM_0
100
AcDbLine
 10
213.5578480371314
 20
321.9009823325081
 30
0.0
 11
213.5578480371314
 21
320.9009823325081
 31
0.0
  0
LINE
  5
3CD5
330
1F
100
AcDbEntity
  8
AM_0
100
AcDbLine
 10
211.5578480371318
 20
330.9009823325084
 30
0.0
 11
211.557848037132
 21
322.4009823325081
 31
0.0
  0
LINE
  5
3CD6
330
1F
100
AcDbEntity
  8
AM_0
100
AcDbLine
 10
214.0578480371319
 20
334.9009823325084
 30
0.0
 11
234.0578480371324
 21
334.9009823325084
 31
0.0
  0
LINE
  5
3CD7
330
1F
100
AcDbEntity
  8
AM_0
100
AcDbLine
 10
213.5578480371318
 20
332.9009823325084
 30
0.0
 11
213.5578480371318
 21
334.4009823325084
 31
0.0
  0
LINE
  5
3CD8
330
1F
100
AcDbEntity
  8
AM_0
100
AcDbLine
 10
221.5578480371319
 20
320.9009823325081
 30
0.0
 11
221.0578480371319
 21
320.4009823325081
 31
0.0
1001
GENIUS_GENFIL_13
1070
     0
1040
0.5
1040
0.5
1040
0.5
1040
45.0000000000002
1000
~T
1001
GENIUS_GENOREF_13
1005
3D25
  0
LINE
  5
3CD9
330
1F
100
AcDbEntity
  8
AM_0
100
AcDbLine
 10
221.0578480371319
 20
320.4009823325081
 30
0.0
 11
227.057848037132
 21
320.4009823325081
 31
0.0
  0
ARC
  5
3CDA
330
1F
100
AcDbEntity
  8
AM_0
100
AcDbCircle
 10
234.5578480371326
 20
330.900982332509
 30
0.0
 40
2.0
100
AcDbArc
 50
0.0000000000032569
 51
90.00000000000325
1001
GENIUS_GENODEF_13
1002
{
1000
HIER
1070
     0
1002
}
1002
{
1000
MANEDIT
1070
     0
1002
}
1002
{
1000
NOSEL
1070
     0
1002
}
1002
{
1000
BEHIND
1070
     0
1002
}
1002
{
1000
REACTOR
1002
}
1001
GENIUS_GENOBJ-N-FIL_13
1002
{
1000
OWNER
1000
GEN
1002
}
  0
LINE
  5
3CDB
330
1F
100
AcDbEntity
  8
AM_0
100
AcDbLine
 10
234.5578480371325
 20
332.900982332509
 30
0.0
 11
224.0578480371324
 21
332.9009823325084
 31
0.0
  0
LINE
  5
3CDC
330
1F
100
AcDbEntity
  8
AM_0
100
AcDbLine
 10
234.5578480371336
 20
320.9009823325086
 30
0.0
 11
224.0578480371331
 21
320.9009823325081
 31
0.0
  0
LINE
  5
3CDD
330
1F
100
AcDbEntity
  8
AM_0
100
AcDbLine
 10
236.057848037133
 20
321.9009823325088
 30
0.0
 11
224.057848037133
 21
321.9009823325084
 31
0.0
  0
LINE
  5
3CDE
330
1F
100
AcDbEntity
  8
AM_0
100
AcDbLine
 10
234.5578480371335
 20
321.9009823325087
 30
0.0
 11
234.5578480371336
 21
320.9009823325086
 31
0.0
  0
LINE
  5
3CDF
330
1F
100
AcDbEntity
  8
AM_0
100
AcDbLine
 10
236.5578480371326
 20
330.9009823325091
 30
0.0
 11
236.557848037133
 21
322.4009823325088
 31
0.0
  0
LINE
  5
3CE0
330
1F
100
AcDbEntity
  8
AM_0
100
AcDbLine
 10
234.5578480371325
 20
332.900982332509
 30
0.0
 11
234.5578480371324
 21
334.4009823325084
 31
0.0
  0
LINE
  5
3CE1
330
1F
100
AcDbEntity
  8
AM_0
100
AcDbLine
 10
226.5578480371331
 20
320.9009823325083
 30
0.0
 11
227.0578480371331
 21
320.4009823325083
 31
0.0
1001
GENIUS_GENFIL_13
1070
     0
1040
0.5
1040
0.5
1040
0.5
1040
45.0000000000002
1000
~T
1001
GENIUS_GENOREF_13
1005
3D24
  0
LINE
  5
3CE2
330
1F
100
AcDbEntity
  8
AM_0
100
AcDbLine
 10
227.0578480371331
 20
320.4009823325083
 30
0.0
 11
221.0578480371331
 21
320.4009823325078
 31
0.0
  0
LINE
  5
3CE3
330
1F
100
AcDbEntity
  8
AM_4
100
AcDbLine
 10
230.5163480371604
 20
307.2696758813221
 30
0.0
 11
230.5163480371604
 21
305.8582992489937
 31
0.0
  0
LINE
  5
3CE4
330
1F
100
AcDbEntity
  8
0
 62
     0
100
AcDbLine
 10
231.0578480371627
 20
307.2696758813222
 30
0.0
 11
231.0578480371628
 21
306.1709344197613
 31
0.0
  0
LINE
  5
3CE5
330
1F
100
AcDbEntity
  8
0
 62
     0
100
AcDbLine
 10
230.5163480371604
 20
306.1709344197979
 30
0.0
 11
231.0578480371628
 21
306.1709344197613
 31
0.0
  0
LINE
  5
3CE6
330
1F
100
AcDbEntity
  8
AM_0
100
AcDbLine
 10
230.5163480371604
 20
306.1709344197979
 30
0.0
 11
224.0578480371319
 21
306.1709344202347
 31
0.0
  0
LINE
  5
3CE7
330
1F
100
AcDbEntity
  8
0
 62
     0
100
AcDbLine
 10
217.5993480374739
 20
306.170934420672
 30
0.0
 11
217.0578480374716
 21
306.1709344207086
 31
0.0
  0
LINE
  5
3CE8
330
1F
100
AcDbEntity
  8
AM_4
100
AcDbLine
 10
217.5993480376225
 20
307.269675882196
 30
0.0
 11
217.5993480374315
 21
305.8582992498675
 31
0.0
  0
LINE
  5
3CE9
330
1F
100
AcDbEntity
  8
0
 62
     0
100
AcDbLine
 10
217.0578480376201
 20
307.2696758822693
 30
0.0
 11
217.0578480374715
 21
306.1709344207084
 31
0.0
  0
LINE
  5
3CEA
330
1F
100
AcDbEntity
  8
0
 62
     0
100
AcDbLine
 10
217.5993480374738
 20
306.1709344206717
 30
0.0
 11
217.0578480374715
 21
306.1709344207084
 31
0.0
  0
LINE
  5
3CEB
330
1F
100
AcDbEntity
  8
AM_0
100
AcDbLine
 10
217.5993480374738
 20
306.1709344206717
 30
0.0
 11
224.0578480375023
 21
306.1709344202347
 31
0.0
  0
LINE
  5
3CEC
330
1F
100
AcDbEntity
  8
0
 62
     0
100
AcDbLine
 10
218.0578480365977
 20
305.5935841513813
 30
0.0
 11
217.0578480366714
 21
306.1709344207088
 31
0.0
  0
LINE
  5
3CED
330
1F
100
AcDbEntity
  8
AM_0
100
AcDbLine
 10
218.5578480376579
 20
304.7275587478062
 30
0.0
 11
229.557848037156
 21
304.727558746781
 31
0.0
  0
LINE
  5
3CEE
330
1F
100
AcDbEntity
  8
AM_0
100
AcDbLine
 10
219.3608226011221
 20
330.9009823325084
 30
0.0
 11
219.3608226011221
 21
321.9009823325083
 31
0.0
  0
LINE
  5
3CEF
330
1F
100
AcDbEntity
  8
AM_0
100
AcDbLine
 10
214.5793484540545
 20
330.9009823325084
 30
0.0
 11
214.5793484540545
 21
321.9009823325081
 31
0.0
  0
LINE
  5
3CF0
330
1F
100
AcDbEntity
  8
AM_0
100
AcDbLine
 10
219.3608226011221
 20
332.9009823325084
 30
0.0
 11
214.5793484540545
 21
332.9009823325084
 31
0.0
  0
ARC
  5
3CF1
330
1F
100
AcDbEntity
  8
AM_0
100
AcDbCircle
 10
216.9700855275883
 20
330.4720763938162
 30
0.0
 40
2.428905938692222
100
AcDbArc
 50
10.17085060932878
 51
169.8291493906712
  0
LINE
  5
3CF2
330
1F
100
AcDbEntity
  8
AM_0
100
AcDbLine
 10
228.7548734731418
 20
330.9009823325084
 30
0.0
 11
228.7548734731418
 21
321.9009823325083
 31
0.0
  0
LINE
  5
3CF3
330
1F
100
AcDbEntity
  8
AM_0
100
AcDbLine
 10
233.5363476202094
 20
330.9009823325084
 30
0.0
 11
233.5363476202094
 21
321.9009823325081
 31
0.0
  0
ARC
  5
3CF4
330
1F
100
AcDbEntity
  8
AM_0
100
AcDbCircle
 10
231.1456105466755
 20
330.4720763938162
 30
0.0
 40
2.428905938692222
100
AcDbArc
 50
10.17085060933198
 51
169.829149390668
  0
LINE
  5
3D09
330
1F
100
AcDbEntity
  8
0
 62
     0
100
AcDbLine
 10
224.0578480371319
 20
315.2696758813576
 30
0.0
 11
216.057848037897
 21
315.2696758813575
 31
0.0
  0
LINE
  5
3D0A
330
1F
100
AcDbEntity
  8
0
 62
     0
100
AcDbLine
 10
216.057848037897
 20
308.7696758813222
 30
0.0
 11
216.057848037897
 21
307.2696758821225
 31
0.0
  0
LINE
  5
3D0B
330
1F
100
AcDbEntity
  8
0
 62
     0
100
AcDbLine
 10
216.057848037897
 20
307.2696758821225
 30
0.0
 11
224.0578480371319
 21
307.2696758813222
 31
0.0
  0
LINE
  5
3D0C
330
1F
100
AcDbEntity
  8
0
 62
     0
100
AcDbLine
 10
232.0578480371671
 20
307.2696758813224
 30
0.0
 11
224.0578480371319
 21
307.2696758813222
 31
0.0
  0
LINE
  5
3D0D
330
1F
100
AcDbEntity
  8
0
 62
     0
100
AcDbLine
 10
232.0578480371671
 20
308.7696758817841
 30
0.0
 11
232.0578480371671
 21
307.2696758813224
 31
0.0
  0
LINE
  5
3D0E
330
1F
100
AcDbEntity
  8
0
 62
     0
100
AcDbLine
 10
232.0578480363669
 20
315.2696758813575
 30
0.0
 11
224.0578480371319
 21
315.2696758813576
 31
0.0
  0
LINE
  5
3D0F
330
1F
100
AcDbEntity
  8
AM_0
100
AcDbLine
 10
232.0578480371671
 20
308.7696758807298
 30
0.0
 11
216.057848037897
 21
308.7696758813222
 31
0.0
  0
LINE
  5
3D10
330
1F
100
AcDbEntity
  8
AM_0
100
AcDbLine
 10
215.5578480371319
 20
314.8366631795067
 30
0.0
 11
216.057848037897
 21
315.2696758813575
 31
0.0
  0
ARC
  5
3D11
330
1F
100
AcDbEntity
  8
AM_0
100
AcDbCircle
 10
219.8078480371024
 20
302.6949688140412
 30
0.0
 40
12.57470706731631
100
AcDbArc
 50
74.92028252247369
 51
105.0797174772498
  0
LINE
  5
3D12
330
1F
100
AcDbEntity
  8
AM_0
100
AcDbLine
 10
223.0793180071441
 20
314.8366631794883
 30
0.0
 11
225.0363780671198
 21
314.8366631794883
 31
0.0
  0
LINE
  5
3D13
330
1F
100
AcDbEntity
  8
AM_0
100
AcDbLine
 10
223.0793180071438
 20
309.4913637170964
 30
0.0
 11
223.0793180071441
 21
314.8366631794883
 31
0.0
  0
LINE
  5
3D14
330
1F
100
AcDbEntity
  8
AM_0
100
AcDbLine
 10
225.036378067339
 20
309.4913637170965
 30
0.0
 11
225.036378067339
 21
314.8366631794883
 31
0.0
  0
LINE
  5
3D15
330
1F
100
AcDbEntity
  8
AM_0
100
AcDbLine
 10
216.5363780671199
 20
314.8366631795043
 30
0.0
 11
215.5578480371319
 21
314.8366631795043
 31
0.0
  0
LINE
  5
3D16
330
1F
100
AcDbEntity
  8
AM_0
100
AcDbLine
 10
216.5363780671199
 20
314.8366631795043
 30
0.0
 11
216.5363780671199
 21
309.4913637170805
 31
0.0
  0
LINE
  5
3D17
330
1F
100
AcDbEntity
  8
AM_0
100
AcDbLine
 10
215.5578480371319
 20
314.8366631795043
 30
0.0
 11
215.5578480371319
 21
309.2026885828769
 31
0.0
  0
ARC
  5
3D18
330
1F
100
AcDbEntity
  8
AM_0
100
AcDbCircle
 10
219.8078480371024
 20
321.6330580825436
 30
0.0
 40
12.57470706731631
100
AcDbArc
 50
254.9202825227502
 51
285.0797174775263
  0
LINE
  5
3D19
330
1F
100
AcDbEntity
  8
AM_0
100
AcDbLine
 10
216.5363780671199
 20
309.4913637170805
 30
0.0
 11
215.5578480371319
 21
309.4913637170805
 31
0.0
  0
LINE
  5
3D1A
330
1F
100
AcDbEntity
  8
AM_0
100
AcDbLine
 10
223.079318007144
 20
309.4913637170965
 30
0.0
 11
225.036378067339
 21
309.4913637170965
 31
0.0
  0
ARC
  5
3D1B
330
1F
100
AcDbEntity
  8
AM_0
100
AcDbCircle
 10
228.3078480362306
 20
302.6949688137265
 30
0.0
 40
12.57470706731631
100
AcDbArc
 50
74.92028251850689
 51
105.079717473283
  0
LINE
  5
3D1C
330
1F
100
AcDbEntity
  8
AM_0
100
AcDbLine
 10
231.579318007112
 20
314.8366631789475
 30
0.0
 11
232.5578480370999
 21
314.836663178875
 31
0.0
  0
LINE
  5
3D1D
330
1F
100
AcDbEntity
  8
AM_0
100
AcDbLine
 10
231.5793180071119
 20
314.8366631789475
 30
0.0
 11
231.5793180069355
 21
309.4913637165237
 31
0.0
  0
ARC
  5
3D1E
330
1F
100
AcDbEntity
  8
AM_0
100
AcDbCircle
 10
228.3078480376754
 20
321.633058082229
 30
0.0
 40
12.57470706731631
100
AcDbArc
 50
254.9202825182303
 51
285.0797174730065
  0
LINE
  5
3D1F
330
1F
100
AcDbEntity
  8
AM_0
100
AcDbLine
 10
231.579318006759
 20
309.4913637165237
 30
0.0
 11
232.5578480367469
 21
309.4913637164513
 31
0.0
  0
LINE
  5
3D20
330
1F
100
AcDbEntity
  8
AM_0
100
AcDbLine
 10
232.5578480371319
 20
314.8366631795067
 30
0.0
 11
232.0578480363669
 21
315.2696758813575
 31
0.0
  0
LINE
  5
3D21
330
1F
100
AcDbEntity
  8
AM_0
100
AcDbLine
 10
232.5578480371319
 20
314.8366631795043
 30
0.0
 11
232.5578480371319
 21
309.2026885828769
 31
0.0
  0
LINE
  5
3D22
330
1F
100
AcDbEntity
  8
AM_0
100
AcDbLine
 10
215.5578480371319
 20
309.2026885828769
 30
0.0
 11
216.057848037897
 21
308.7696758810261
 31
0.0
  0
LINE
  5
3D23
330
1F
100
AcDbEntity
  8
AM_0
100
AcDbLine
 10
232.5578480371319
 20
309.2026885828769
 30
0.0
 11
232.0578480363668
 21
308.7696758810261
 31
0.0
  0
POINT
  5
3D24
330
1F
100
AcDbEntity
  8
0
 60
     1
100
AcDbPoint
 10
-57.67567972795354
 20
88.80916509996982
 30
0.0
 50
180.0000000000031
1001
GENIUS_GENOENT_13
1002
{
1000
MYREF
1005
3D24
1002
}
1002
{
1000
GRP
1005
0
1002
}
1001
GENIUS_GENOBJ-N-CHA_13
1002
{
1000
OWNER
1000
GEN
1002
}
1001
GENIUS_GENODEF_13
1002
{
1000
HIER
1070
     1
1002
}
1002
{
1000
MANEDIT
1070
     0
1002
}
1002
{
1000
NOSEL
1070
     0
1002
}
1002
{
1000
BEHIND
1070
     0
1002
}
1002
{
1000
OTHER
1070
     0
1002
}
1002
{
1000
REACTOR
1002
}
1001
GENIUS_GENOLIS_13
1002
{
1000
ENT
1005
3CE1
1002
}
  0
POINT
  5
3D25
330
1F
100
AcDbEntity
  8
0
 60
     1
100
AcDbPoint
 10
512.0865180277389
 20
88.8091650999854
 30
0.0
1001
GENIUS_GENOENT_13
1002
{
1000
MYREF
1005
3D25
1002
}
1002
{
1000
GRP
1005
0
1002
}
1001
GENIUS_GENOBJ-N-CHA_13
1002
{
1000
OWNER
1000
GEN
1002
}
1001
GENIUS_GENODEF_13
1002
{
1000
HIER
1070
     1
1002
}
1002
{
1000
MANEDIT
1070
     0
1002
}
1002
{
1000
NOSEL
1070
     0
1002
}
1002
{
1000
BEHIND
1070
     0
1002
}
1002
{
1000
OTHER
1070
     0
1002
}
1002
{
1000
REACTOR
1002
}
1001
GENIUS_GENOLIS_13
1002
{
1000
ENT
1005
3CD8
1002
}
  0
LINE
  5
3D28
330
1F
100
AcDbEntity
  8
AM_0
100
AcDbLine
 10
188.5859228757918
 20
296.5888191315897
 30
0.0
 11
188.5859228757914
 21
284.9505326307
 31
0.0
  0
LINE
  5
3D29
330
1F
100
AcDbEntity
  8
AM_0
100
AcDbLine
 10
195.6130909724736
 20
296.3692201285684
 30
0.0
 11
195.6130909724734
 21
285.1701316337215
 31
0.0
  0
ARC
  5
3D2C
330
1F
100
AcDbEntity
  8
AM_0
100
AcDbCircle
 10
184.4573468009656
 20
331.1467142637853
 30
0.0
 40
1.754268068723236
100
AcDbArc
 50
8.05227959730783
 51
171.9477204026953
  0
ARC
  5
3D2D
330
1F
100
AcDbEntity
  8
AM_0
100
AcDbCircle
 10
178.4281358928151
 20
329.9262828919625
 30
0.0
 40
2.97469944054606
100
AcDbArc
 50
19.12700048611873
 51
160.8729995138812
  0
LINE
  5
3D2E
330
1F
100
AcDbEntity
  8
AM_0
100
AcDbLine
 10
186.194318958167
 20
331.392446195062
 30
0.0
 11
186.194318958167
 21
321.9009823325085
 31
0.0
  0
LINE
  5
3D2F
330
1F
100
AcDbEntity
  8
AM_0
100
AcDbLine
 10
175.617655904951
 20
330.9009823325085
 30
0.0
 11
175.617655904951
 21
321.9009823325085
 31
0.0
  0
LINE
  5
3D30
330
1F
100
AcDbEntity
  8
AM_0
100
AcDbLine
 10
181.2386158806791
 20
330.9009823325084
 30
0.0
 11
181.2386158806791
 21
321.9009823325085
 31
0.0
  0
LINE
  5
3D31
330
1F
100
AcDbEntity
  8
AM_0
100
AcDbLine
 10
182.7203746437642
 20
331.3924461950626
 30
0.0
 11
182.7203746437641
 21
321.9009823325085
 31
0.0
  0
ARC
  5
3D32
330
1F
100
AcDbEntity
  8
AM_0
100
AcDbCircle
 10
185.2018786262363
 20
330.9009823325085
 30
0.0
 40
2.0
100
AcDbArc
 50
0.000000000000007
 51
90.0
1001
GENIUS_GENODEF_13
1002
{
1000
HIER
1070
     0
1002
}
1002
{
1000
MANEDIT
1070
     0
1002
}
1002
{
1000
NOSEL
1070
     0
1002
}
1002
{
1000
BEHIND
1070
     0
1002
}
1002
{
1000
REACTOR
1002
}
1001
GENIUS_GENOBJ-N-FIL_13
1002
{
1000
OWNER
1000
GEN
1002
}
  0
LINE
  5
3D33
330
1F
100
AcDbEntity
  8
AM_0
100
AcDbLine
 10
185.2018786262363
 20
332.9009823325085
 30
0.0
 11
174.7018786262363
 21
332.9009823325085
 31
0.0
  0
LINE
  5
3D34
330
1F
100
AcDbEntity
  8
AM_0
100
AcDbLine
 10
185.2018786262367
 20
320.9009823325083
 30
0.0
 11
174.7018786262363
 21
320.9009823325083
 31
0.0
  0
LINE
  5
3D35
330
1F
100
AcDbEntity
  8
AM_0
100
AcDbLine
 10
186.7018786262362
 20
321.9009823325082
 30
0.0
 11
174.7018786262363
 21
321.9009823325085
 31
0.0
  0
LINE
  5
3D36
330
1F
100
AcDbEntity
  8
AM_0
100
AcDbLine
 10
185.2018786262367
 20
321.9009823325083
 30
0.0
 11
185.2018786262367
 21
320.9009823325083
 31
0.0
  0
LINE
  5
3D37
330
1F
100
AcDbEntity
  8
AM_0
100
AcDbLine
 10
187.2018786262363
 20
330.9009823325085
 30
0.0
 11
187.2018786262362
 21
322.4009823325082
 31
0.0
  0
ARC
  5
3D38
330
1F
100
AcDbEntity
  8
AM_0
100
AcDbCircle
 10
186.7018786262362
 20
322.4009823325082
 30
0.0
 40
0.5
100
AcDbArc
 50
270.0
 51
359.9999999999992
  0
LINE
  5
3D39
330
1F
100
AcDbEntity
  8
AM_0
100
AcDbLine
 10
184.7018786262363
 20
334.9009823325086
 30
0.0
 11
174.7018786262363
 21
334.9009823325086
 31
0.0
  0
LINE
  5
3D3A
330
1F
100
AcDbEntity
  8
AM_0
100
AcDbLine
 10
185.2018786262363
 20
332.9009823325085
 30
0.0
 11
185.2018786262363
 21
334.4009823325085
 31
0.0
  0
ARC
  5
3D3B
330
1F
100
AcDbEntity
  8
AM_0
100
AcDbCircle
 10
184.7018786262363
 20
334.4009823325085
 30
0.0
 40
0.5
100
AcDbArc
 50
0.000000000000007
 51
90.0
  0
LINE
  5
3D3C
330
1F
100
AcDbEntity
  8
AM_0
100
AcDbLine
 10
175.617655904951
 20
330.9009823325085
 30
0.0
 11
174.7018786262363
 21
330.9009823325085
 31
0.0
  0
LINE
  5
3D3D
330
1F
100
AcDbEntity
  8
AM_0
100
AcDbLine
 10
181.2386158806791
 20
330.9009823325086
 30
0.0
 11
182.7203746437642
 21
330.9009823325086
 31
0.0
  0
LINE
  5
3D3E
330
1F
100
AcDbEntity
  8
AM_0
100
AcDbLine
 10
186.194318958167
 20
330.9009823325086
 30
0.0
 11
187.2018786262363
 21
330.9009823325086
 31
0.0
  0
ARC
  5
3D6D
330
1F
100
AcDbEntity
  8
AM_0
100
AcDbCircle
 10
214.0578480371319
 20
334.4009823325084
 30
0.0
 40
0.5
100
AcDbArc
 50
90.0
 51
180.0
  0
ARC
  5
3D6E
330
1F
100
AcDbEntity
  8
AM_0
100
AcDbCircle
 10
234.0578480371324
 20
334.4009823325084
 30
0.0
 40
0.5
100
AcDbArc
 50
0.0000000000032569
 51
90.0
  0
ARC
  5
3D6F
330
1F
100
AcDbEntity
  8
AM_0
100
AcDbCircle
 10
236.057848037133
 20
322.4009823325088
 30
0.0
 40
0.5
100
AcDbArc
 50
270.0000000000015
 51
0.0000000000025317
  0
ARC
  5
3D70
330
1F
100
AcDbEntity
  8
AM_0
100
AcDbCircle
 10
212.057848037132
 20
322.4009823325081
 30
0.0
 40
0.5
100
AcDbArc
 50
180.0000000000007
 51
270.0000000000016
  0
LINE
  5
3D72
330
1F
100
AcDbEntity
  8
AM_0
100
AcDbLine
 10
211.5578480371318
 20
330.9009823325084
 30
0.0
 11
214.5793484540545
 21
330.9009823325081
 31
0.0
  0
LINE
  5
3D73
330
1F
100
AcDbEntity
  8
AM_0
100
AcDbLine
 10
219.3608226011221
 20
330.9009823325084
 30
0.0
 11
221.1027344979151
 21
330.9009823325082
 31
0.0
  0
LINE
  5
3D74
330
1F
100
AcDbEntity
  8
AM_0
100
AcDbLine
 10
236.557848037132
 20
330.9009823325084
 30
0.0
 11
233.5363476202094
 21
330.9009823325081
 31
0.0
  0
LINE
  5
3D75
330
1F
100
AcDbEntity
  8
AM_0
100
AcDbLine
 10
228.7548734731418
 20
330.9009823325084
 30
0.0
 11
227.0129615763487
 21
330.9009823325082
 31
0.0
  0
MTEXT
  5
3D80
330
1F
100
AcDbEntity
  8
AM_0
100
AcDbMText
 10
207.2353767003198
 20
355.8038192751583
 30
0.0
 40
1.6
 41
32.31955848564906
 71
     1
 72
     5
  1
{\fMS PGothic|b0|i0|c128|p50;チッコロ　ストレート　CF-1202}
 73
     1
 44
1.0
1001
ACAD
1000
ACAD_MTEXT_COLUMN_INFO_BEGIN
1070
    75
1070
     2
1070
    79
1070
     0
1070
    76
1070
     1
1070
    78
1070
     0
1070
    48
1040
32.31955848564906
1070
    49
1040
8.0
1070
    50
1070
     1
1040
0.0
1000
ACAD_MTEXT_COLUMN_INFO_END
1000
MTEXTBEGIN
1070
    73
1070
     1
1070
    44
1040
1.0
1070
    74
1070
     0
1000
MTEXTEND
  0
LINE
  5
4185
330
1F
100
AcDbEntity
  8
0
 62
     0
100
AcDbLine
 10
161.2018786262364
 20
285.2136758811449
 30
0.0
 11
158.9790661762364
 21
285.2136758811449
 31
0.0
  0
LINE
  5
4186
330
1F
100
AcDbEntity
  8
AM_4
100
AcDbLine
 10
158.9790661762364
 20
285.9006758811449
 30
0.0
 11
159.7018786262363
 21
285.9006758811449
 31
0.0
  0
LINE
  5
4187
330
1F
100
AcDbEntity
  8
AM_4
100
AcDbLine
 10
159.7018786262363
 20
285.9006758811449
 30
0.0
 11
161.2018786262364
 21
285.2136758811449
 31
0.0
  0
LINE
  5
4188
330
1F
100
AcDbEntity
  8
0
 62
     0
100
AcDbLine
 10
159.7018786262363
 20
285.900675881145
 30
0.0
 11
159.7018786262364
 21
285.2136758811449
 31
0.0
  0
LINE
  5
418A
330
1F
100
AcDbEntity
  8
0
 62
     0
100
AcDbLine
 10
161.2018786262364
 20
296.3256758811449
 30
0.0
 11
158.9790661762364
 21
296.3256758811449
 31
0.0
  0
LINE
  5
418B
330
1F
100
AcDbEntity
  8
AM_4
100
AcDbLine
 10
158.9790661762364
 20
295.6386758811449
 30
0.0
 11
159.7018786262363
 21
295.6386758811449
 31
0.0
  0
LINE
  5
4192
330
1F
100
AcDbEntity
  8
AM_4
100
AcDbLine
 10
159.7018786262363
 20
295.6386758811449
 30
0.0
 11
161.2018786262364
 21
296.3256758811449
 31
0.0
  0
LINE
  5
4193
330
1F
100
AcDbEntity
  8
0
 62
     0
100
AcDbLine
 10
159.7018786262363
 20
295.6386758811449
 30
0.0
 11
159.7018786262364
 21
296.3256758811449
 31
0.0
  0
LINE
  5
4196
330
1F
100
AcDbEntity
  8
0
 62
     0
100
AcDbLine
 10
161.2018786262364
 20
296.3256758811449
 30
0.0
 11
158.9790661762364
 21
296.3256758811449
 31
0.0
  0
LINE
  5
41A5
330
1F
100
AcDbEntity
  8
0
100
AcDbLine
 10
158.1201974291227
 20
281.5320715741109
 30
0.0
 11
157.2290661762366
 21
281.5320715741109
 31
0.0
  0
LINE
  5
41A6
330
1F
100
AcDbEntity
  8
0
100
AcDbLine
 10
156.7290661762366
 20
281.5320715741109
 30
0.0
 11
151.3379349233501
 21
281.5320715741109
 31
0.0
  0
LINE
  5
41A7
330
1F
100
AcDbEntity
  8
0
100
AcDbLine
 10
150.4790661762364
 20
283.0196758811449
 30
0.0
 11
151.3379349233501
 21
281.5320715741109
 31
0.0
  0
LINE
  5
41A8
330
1F
100
AcDbEntity
  8
0
100
AcDbLine
 10
158.9790661762364
 20
283.0196758811449
 30
0.0
 11
158.9790661762364
 21
290.7696758811449
 31
0.0
  0
LINE
  5
41A9
330
1F
100
AcDbEntity
  8
0
100
AcDbLine
 10
158.9790661762364
 20
283.0196758811449
 30
0.0
 11
158.1201974291227
 21
281.5320715741109
 31
0.0
  0
LINE
  5
41AA
330
1F
100
AcDbEntity
  8
AM_0
100
AcDbLine
 10
141.4790661762364
 20
290.7696758811449
 30
0.0
 11
141.4790661762364
 21
285.5196758811449
 31
0.0
  0
LINE
  5
41AB
330
1F
100
AcDbEntity
  8
AM_0
100
AcDbLine
 10
141.9671597063284
 20
284.9112106522356
 30
0.0
 11
150.4790661762364
 21
283.0196758811449
 31
0.0
  0
LINE
  5
41AC
330
1F
100
AcDbEntity
  8
AM_0
100
AcDbLine
 10
141.4790661762364
 20
285.5196758811449
 30
0.0
 11
141.9671597063284
 21
284.9112106522356
 31
0.0
1001
GENIUS_GENFIL_13
1070
     0
1040
0.5
1040
0.5
1040
0.5
1040
38.73559614542635
1000
~T
  0
ARC
  5
41AE
330
1F
100
AcDbEntity
  8
AM_0
100
AcDbCircle
 10
154.0133599076733
 20
283.8414726508694
 30
0.0
 40
3.534293731436835
100
AcDbArc
 50
139.1995560118538
 51
199.1995560118521
  0
ARC
  5
41AF
330
1F
100
AcDbEntity
  8
AM_0
100
AcDbCircle
 10
163.3279379813134
 20
290.7696758811449
 30
0.0
 40
12.84887180507694
100
AcDbArc
 50
180.0
 51
201.0677374818721
  0
LINE
  5
41B0
330
1F
100
AcDbEntity
  8
AM_0
100
AcDbLine
 10
150.4790661762364
 20
283.0196758811449
 30
0.0
 11
150.4790661762364
 21
290.7696758811449
 31
0.0
  0
ARC
  5
41B1
330
1F
100
AcDbEntity
  8
AM_0
100
AcDbCircle
 10
155.4447724447996
 20
283.8414726508694
 30
0.0
 40
3.534293731436835
100
AcDbArc
 50
340.8004439881478
 51
40.80044398814614
  0
ARC
  5
41B2
330
1F
100
AcDbEntity
  8
AM_0
100
AcDbCircle
 10
146.1301943711595
 20
290.7696758811449
 30
0.0
 40
12.84887180507694
100
AcDbArc
 50
338.9322625181279
 51
0.0
  0
LINE
  5
41B3
330
1F
100
AcDbEntity
  8
AM_0
100
AcDbLine
 10
158.1201974291226
 20
286.1508737276279
 30
0.0
 11
157.2290661762366
 21
286.1508737276279
 31
0.0
  0
LINE
  5
41B4
330
1F
100
AcDbEntity
  8
AM_0
100
AcDbLine
 10
156.7290661762366
 20
286.150873727628
 30
0.0
 11
151.3379349233501
 21
286.1508737276281
 31
0.0
  0
LINE
  5
41B5
330
1F
100
AcDbEntity
  8
AM_0
100
AcDbLine
 10
141.9671597063284
 20
284.9112106522356
 30
0.0
 11
141.9671597063284
 21
290.7696758811449
 31
0.0
  0
LINE
  5
41BA
330
1F
100
AcDbEntity
  8
0
100
AcDbLine
 10
157.2290661762366
 20
281.5320715741109
 30
0.0
 11
156.9790661762366
 21
282.4650842760032
 31
0.0
  0
LINE
  5
41BB
330
1F
100
AcDbEntity
  8
0
100
AcDbLine
 10
156.9790661762366
 20
282.4650842760032
 30
0.0
 11
156.7290661762366
 21
281.5320715741109
 31
0.0
  0
LINE
  5
41BC
330
1F
100
AcDbEntity
  8
AM_0
100
AcDbLine
 10
156.9790661762366
 20
284.9557259578189
 30
0.0
 11
157.2290661762366
 21
286.150873727628
 31
0.0
  0
LINE
  5
41BD
330
1F
100
AcDbEntity
  8
AM_0
100
AcDbLine
 10
157.2290661762366
 20
286.150873727628
 30
0.0
 11
156.9790661762366
 21
288.5411692672458
 31
0.0
  0
LINE
  5
41BE
330
1F
100
AcDbEntity
  8
AM_0
100
AcDbLine
 10
156.9790661762366
 20
288.5411692672458
 30
0.0
 11
156.7290661762366
 21
286.150873727628
 31
0.0
  0
LINE
  5
41BF
330
1F
100
AcDbEntity
  8
AM_0
100
AcDbLine
 10
156.7290661762366
 20
286.150873727628
 30
0.0
 11
156.9790661762366
 21
284.9557259578189
 31
0.0
  0
LINE
  5
41C7
330
1F
100
AcDbEntity
  8
AM_0
100
AcDbLine
 10
156.9790661762366
 20
288.5411692672458
 30
0.0
 11
156.9790661762366
 21
284.9557259578189
 31
0.0
  0
LINE
  5
41D3
330
1F
100
AcDbEntity
  8
0
100
AcDbLine
 10
158.1201974291227
 20
300.0072801881789
 30
0.0
 11
157.2290661762366
 21
300.0072801881789
 31
0.0
  0
LINE
  5
41D4
330
1F
100
AcDbEntity
  8
0
100
AcDbLine
 10
156.7290661762366
 20
300.0072801881789
 30
0.0
 11
151.3379349233501
 21
300.0072801881789
 31
0.0
  0
LINE
  5
41D5
330
1F
100
AcDbEntity
  8
0
100
AcDbLine
 10
150.4790661762364
 20
298.5196758811449
 30
0.0
 11
151.3379349233501
 21
300.0072801881789
 31
0.0
  0
LINE
  5
41D6
330
1F
100
AcDbEntity
  8
0
100
AcDbLine
 10
158.9790661762364
 20
298.519675881145
 30
0.0
 11
158.9790661762364
 21
290.7696758811449
 31
0.0
  0
LINE
  5
41D7
330
1F
100
AcDbEntity
  8
0
100
AcDbLine
 10
158.9790661762364
 20
298.5196758811449
 30
0.0
 11
158.1201974291227
 21
300.0072801881789
 31
0.0
  0
LINE
  5
41D8
330
1F
100
AcDbEntity
  8
AM_0
100
AcDbLine
 10
141.4790661762364
 20
290.7696758811449
 30
0.0
 11
141.4790661762364
 21
296.0196758811449
 31
0.0
  0
LINE
  5
41D9
330
1F
100
AcDbEntity
  8
AM_0
100
AcDbLine
 10
141.9671597063284
 20
296.6281411100542
 30
0.0
 11
150.4790661762364
 21
298.5196758811449
 31
0.0
  0
LINE
  5
41DA
330
1F
100
AcDbEntity
  8
AM_0
100
AcDbLine
 10
141.4790661762364
 20
296.0196758811449
 30
0.0
 11
141.9671597063284
 21
296.6281411100542
 31
0.0
1001
GENIUS_GENFIL_13
1070
     0
1040
0.5
1040
0.5
1040
0.5
1040
38.73559614542635
1000
~T
  0
ARC
  5
41DB
330
1F
100
AcDbEntity
  8
AM_0
100
AcDbCircle
 10
154.0133599076733
 20
297.6978791114204
 30
0.0
 40
3.534293731436835
100
AcDbArc
 50
160.8004439881449
 51
220.8004439881463
  0
ARC
  5
41DC
330
1F
100
AcDbEntity
  8
AM_0
100
AcDbCircle
 10
163.3279379813134
 20
290.7696758811449
 30
0.0
 40
12.84887180507694
100
AcDbArc
 50
158.9322625181308
 51
180.0
  0
LINE
  5
41DD
330
1F
100
AcDbEntity
  8
AM_0
100
AcDbLine
 10
150.4790661762364
 20
298.5196758811449
 30
0.0
 11
150.4790661762364
 21
290.7696758811449
 31
0.0
  0
ARC
  5
41DE
330
1F
100
AcDbEntity
  8
AM_0
100
AcDbCircle
 10
155.4447724447996
 20
297.6978791114204
 30
0.0
 40
3.534293731436835
100
AcDbArc
 50
319.1995560118538
 51
19.19955601185509
  0
ARC
  5
41DF
330
1F
100
AcDbEntity
  8
AM_0
100
AcDbCircle
 10
146.1301943711595
 20
290.7696758811449
 30
0.0
 40
12.84887180507694
100
AcDbArc
 50
0.0
 51
21.06773748186921
  0
LINE
  5
41E0
330
1F
100
AcDbEntity
  8
AM_0
100
AcDbLine
 10
158.1201974291226
 20
295.3884780346619
 30
0.0
 11
157.2290661762366
 21
295.3884780346619
 31
0.0
  0
LINE
  5
41E1
330
1F
100
AcDbEntity
  8
AM_0
100
AcDbLine
 10
156.7290661762366
 20
295.3884780346618
 30
0.0
 11
151.3379349233501
 21
295.3884780346618
 31
0.0
  0
LINE
  5
41E2
330
1F
100
AcDbEntity
  8
AM_0
100
AcDbLine
 10
141.9671597063284
 20
296.6281411100542
 30
0.0
 11
141.9671597063284
 21
290.7696758811449
 31
0.0
  0
LINE
  5
41E3
330
1F
100
AcDbEntity
  8
0
100
AcDbLine
 10
157.2290661762366
 20
300.0072801881789
 30
0.0
 11
156.9790661762366
 21
299.0742674862866
 31
0.0
  0
LINE
  5
41E4
330
1F
100
AcDbEntity
  8
0
100
AcDbLine
 10
156.9790661762366
 20
299.0742674862866
 30
0.0
 11
156.7290661762366
 21
300.0072801881789
 31
0.0
  0
LINE
  5
41E5
330
1F
100
AcDbEntity
  8
AM_0
100
AcDbLine
 10
156.9790661762366
 20
296.583625804471
 30
0.0
 11
157.2290661762366
 21
295.3884780346618
 31
0.0
  0
LINE
  5
41E6
330
1F
100
AcDbEntity
  8
AM_0
100
AcDbLine
 10
157.2290661762366
 20
295.3884780346618
 30
0.0
 11
156.9790661762366
 21
292.998182495044
 31
0.0
  0
LINE
  5
41E7
330
1F
100
AcDbEntity
  8
AM_0
100
AcDbLine
 10
156.9790661762366
 20
292.998182495044
 30
0.0
 11
156.7290661762366
 21
295.3884780346618
 31
0.0
  0
LINE
  5
41E8
330
1F
100
AcDbEntity
  8
AM_0
100
AcDbLine
 10
156.7290661762366
 20
295.3884780346618
 30
0.0
 11
156.9790661762366
 21
296.583625804471
 31
0.0
  0
LINE
  5
41E9
330
1F
100
AcDbEntity
  8
AM_0
100
AcDbLine
 10
156.9790661762366
 20
292.998182495044
 30
0.0
 11
156.9790661762366
 21
296.583625804471
 31
0.0
  0
LINE
  5
41EB
330
1F
100
AcDbEntity
  8
AM_0
100
AcDbLine
 10
159.7018786262363
 20
295.6386758811449
 30
0.0
 11
159.7018786262359
 21
285.900675881145
 31
0.0
  0
LINE
  5
4365
330
1F
100
AcDbEntity
  8
AM_0
100
AcDbLine
 10
218.5578480373829
 20
304.7275587478062
 30
0.0
 11
229.5578480368809
 21
304.727558746781
 31
0.0
  0
LINE
  5
4366
330
1F
100
AcDbEntity
  8
AM_0
100
AcDbLine
 10
229.557848036881
 20
304.727558746781
 30
0.0
 11
229.557848036881
 21
295.8997944259276
 31
0.0
  0
LINE
  5
4367
330
1F
100
AcDbEntity
  8
AM_0
100
AcDbLine
 10
218.5578480373829
 20
304.7275587478353
 30
0.0
 11
218.5578480365601
 21
295.8997944258631
 31
0.0
  0
CIRCLE
  5
4368
330
1F
100
AcDbEntity
  8
AM_0
100
AcDbCircle
 10
224.0578480368568
 20
290.7696758811448
 30
0.0
 40
7.000000000000056
  0
CIRCLE
  5
4369
330
1F
100
AcDbEntity
  8
AM_5
100
AcDbCircle
 10
224.0578480368568
 20
290.7696758811448
 30
0.0
 40
5.550536656975225
  0
CIRCLE
  5
436A
330
1F
100
AcDbEntity
  8
AM_0
100
AcDbCircle
 10
224.0578480368568
 20
290.7696758811448
 30
0.0
 40
5.250000000000056
  0
CIRCLE
  5
436B
330
1F
100
AcDbEntity
  8
AM_0
100
AcDbCircle
 10
224.0578480368568
 20
290.7696758811448
 30
0.0
 40
4.500000000000056
  0
LINE
  5
436C
330
1F
100
AcDbEntity
  8
AM_7
100
AcDbLine
 10
214.6608480368568
 20
290.7696758811448
 30
0.0
 11
233.4548480368568
 21
290.7696758811448
 31
0.0
1001
GENIUS_GENODEF_13
1002
{
1000
HIER
1070
     0
1002
}
1002
{
1000
MANEDIT
1070
     0
1002
}
1002
{
1000
NOSEL
1070
     0
1002
}
1002
{
1000
BEHIND
1070
     0
1002
}
1002
{
1000
OTHER
1070
     0
1002
}
1002
{
1000
REACTOR
1002
}
1001
GENIUS_GENOBJ-N-CEN_13
1002
{
1000
OWNER
1000
GEN
1002
}
  0
CIRCLE
  5
436D
330
1F
100
AcDbEntity
  8
AM_0
100
AcDbCircle
 10
224.0578480368569
 20
290.7696758811448
 30
0.0
 40
4.000000000000056
  0
ARC
  5
436E
330
1F
100
AcDbEntity
  8
AM_0
100
AcDbCircle
 10
224.0561920112408
 20
289.5182682504133
 30
0.0
 40
2.498343974377827
100
AcDbArc
 50
89.96202152850298
 51
270.0379784715313
  0
LINE
  5
436F
330
1F
100
AcDbEntity
  8
AM_0
100
AcDbLine
 10
224.0578480368569
 20
280.2696758811448
 30
0.0
 11
220.5578480368568
 21
280.2696758811448
 31
0.0
  0
ARC
  5
4370
330
1F
100
AcDbEntity
  8
AM_0
100
AcDbCircle
 10
220.5578480368568
 20
280.7696758811449
 30
0.0
 40
0.5
100
AcDbArc
 50
180.0
 51
270.0
1001
GENIUS_GENODEF_13
1002
{
1000
HIER
1070
     0
1002
}
1002
{
1000
MANEDIT
1070
     0
1002
}
1002
{
1000
NOSEL
1070
     0
1002
}
1002
{
1000
BEHIND
1070
     0
1002
}
1002
{
1000
REACTOR
1002
}
1001
GENIUS_GENOBJ-N-FIL_13
1002
{
1000
OWNER
1000
GEN
1002
}
  0
LINE
  5
4371
330
1F
100
AcDbEntity
  8
AM_0
100
AcDbLine
 10
224.0578480368569
 20
280.2696758811448
 30
0.0
 11
227.5578480368568
 21
280.2696758811448
 31
0.0
  0
LINE
  5
4372
330
1F
100
AcDbEntity
  8
AM_0
100
AcDbLine
 10
228.0578480368568
 20
280.7696758811448
 30
0.0
 11
228.0578480368568
 21
285.0200872313172
 31
0.0
  0
ARC
  5
4373
330
1F
100
AcDbEntity
  8
AM_0
100
AcDbCircle
 10
227.5578480368567
 20
280.7696758811448
 30
0.0
 40
0.5
100
AcDbArc
 50
270.0
 51
0.0
1001
GENIUS_GENODEF_13
1002
{
1000
HIER
1070
     0
1002
}
1002
{
1000
MANEDIT
1070
     0
1002
}
1002
{
1000
NOSEL
1070
     0
1002
}
1002
{
1000
BEHIND
1070
     0
1002
}
1002
{
1000
REACTOR
1002
}
1001
GENIUS_GENOBJ-N-FIL_13
1002
{
1000
OWNER
1000
GEN
1002
}
  0
LINE
  5
4374
330
1F
100
AcDbEntity
  8
AM_0
100
AcDbLine
 10
220.0578480368569
 20
280.7696758811448
 30
0.0
 11
220.0578480368569
 21
285.0251132346066
 31
0.0
  0
ARC
  5
4375
330
1F
100
AcDbEntity
  8
AM_0
100
AcDbCircle
 10
224.0462321720658
 20
289.5182947052619
 30
0.0
 40
2.498343974377827
100
AcDbArc
 50
269.6576496248797
 51
89.73360656790616
  0
LINE
  5
4376
330
1F
100
AcDbEntity
  8
0
100
AcDbLine
 10
217.0578480368568
 20
286.1030092144781
 30
0.0
 11
217.0578480368568
 21
286.1030092144781
 31
0.0
  0
LINE
  5
4377
330
1F
100
AcDbEntity
  8
0
 62
     0
100
AcDbLine
 10
231.0578480368568
 20
295.4363425478115
 30
0.0
 11
231.0578480368568
 21
295.4363425478115
 31
0.0
  0
LINE
  5
4378
330
1F
100
AcDbEntity
  8
0
 62
     0
100
AcDbLine
 10
231.0578480368568
 20
286.1030092144781
 30
0.0
 11
231.0578480368568
 21
286.1030092144781
 31
0.0
  0
POLYLINE
  5
4379
330
1F
100
AcDbEntity
  8
AM_0
100
AcDb2dPolyline
 66
     1
 10
0.0
 20
0.0
 30
0.0
  0
VERTEX
  5
437A
330
4379
100
AcDbEntity
  8
AM_0
100
AcDbVertex
100
AcDb2dVertex
 10
218.5578480367008
 20
297.4092039767337
 30
0.0
  0
VERTEX
  5
437B
330
4379
100
AcDbEntity
  8
AM_0
100
AcDbVertex
100
AcDb2dVertex
 10
215.5578480368578
 20
295.6771531692544
 30
0.0
  0
VERTEX
  5
437C
330
4379
100
AcDbEntity
  8
AM_0
100
AcDbVertex
100
AcDb2dVertex
 10
215.5578480368603
 20
285.8621985930308
 30
0.0
  0
SEQEND
  5
437D
330
4379
100
AcDbEntity
  8
AM_0
  0
POLYLINE
  5
437E
330
1F
100
AcDbEntity
  8
AM_0
100
AcDb2dPolyline
 66
     1
 10
0.0
 20
0.0
 30
0.0
  0
VERTEX
  5
437F
330
437E
100
AcDbEntity
  8
AM_0
100
AcDbVertex
100
AcDb2dVertex
 10
228.0578480368568
 20
283.2641223816783
 30
0.0
  0
VERTEX
  5
4380
330
437E
100
AcDbEntity
  8
AM_0
100
AcDbVertex
100
AcDb2dVertex
 10
232.5578480368603
 20
285.8621985930351
 30
0.0
  0
VERTEX
  5
4381
330
437E
100
AcDbEntity
  8
AM_0
100
AcDbVertex
100
AcDb2dVertex
 10
232.5578480368577
 20
295.6771531692588
 30
0.0
  0
VERTEX
  5
4382
330
437E
100
AcDbEntity
  8
AM_0
100
AcDbVertex
100
AcDb2dVertex
 10
229.557848036881
 20
297.4092039768131
 30
0.0
  0
SEQEND
  5
4383
330
437E
100
AcDbEntity
  8
AM_0
  0
POLYLINE
  5
4384
330
1F
100
AcDbEntity
  8
AM_0
100
AcDb2dPolyline
 66
     1
 10
0.0
 20
0.0
 30
0.0
  0
VERTEX
  5
4385
330
4384
100
AcDbEntity
  8
AM_0
100
AcDbVertex
100
AcDb2dVertex
 10
215.5578480368603
 20
285.8621985930308
 30
0.0
  0
VERTEX
  5
4386
330
4384
100
AcDbEntity
  8
AM_0
100
AcDbVertex
100
AcDb2dVertex
 10
220.0578480368569
 20
283.264122381681
 30
0.0
  0
SEQEND
  5
4387
330
4384
100
AcDbEntity
  8
AM_0
  0
ARC
  5
4388
330
1F
100
AcDbEntity
  8
AM_0
100
AcDbCircle
 10
224.057848036859
 20
290.7696758811448
 30
0.0
 40
8.250000000000056
100
AcDbArc
 50
299.0025460266524
 51
322.6903430532776
  0
ARC
  5
4389
330
1F
100
AcDbEntity
  8
AM_0
100
AcDbCircle
 10
224.057848036859
 20
290.7696758811448
 30
0.0
 40
8.250000000000056
100
AcDbArc
 50
328.047253599705
 51
31.95274640029497
  0
ARC
  5
438A
330
1F
100
AcDbEntity
  8
AM_0
100
AcDbCircle
 10
224.057848036859
 20
290.7696758811448
 30
0.0
 40
8.250000000000056
100
AcDbArc
 50
37.30965694672241
 51
48.18968510401629
  0
ARC
  5
438B
330
1F
100
AcDbEntity
  8
AM_0
100
AcDbCircle
 10
224.057848036859
 20
290.7696758811448
 30
0.0
 40
8.250000000000056
100
AcDbArc
 50
131.810314897679
 51
142.6903430532776
  0
ARC
  5
438C
330
1F
100
AcDbEntity
  8
AM_0
100
AcDbCircle
 10
224.057848036859
 20
290.7696758811448
 30
0.0
 40
8.250000000000056
100
AcDbArc
 50
148.047253599762
 51
211.952746400238
  0
ARC
  5
438D
330
1F
100
AcDbEntity
  8
AM_0
100
AcDbCircle
 10
224.057848036859
 20
290.7696758811448
 30
0.0
 40
8.250000000000056
100
AcDbArc
 50
217.3096569467224
 51
240.9974539733111
  0
ARC
  5
438E
330
1F
100
AcDbEntity
  8
AM_0
100
AcDbCircle
 10
217.4245984561483
 20
300.7696758811448
 30
0.0
 40
5.0
100
AcDbArc
 50
270.0
 51
303.5573097619216
  0
LINE
  5
438F
330
1F
100
AcDbEntity
  8
AM_0
100
AcDbLine
 10
217.0578480368591
 20
295.7696758811448
 30
0.0
 11
217.4245984561483
 21
295.7696758811448
 31
0.0
  0
ARC
  5
4390
330
1F
100
AcDbEntity
  8
AM_0
100
AcDbCircle
 10
230.6910976175698
 20
300.7696758811448
 30
0.0
 40
5.0
100
AcDbArc
 50
236.4426902380816
 51
270.0
  0
LINE
  5
4391
330
1F
100
AcDbEntity
  8
AM_0
100
AcDbLine
 10
231.057848036859
 20
295.7696758811448
 30
0.0
 11
230.6910976175698
 21
295.7696758811448
 31
0.0
  0
ARC
  5
4392
330
1F
100
AcDbEntity
  8
AM_0
100
AcDbCircle
 10
217.4245984561483
 20
280.7696758811448
 30
0.0
 40
5.0
100
AcDbArc
 50
56.44269023808156
 51
90.0
  0
LINE
  5
4393
330
1F
100
AcDbEntity
  8
AM_0
100
AcDbLine
 10
217.0578480368591
 20
285.7696758811448
 30
0.0
 11
217.4245984561483
 21
285.7696758811448
 31
0.0
  0
ARC
  5
4394
330
1F
100
AcDbEntity
  8
AM_0
100
AcDbCircle
 10
230.6910976175698
 20
280.7696758811448
 30
0.0
 40
5.0
100
AcDbArc
 50
90.0
 51
123.5573097619184
  0
LINE
  5
4395
330
1F
100
AcDbEntity
  8
AM_0
100
AcDbLine
 10
231.057848036859
 20
285.7696758811448
 30
0.0
 11
230.6910976175698
 21
285.7696758811448
 31
0.0
  0
LINE
  5
4396
330
1F
100
AcDbEntity
  8
AM_0
100
AcDbLine
 10
217.0578480368591
 20
295.7696758811448
 30
0.0
 11
217.0578480368591
 21
285.7696758811722
 31
0.0
  0
LINE
  5
4397
330
1F
100
AcDbEntity
  8
AM_0
100
AcDbLine
 10
231.057848036859
 20
295.7696758811448
 30
0.0
 11
231.057848036859
 21
285.7696758811448
 31
0.0
  0
ARC
  5
4398
330
1F
100
AcDbEntity
  8
AM_0
100
AcDbCircle
 10
224.0578480368569
 20
285.7696758811458
 30
0.0
 40
4.0
100
AcDbArc
 50
191.5369590328315
 51
348.4630409671684
  0
LINE
  5
4475
330
1F
100
AcDbEntity
  8
AM_0
100
AcDbLine
 10
169.2018786262364
 20
304.7275911736213
 30
0.0
 11
169.2018786262364
 21
300.4123530960411
 31
0.0
  0
ARC
  5
4476
330
1F
100
AcDbEntity
  8
AM_0
100
AcDbCircle
 10
168.2018786262364
 20
300.4123530960411
 30
0.0
 40
1.0
100
AcDbArc
 50
283.9314171779244
 51
0.0
  0
LINE
  5
4477
330
1F
100
AcDbEntity
  8
AM_0
100
AcDbLine
 10
180.2018786262364
 20
304.7275587468082
 30
0.0
 11
180.2018786262364
 21
298.7696758811723
 31
0.0
  0
ARC
  5
4478
330
1F
100
AcDbEntity
  8
AM_0
100
AcDbCircle
 10
181.2018786262364
 20
298.7696758811723
 30
0.0
 40
1.0
100
AcDbArc
 50
180.0
 51
270.0
  0
LINE
  5
4479
330
1F
100
AcDbEntity
  8
AM_0
100
AcDbLine
 10
169.2018786267621
 20
304.7275587478334
 30
0.0
 11
180.2018786262602
 21
304.7275587468082
 31
0.0
  0
LINE
  5
447A
330
1F
100
AcDbEntity
  8
AM_0
100
AcDbLine
 10
187.7018786262361
 20
297.7696758811723
 30
0.0
 11
187.7018786262371
 21
283.7696758811723
 31
0.0
  0
LINE
  5
447B
330
1F
100
AcDbEntity
  8
AM_0
 62
     0
100
AcDbLine
 10
175.0585248203611
 20
293.9671613117308
 30
0.0
 11
176.3035400076324
 21
290.1353985663328
 31
0.0
  0
LINE
  5
447C
330
1F
100
AcDbEntity
  8
AM_0
 62
     0
100
AcDbLine
 10
174.345232433211
 20
293.9671613117308
 30
0.0
 11
173.1002172459398
 21
290.1353985663328
 31
0.0
  0
LINE
  5
447D
330
1F
100
AcDbEntity
  8
AM_0
 62
     0
100
AcDbLine
 10
174.0122365716007
 20
289.6371391527734
 30
0.0
 11
175.3915206819714
 21
289.6371391527734
 31
0.0
  0
ARC
  5
447E
330
1F
100
AcDbEntity
  8
AM_0
 62
     0
100
AcDbCircle
 10
174.7018786267861
 20
285.8121391531559
 30
0.0
 40
2.999999999699999
100
AcDbArc
 50
55.822409278222
 51
124.177590721778
  0
ARC
  5
447F
330
1F
100
AcDbEntity
  8
AM_0
 62
     0
100
AcDbCircle
 10
174.7018786267861
 20
291.909639152546
 30
0.0
 40
0.149999999985
100
AcDbArc
 50
17.99999999999898
 51
162.000000000001
  0
ARC
  5
4480
330
1F
100
AcDbEntity
  8
AM_0
 62
     0
100
AcDbCircle
 10
172.5655881418151
 20
289.5012799392867
 30
0.0
 40
0.3749999999625
100
AcDbArc
 50
90.0
 51
195.0000000000011
  0
LINE
  5
4481
330
1F
100
AcDbEntity
  8
AM_0
 62
     0
100
AcDbLine
 10
172.203365956993
 20
289.4042227973831
 30
0.0
 11
172.4437169461044
 21
288.5072206943698
 31
0.0
  0
LINE
  5
4482
330
1F
100
AcDbEntity
  8
AM_0
 62
     0
100
AcDbLine
 10
172.4437169461044
 20
288.5072206943698
 30
0.0
 11
172.203365956993
 21
289.4042227973831
 31
0.0
  0
LINE
  5
4483
330
1F
100
AcDbEntity
  8
AM_0
 62
     0
100
AcDbLine
 10
172.7435710523648
 20
289.8762799392492
 30
0.0
 11
172.5655881418151
 21
289.8762799392492
 31
0.0
  0
ARC
  5
4484
330
1F
100
AcDbEntity
  8
AM_0
 62
     0
100
AcDbCircle
 10
172.8059391309266
 20
288.6042778362735
 30
0.0
 40
0.3749999999625
100
AcDbArc
 50
194.999999999998
 51
304.1775907217779
  0
ARC
  5
4485
330
1F
100
AcDbEntity
  8
AM_0
 62
     0
100
AcDbCircle
 10
174.0122365716007
 20
289.7871391527583
 30
0.0
 40
0.149999999985
100
AcDbArc
 50
162.000000000001
 51
270.0
  0
LINE
  5
4486
330
1F
100
AcDbEntity
  8
AM_0
 62
     0
100
AcDbLine
 10
172.5655881418151
 20
289.8762799392493
 30
0.0
 11
172.7435710523648
 21
289.8762799392493
 31
0.0
  0
ARC
  5
4487
330
1F
100
AcDbEntity
  8
AM_0
 62
     0
100
AcDbCircle
 10
172.7435710523648
 20
290.2512799392118
 30
0.0
 40
0.3749999999625
100
AcDbArc
 50
270.0
 51
342.000000000001
  0
LINE
  5
4488
330
1F
100
AcDbEntity
  8
AM_0
 62
     0
100
AcDbLine
 10
172.4437169461044
 20
288.5072206943698
 30
0.0
 11
172.203365956993
 21
289.4042227973831
 31
0.0
  0
ARC
  5
4489
330
1F
100
AcDbEntity
  8
AM_0
 62
     0
100
AcDbCircle
 10
172.5655881418151
 20
289.5012799392868
 30
0.0
 40
0.3749999999625
100
AcDbArc
 50
90.0
 51
195.0000000000011
  0
LINE
  5
448A
330
1F
100
AcDbEntity
  8
AM_0
 62
     0
100
AcDbLine
 10
174.5592201493561
 20
291.9559917016977
 30
0.0
 11
173.8695780941707
 21
289.8334917019099
 31
0.0
  0
LINE
  5
448B
330
1F
100
AcDbEntity
  8
AM_0
 62
     0
100
AcDbLine
 10
174.844537104216
 20
291.9559917016977
 30
0.0
 11
175.5341791594014
 21
289.8334917019099
 31
0.0
  0
ARC
  5
448C
330
1F
100
AcDbEntity
  8
AM_0
 62
     0
100
AcDbCircle
 10
176.5978181226456
 20
288.6042778362735
 30
0.0
 40
0.3749999999625
100
AcDbArc
 50
235.822409278222
 51
345.000000000002
  0
ARC
  5
448D
330
1F
100
AcDbEntity
  8
AM_0
 62
     0
100
AcDbCircle
 10
176.6601862012073
 20
290.2512799392117
 30
0.0
 40
0.3749999999625
100
AcDbArc
 50
197.9999999999989
 51
270.0
  0
ARC
  5
448E
330
1F
100
AcDbEntity
  8
AM_0
 62
     0
100
AcDbCircle
 10
175.3915206819714
 20
289.7871391527583
 30
0.0
 40
0.149999999985
100
AcDbArc
 50
270.0
 51
17.99999999999898
  0
LINE
  5
448F
330
1F
100
AcDbEntity
  8
AM_0
 62
     0
100
AcDbLine
 10
176.6601862012073
 20
289.8762799392492
 30
0.0
 11
176.838169111757
 21
289.8762799392492
 31
0.0
  0
LINE
  5
4490
330
1F
100
AcDbEntity
  8
AM_0
 62
     0
100
AcDbLine
 10
176.9600403074677
 20
288.5072206943698
 30
0.0
 11
177.2003912965791
 21
289.4042227973831
 31
0.0
  0
LINE
  5
4491
330
1F
100
AcDbEntity
  8
AM_0
 62
     0
100
AcDbLine
 10
177.2003912965791
 20
289.4042227973831
 30
0.0
 11
176.9600403074677
 21
288.5072206943698
 31
0.0
  0
ARC
  5
4492
330
1F
100
AcDbEntity
  8
AM_0
 62
     0
100
AcDbCircle
 10
176.838169111757
 20
289.5012799392867
 30
0.0
 40
0.3749999999625
100
AcDbArc
 50
344.9999999999989
 51
90.0
  0
ARC
  5
4493
330
1F
100
AcDbEntity
  8
AM_0
 62
     0
100
AcDbCircle
 10
174.7018786267861
 20
293.8512799388518
 30
0.0
 40
0.3749999999625
100
AcDbArc
 50
17.99999999999898
 51
162.000000000001
  0
ARC
  5
4494
330
1F
100
AcDbEntity
  8
AM_0
 62
     0
100
AcDbCircle
 10
180.2018786262308
 20
296.3199696664706
 30
0.0
 40
1.889572893129809
100
AcDbArc
 50
90.0
 51
180.0
  0
LINE
  5
4495
330
1F
100
AcDbEntity
  8
AM_0
 62
     0
100
AcDbLine
 10
171.0914515193717
 20
296.3199696664706
 30
0.0
 11
171.0914515193716
 21
285.1556519405164
 31
0.0
  0
ARC
  5
4496
330
1F
100
AcDbEntity
  8
AM_0
 62
     0
100
AcDbCircle
 10
169.2018786262418
 20
285.1556519405164
 30
0.0
 40
1.889572893129809
100
AcDbArc
 50
310.2249957735891
 51
0.0
  0
ARC
  5
4497
330
1F
100
AcDbEntity
  8
AM_0
 62
     0
100
AcDbCircle
 10
169.2018786262418
 20
296.3199696664706
 30
0.0
 40
1.889572893129809
100
AcDbArc
 50
0.0
 51
90.0
  0
LINE
  5
4498
330
1F
100
AcDbEntity
  8
AM_0
 62
     0
100
AcDbLine
 10
178.312305733101
 20
296.3199696664706
 30
0.0
 11
178.312305733101
 21
285.1556519405164
 31
0.0
  0
ARC
  5
4499
330
1F
100
AcDbEntity
  8
AM_0
 62
     0
100
AcDbCircle
 10
180.2018786262308
 20
285.1556519405164
 30
0.0
 40
1.889572893129809
100
AcDbArc
 50
180.0
 51
229.775004226411
  0
ARC
  5
449A
330
1F
100
AcDbEntity
  8
AM_0
100
AcDbCircle
 10
183.2018786262363
 20
286.7696758811721
 30
0.0
 40
1.0
100
AcDbArc
 50
180.0
 51
270.0000000000033
  0
ARC
  5
449B
330
1F
100
AcDbEntity
  8
AM_0
100
AcDbCircle
 10
183.2018786262364
 20
294.769675881172
 30
0.0
 40
1.0
100
AcDbArc
 50
90.00000000000325
 51
180.0
  0
ARC
  5
449C
330
1F
100
AcDbEntity
  8
AM_0
100
AcDbCircle
 10
166.2018786262363
 20
286.769675881172
 30
0.0
 40
1.0
100
AcDbArc
 50
270.0
 51
0.0
  0
ARC
  5
449D
330
1F
100
AcDbEntity
  8
AM_0
100
AcDbCircle
 10
166.2018786262363
 20
294.769675881172
 30
0.0
 40
1.0
100
AcDbArc
 50
0.0
 51
90.0
  0
LINE
  5
449E
330
1F
100
AcDbEntity
  8
AM_0
100
AcDbLine
 10
187.7018786262363
 20
295.7696758811723
 30
0.0
 11
183.2018786262363
 21
295.769675881172
 31
0.0
  0
LINE
  5
449F
330
1F
100
AcDbEntity
  8
AM_0
100
AcDbLine
 10
187.701878626237
 20
285.7696758811723
 30
0.0
 11
183.2018786262364
 21
285.7696758811721
 31
0.0
  0
LINE
  5
44A0
330
1F
100
AcDbEntity
  8
AM_0
100
AcDbLine
 10
166.2018786262363
 20
295.7696758811719
 30
0.0
 11
161.2018786260431
 21
295.7696758811719
 31
0.0
  0
LINE
  5
44A1
330
1F
100
AcDbEntity
  8
AM_0
100
AcDbLine
 10
166.2018786262363
 20
285.769675881172
 30
0.0
 11
161.2018786262042
 21
285.769675881172
 31
0.0
  0
LINE
  5
44A2
330
1F
100
AcDbEntity
  8
AM_0
100
AcDbLine
 10
187.7018786262361
 20
297.7696758811723
 30
0.0
 11
181.2018786262364
 21
297.7696758811723
 31
0.0
  0
LINE
  5
44A3
330
1F
100
AcDbEntity
  8
AM_0
100
AcDbLine
 10
161.2018786260129
 20
297.6456473936626
 30
0.0
 11
168.4426389086436
 21
299.4417684853991
 31
0.0
  0
LINE
  5
44A4
330
1F
100
AcDbEntity
  8
AM_0
100
AcDbLine
 10
161.2018786262363
 20
283.7696758811723
 30
0.0
 11
169.7018786262363
 21
283.7696758811723
 31
0.0
  0
LINE
  5
44A5
330
1F
100
AcDbEntity
  8
AM_0
 62
     0
100
AcDbLine
 10
171.201878626236
 20
280.2696758810399
 30
0.0
 11
178.2018786262359
 21
280.2696758810398
 31
0.0
  0
ARC
  5
44A6
330
1F
100
AcDbEntity
  8
AM_0
 62
     0
100
AcDbCircle
 10
171.201878626236
 20
280.7696758810399
 30
0.0
 40
0.5
100
AcDbArc
 50
180.0
 51
270.0
  0
LINE
  5
44A7
330
1F
100
AcDbEntity
  8
AM_0
100
AcDbLine
 10
178.7018786262363
 20
280.7696758811719
 30
0.0
 11
178.7018786262363
 21
281.0468827929469
 31
0.0
  0
ARC
  5
44A8
330
1F
100
AcDbEntity
  8
AM_0
100
AcDbCircle
 10
178.2018786262362
 20
280.7696758811719
 30
0.0
 40
0.5
100
AcDbArc
 50
270.0
 51
0.0
1001
GENIUS_GENODEF_13
1002
{
1000
HIER
1070
     0
1002
}
1002
{
1000
MANEDIT
1070
     0
1002
}
1002
{
1000
NOSEL
1070
     0
1002
}
1002
{
1000
BEHIND
1070
     0
1002
}
1002
{
1000
REACTOR
1002
}
1001
GENIUS_GENOBJ-N-FIL_13
1002
{
1000
OWNER
1000
GEN
1002
}
  0
ARC
  5
44A9
330
1F
100
AcDbEntity
  8
AM_0
100
AcDbCircle
 10
169.7018786262363
 20
282.7696758811723
 30
0.0
 40
1.000000000000013
100
AcDbArc
 50
0.0
 51
90.0
  0
LINE
  5
44AA
330
1F
100
AcDbEntity
  8
AM_0
100
AcDbLine
 10
170.7018786262363
 20
282.7696758811723
 30
0.0
 11
170.7018786262359
 21
280.7696758810399
 31
0.0
  0
LINE
  5
44AB
330
1F
100
AcDbEntity
  8
AM_0
100
AcDbLine
 10
179.4939669354185
 20
282.0250303936806
 30
0.0
 11
187.7018786262371
 21
283.7696758811723
 31
0.0
  0
ARC
  5
44AC
330
1F
100
AcDbEntity
  8
AM_0
100
AcDbCircle
 10
179.7018786262363
 20
281.0468827929469
 30
0.0
 40
1.0
100
AcDbArc
 50
102.0000000000014
 51
180.0
  0
LINE
  5
44AD
330
1F
100
AcDbEntity
  8
AM_0
100
AcDbLine
 10
161.2018786260129
 20
297.6456473936626
 30
0.0
 11
161.2018786262363
 21
283.7696758811723
 31
0.0
  0
LINE
  5
44AE
330
1F
100
AcDbEntity
  8
AM_0
100
AcDbLine
 10
182.2018786262363
 20
294.769675881172
 30
0.0
 11
182.2018786262363
 21
286.7696758811721
 31
0.0
  0
LINE
  5
44AF
330
1F
100
AcDbEntity
  8
AM_0
100
AcDbLine
 10
167.2018786262363
 20
294.769675881172
 30
0.0
 11
167.2018786262363
 21
286.769675881172
 31
0.0
  0
ENDSEC
  0
SECTION
  2
OBJECTS
  0
DICTIONARY
  5
C
330
0
100
AcDbDictionary
281
     1
  3
ACAD_COLOR
350
1AD8
  3
ACAD_GROUP
350
D
  3
ACAD_LAYOUT
350
1A
  3
ACAD_MATERIAL
350
1AC3
  3
ACAD_MLEADERSTYLE
350
277B
  3
ACAD_MLINESTYLE
350
17
  3
ACAD_PLOTSETTINGS
350
19
  3
ACAD_PLOTSTYLENAME
350
E
  3
ACAD_SCALELIST
350
2769
  3
ACAD_TABLESTYLE
350
1AD9
  3
ACAD_VISUALSTYLE
350
1AC7
  3
ACDB_RECOMPOSE_DATA
350
4552
  3
AcDbVariableDictionary
350
34
  3
AcmDictionary
350
43
  3
AMG
350
2B
  3
AMGSNAPSETTINGS
350
74
  3
DWGPROPS
350
4553
  0
DICTIONARY
  5
1D17
330
8
100
AcDbDictionary
280
     1
281
     1
  0
DICTIONARY
  5
242B
330
2
100
AcDbDictionary
280
     1
281
     1
  3
ACAD_LAYERSTATES
360
2A73
  3
AMLAYER_GROUPCOLORS
360
242C
  0
DICTIONARY
  5
2A56
330
10
100
AcDbDictionary
280
     1
281
     1
  3
ADSK_XREC_LAYER_RECONCILED
360
2A57
  0
DICTIONARY
  5
2A58
330
59
100
AcDbDictionary
280
     1
281
     1
  3
ADSK_XREC_LAYER_RECONCILED
360
2A59
  0
DICTIONARY
  5
2A5A
330
5A
100
AcDbDictionary
280
     1
281
     1
  3
ADSK_XREC_LAYER_RECONCILED
360
2A5B
  0
DICTIONARY
  5
2A5C
330
24D
100
AcDbDictionary
280
     1
281
     1
  3
ADSK_XREC_LAYER_RECONCILED
360
2A5D
  0
DICTIONARY
  5
2A5E
330
280
100
AcDbDictionary
280
     1
281
     1
  3
ADSK_XREC_LAYER_RECONCILED
360
2A5F
  0
DICTIONARY
  5
2A60
330
2C6
100
AcDbDictionary
280
     1
281
     1
  3
ADSK_XREC_LAYER_RECONCILED
360
2A61
  0
DICTIONARY
  5
2A62
330
2C7
100
AcDbDictionary
280
     1
281
     1
  3
ADSK_XREC_LAYER_RECONCILED
360
2A63
  0
DICTIONARY
  5
2A64
330
2C8
100
AcDbDictionary
280
     1
281
     1
  3
ADSK_XREC_LAYER_RECONCILED
360
2A65
  0
DICTIONARY
  5
2A66
330
2C9
100
AcDbDictionary
280
     1
281
     1
  3
ADSK_XREC_LAYER_RECONCILED
360
2A67
  0
DICTIONARY
  5
2A68
330
5A5
100
AcDbDictionary
280
     1
281
     1
  3
ADSK_XREC_LAYER_RECONCILED
360
2A69
  0
DICTIONARY
  5
2A6A
330
782
100
AcDbDictionary
280
     1
281
     1
  3
ADSK_XREC_LAYER_RECONCILED
360
2A6B
  0
DICTIONARY
  5
2A6C
330
BFA
100
AcDbDictionary
280
     1
281
     1
  3
ADSK_XREC_LAYER_RECONCILED
360
2A6D
  0
DICTIONARY
  5
2A6E
330
C47
100
AcDbDictionary
280
     1
281
     1
  3
ADSK_XREC_LAYER_RECONCILED
360
2A6F
  0
DICTIONARY
  5
C9
330
1F
100
AcDbDictionary
280
     1
281
     1
  3
ACAD_SORTENTS
360
2660
  0
DICTIONARY
  5
1CBB
330
1C8A
100
AcDbDictionary
280
     1
281
     1
  0
DICTIONARY
  5
3B7B
330
3B51
100
AcDbDictionary
280
     1
281
     1
  3
ACAD_SORTENTS
360
3B7C
  0
DICTIONARY
  5
1AD8
102
{ACAD_REACTORS
330
C
102
}
330
C
100
AcDbDictionary
281
     1
  0
DICTIONARY
  5
D
102
{ACAD_REACTORS
330
C
102
}
330
C
100
AcDbDictionary
281
     1
  0
DICTIONARY
  5
1A
102
{ACAD_REACTORS
330
C
102
}
330
C
100
AcDbDictionary
281
     1
  3
Model
350
22
  3
ﾚｲｱｳﾄ1
350
1E
  3
ﾚｲｱｳﾄ2
350
26
  0
DICTIONARY
  5
1AC3
102
{ACAD_REACTORS
330
C
102
}
330
C
100
AcDbDictionary
281
     1
  3
ByBlock
350
1AC5
  3
ByLayer
350
1AC4
  3
Global
350
1AC6
  0
DICTIONARY
  5
277B
102
{ACAD_REACTORS
330
C
102
}
330
C
100
AcDbDictionary
281
     1
  3
Standard
350
277C
  0
DICTIONARY
  5
17
102
{ACAD_REACTORS
330
C
102
}
330
C
100
AcDbDictionary
281
     1
  3
Standard
350
18
  0
DICTIONARY
  5
19
102
{ACAD_REACTORS
330
C
102
}
330
C
100
AcDbDictionary
281
     1
  0
ACDBDICTIONARYWDFLT
  5
E
102
{ACAD_REACTORS
330
C
102
}
330
C
100
AcDbDictionary
281
     1
  3
Normal
350
F
100
AcDbDictionaryWithDefault
340
F
  0
DICTIONARY
  5
2769
102
{ACAD_REACTORS
330
C
102
}
330
C
100
AcDbDictionary
281
     1
  3
A0
350
276A
  3
A1
350
276B
  3
A2
350
276C
  3
A3
350
276D
  3
A4
350
276E
  3
A5
350
276F
  3
A6
350
2770
  3
A7
350
2771
  3
A8
350
2772
  3
A9
350
2773
  3
B0
350
2774
  3
B1
350
2775
  3
B2
350
2776
  3
B3
350
2777
  3
B4
350
2778
  3
B5
350
2779
  3
B6
350
277A
  0
DICTIONARY
  5
1AD9
102
{ACAD_REACTORS
330
C
102
}
330
C
100
AcDbDictionary
281
     1
  3
Standard
350
1ADA
  0
DICTIONARY
  5
1AC7
102
{ACAD_REACTORS
330
C
102
}
330
C
100
AcDbDictionary
281
     1
  3
2dWireframe
350
1ACD
  3
3D Hidden
350
1ACF
  3
3dWireframe
350
1ACE
  3
Basic
350
1ACC
  3
Brighten
350
1AD3
  3
ColorChange
350
1AD7
  3
Conceptual
350
1AD0
  3
Dim
350
1AD2
  3
EdgeColorOff
350
2768
  3
Facepattern
350
1AD6
  3
Flat
350
1AC8
  3
FlatWithEdges
350
1AC9
  3
Gouraud
350
1ACA
  3
GouraudWithEdges
350
1ACB
  3
Hidden
350
2760
  3
JitterOff
350
2766
  3
Linepattern
350
1AD5
  3
OverhangOff
350
2767
  3
Realistic
350
1AD1
  3
Shaded
350
2765
  3
Shaded with edges
350
2764
  3
Shades of Gray
350
2761
  3
Sketchy
350
2762
  3
Thicken
350
1AD4
  3
Wireframe
350
275F
  3
X-Ray
350
2763
  0
XRECORD
  5
4552
102
{ACAD_REACTORS
330
C
102
}
330
C
100
AcDbXrecord
280
     1
 90
        1
330
1ADA
330
3D80
  0
DICTIONARY
  5
34
102
{ACAD_REACTORS
330
C
102
}
330
C
100
AcDbDictionary
281
     1
  3
CANNOSCALE
350
2AC7
  3
CMLEADERSTYLE
350
2AC6
  3
CTABLESTYLE
350
1D4A
  3
DIMASSOC
350
4550
  3
INDEXCTL
350
35
  3
SORTENTS
350
17E2
  3
XCLIPFRAME
350
454F
  0
DICTIONARY
  5
43
102
{ACAD_REACTORS
330
C
102
}
330
C
100
AcDbDictionary
281
     1
  3
AcmBOM
350
1435
  3
AcmStdDictionary
350
15F
  3
AMDTSECTSYM_ARROWCOLOR
350
1B3B
  0
DICTIONARY
  5
2B
102
{ACAD_REACTORS
330
C
102
}
330
C
100
AcDbDictionary
281
     1
  0
DICTIONARY
  5
74
102
{ACAD_REACTORS
330
C
102
}
330
C
100
AcDbDictionary
281
     1
  0
XRECORD
  5
4553
102
{ACAD_REACTORS
330
C
102
}
330
C
100
AcDbXrecord
280
     1
  1
DWGPROPS COOKIE
  2

  3

  4

  6

  7

  8
user
  9

300
AmdtFileType=84
301
=
302
=
303
=
304
=
305
=
306
=
307
=
308
=
309
=
 40
0.5084185532407407
 41
2453060.746216852
 42
2455677.706018252
  1

 90
        1
  0
DICTIONARY
  5
2A73
102
{ACAD_REACTORS
330
242B
102
}
330
242B
100
AcDbDictionary
281
     1
  0
DICTIONARY
  5
242C
102
{ACAD_REACTORS
330
242B
102
}
330
242B
100
AcDbDictionary
280
     1
281
     1
  0
XRECORD
  5
2A57
102
{ACAD_REACTORS
330
2A56
102
}
330
2A56
100
AcDbXrecord
280
     1
290
     1
  0
XRECORD
  5
2A59
102
{ACAD_REACTORS
330
2A58
102
}
330
2A58
100
AcDbXrecord
280
     1
290
     1
  0
XRECORD
  5
2A5B
102
{ACAD_REACTORS
330
2A5A
102
}
330
2A5A
100
AcDbXrecord
280
     1
290
     1
  0
XRECORD
  5
2A5D
102
{ACAD_REACTORS
330
2A5C
102
}
330
2A5C
100
AcDbXrecord
280
     1
290
     1
  0
XRECORD
  5
2A5F
102
{ACAD_REACTORS
330
2A5E
102
}
330
2A5E
100
AcDbXrecord
280
     1
290
     1
  0
XRECORD
  5
2A61
102
{ACAD_REACTORS
330
2A60
102
}
330
2A60
100
AcDbXrecord
280
     1
290
     1
  0
XRECORD
  5
2A63
102
{ACAD_REACTORS
330
2A62
102
}
330
2A62
100
AcDbXrecord
280
     1
290
     1
  0
XRECORD
  5
2A65
102
{ACAD_REACTORS
330
2A64
102
}
330
2A64
100
AcDbXrecord
280
     1
290
     1
  0
XRECORD
  5
2A67
102
{ACAD_REACTORS
330
2A66
102
}
330
2A66
100
AcDbXrecord
280
     1
290
     1
  0
XRECORD
  5
2A69
102
{ACAD_REACTORS
330
2A68
102
}
330
2A68
100
AcDbXrecord
280
     1
290
     1
  0
XRECORD
  5
2A6B
102
{ACAD_REACTORS
330
2A6A
102
}
330
2A6A
100
AcDbXrecord
280
     1
290
     1
  0
XRECORD
  5
2A6D
102
{ACAD_REACTORS
330
2A6C
102
}
330
2A6C
100
AcDbXrecord
280
     1
290
     1
  0
XRECORD
  5
2A6F
102
{ACAD_REACTORS
330
2A6E
102
}
330
2A6E
100
AcDbXrecord
280
     1
290
     1
  0
SORTENTSTABLE
  5
2660
102
{ACAD_REACTORS
330
C9
102
}
330
C9
100
AcDbSortentsTable
330
1F
331
183C
  5
1A75
331
1844
  5
1B94
331
3CEE
  5
3D07
331
3C1F
  5
3CC8
331
3D33
  5
3D69
331
3C27
  5
3CD1
331
3D3B
  5
3D71
331
3D0E
  5
3D29
331
1B9A
  5
2C24
331
3CC7
  5
3CDC
331
3D16
  5
3D31
331
3D73
  5
3F89
331
41D8
  5
41DA
331
185C
  5
1BB3
331
3C00
  5
3C15
331
1BA2
  5
2C7A
331
3CCF
  5
3CE4
331
3C08
  5
3C1D
331
3D1E
  5
3D39
331
25DB
  5
2FD6
331
41E0
  5
41E2
331
3C10
  5
3C25
331
3CD7
  5
3CEF
331
41E8
  5
41EA
331
2B67
  5
31D4
331
3CDF
  5
3CF7
331
3D2E
  5
3D5C
331
41A9
  5
41AB
331
3CE7
  5
3D00
331
41B1
  5
41B3
331
17E5
  5
196F
331
1864
  5
1BBB
331
186C
  5
1BC0
331
1835
  5
19AF
331
1874
  5
1C1D
331
1845
  5
1B95
331
3C18
  5
3CC1
331
1BC2
  5
2FD2
331
3CEF
  5
3D08
331
3C20
  5
3CC9
331
3D34
  5
3D6A
331
3C28
  5
3CD2
331
3D3C
  5
3D72
331
3D0F
  5
3D2A
331
1B9B
  5
2C5D
331
418A
  5
4192
331
3D17
  5
3D32
331
3D74
  5
3F8A
331
41D9
  5
41DB
331
193C
  5
22D6
331
19BC
  5
2B6F
331
3CC8
  5
3CDD
331
3C01
  5
3C16
331
1BA3
  5
2CA7
331
3CD0
  5
3CE5
331
3C09
  5
3C1E
331
3D1F
  5
3D3A
331
4192
  5
4194
331
41E1
  5
41E3
331
2B60
  5
2FD9
331
3CD8
  5
3CF0
331
3C11
  5
3C26
331
3914
  5
3B92
331
41E9
  5
41EB
331
2B68
  5
31D7
331
3CE0
  5
3CF9
331
3D2F
  5
3D60
331
41AA
  5
41AC
331
2B70
  5
3B8E
331
41B2
  5
41B4
331
17E6
  5
1970
331
183E
  5
1A98
331
1846
  5
1B96
331
3CE8
  5
3D01
331
3C19
  5
3CC2
331
1BC3
  5
2FD4
331
41BA
  5
41BC
331
3CF0
  5
3D09
331
3C21
  5
3CCA
331
3D35
  5
3D6B
331
3D3D
  5
3DA1
331
3C29
  5
3CD3
331
3D6D
  5
3CEE
331
1B9C
  5
2C66
331
3D10
  5
3D2B
331
3D75
  5
4021
331
418B
  5
4193
331
41DA
  5
41DC
331
52A
  5
1868
331
1856
  5
1BB0
331
185E
  5
1BB4
331
3C02
  5
3C17
331
3CC9
  5
3CDE
331
3D18
  5
3D33
331
4193
  5
4196
331
41E2
  5
41E4
331
3C0A
  5
3C1F
331
3CD1
  5
3CE6
331
3D20
  5
3D3B
331
2B61
  5
2FDA
331
3C12
  5
3C27
331
3CD9
  5
3CF1
331
3D28
  5
3D41
331
2B69
  5
33B6
331
41AB
  5
41AE
331
3CE1
  5
3CFA
331
2B71
  5
3B8F
331
41B3
  5
41B5
331
17E7
  5
1971
331
1866
  5
1BBC
331
1837
  5
19BC
331
186E
  5
1BC1
331
183F
  5
1AA5
331
1876
  5
22D0
331
1847
  5
1B97
331
3CE9
  5
3D02
331
3C1A
  5
3CC3
331
41BB
  5
41BD
331
3D36
  5
3D6C
331
3CF1
  5
3D0A
331
3C22
  5
3CCB
331
3D3E
  5
3DA2
331
3D09
  5
3D22
331
3D6E
  5
3CED
331
41D3
  5
41D5
331
1B9D
  5
2C6C
331
3BFB
  5
3C10
331
3D11
  5
3D2C
331
41DB
  5
41DD
331
19D6
  5
2B74
331
1BA5
  5
2CA9
331
3C03
  5
3C18
331
3CCA
  5
3CDF
331
3D19
  5
3D34
331
41E3
  5
41E5
331
1BAD
  5
2CB1
331
3CD2
  5
3CE7
331
3D21
  5
3D3E
331
41EB
  5
4286
331
1BBD
  5
2FBD
331
3C13
  5
3C28
331
3CDA
  5
3CF2
331
3D29
  5
3D42
331
35E0
  5
2CB3
331
3916
  5
3B93
331
41AC
  5
41AF
331
3CE2
  5
3CFB
331
41B4
  5
41BA
331
1840
  5
1B90
331
3CEA
  5
3D03
331
3C1B
  5
3CC4
331
41BC
  5
41BE
331
3D37
  5
3D6D
331
3CF2
  5
3D0B
331
3C23
  5
3CCC
331
3D0A
  5
3D23
331
3BFC
  5
3C11
331
3CC3
  5
3CD8
331
3D12
  5
3D2D
331
3D6F
  5
3CF8
331
4185
  5
4187
331
41D4
  5
41D6
331
41DC
  5
41DE
331
1848
  5
1B98
331
1858
  5
1BB1
331
19AF
  5
29D0
331
1BA6
  5
2CAB
331
3C04
  5
3C19
331
3CCB
  5
3CE0
331
3D1A
  5
3D35
331
1BAE
  5
2CB2
331
3C0C
  5
3C21
331
3CD3
  5
3CE8
331
3D22
  5
3D3F
331
41E4
  5
41E6
331
3C14
  5
3C29
331
3CDB
  5
3CF3
331
35E1
  5
2CB0
331
3917
  5
3B94
331
41A5
  5
41A7
331
3CE3
  5
3CFC
331
2B6B
  5
33B7
331
41B5
  5
41BB
331
1860
  5
1BB5
331
1868
  5
1BBE
331
1839
  5
19D6
331
1870
  5
1C1A
331
1841
  5
1B91
331
1878
  5
22D4
331
3CEB
  5
3D04
331
3C1C
  5
3CC5
331
3A4E
  5
3B95
331
3D30
  5
3D66
331
41BD
  5
41BF
331
3CF3
  5
3D0C
331
3C24
  5
3CCD
331
3D38
  5
3D6E
331
3D0B
  5
3D26
331
1B97
  5
2B75
331
3BFD
  5
3C12
331
3D13
  5
3D2E
331
3D70
  5
3CEB
331
4186
  5
4188
331
41D5
  5
41D7
331
41DD
  5
41DF
331
1849
  5
1B99
331
1851
  5
1BA1
331
3C05
  5
3C1A
331
3CCC
  5
3CE1
331
3D1B
  5
3D36
331
3D80
  5
4029
331
1BA7
  5
2CAC
331
3C0D
  5
3C22
331
3CD4
  5
3CE9
331
3D23
  5
3D40
331
4196
  5
41A6
331
41E5
  5
41E7
331
2B64
  5
2FDB
331
3C15
  5
3CBE
331
3CDC
  5
3CF4
331
41A6
  5
41A8
331
3CE4
  5
3CFD
331
41AE
  5
41B0
331
183A
  5
19EA
331
1842
  5
1B92
331
3CEC
  5
3D05
331
3C1D
  5
3CC6
331
3A4F
  5
3B96
331
3D31
  5
3D67
331
41BE
  5
41C7
331
3CF4
  5
3D0D
331
3C25
  5
3CCE
331
3D39
  5
3D6F
331
3D0C
  5
3D27
331
1B98
  5
2B7A
331
1C0F
  5
2FD5
331
3BFE
  5
3C13
331
3D14
  5
3D2F
331
4187
  5
4189
331
41D6
  5
41D8
331
41DE
  5
41E0
331
184A
  5
1B9B
331
185A
  5
1BB2
331
3C06
  5
3C1B
331
3CCD
  5
3CE2
331
3D1C
  5
3D37
331
2B5D
  5
2FD8
331
3C0E
  5
3C23
331
3CD5
  5
3CEA
331
41E6
  5
41E8
331
2B65
  5
2FDD
331
3C16
  5
3CBF
331
3CDD
  5
3CF5
331
3D2C
  5
3D43
331
41A7
  5
41A9
331
2B6D
  5
3914
331
3CE5
  5
3CFE
331
41AF
  5
41B1
331
1862
  5
1BB6
331
186A
  5
1BBF
331
1872
  5
1C1C
331
1843
  5
1B93
331
3CED
  5
3D06
331
3C1E
  5
3CC7
331
3D32
  5
3D68
331
41BF
  5
41D3
331
3C26
  5
3CD0
331
3D3A
  5
3D70
331
3D0D
  5
3D28
331
41C7
  5
41D4
331
1B99
  5
2C21
331
3BFF
  5
3C14
331
3D15
  5
3D30
331
3D72
  5
3F88
331
4188
  5
418A
331
41D7
  5
41D9
331
41DF
  5
41E1
331
184B
  5
1BA0
331
1853
  5
1BA2
331
3C07
  5
3C1C
331
3CCE
  5
3CE3
331
3D1D
  5
3D38
331
3C0F
  5
3C24
331
3CD6
  5
3CEC
331
41E7
  5
41E9
331
2B66
  5
3075
331
3D2D
  5
3D50
331
3C17
  5
3CC0
331
3CDE
  5
3CF6
331
41A8
  5
41AA
331
2B6E
  5
3B8D
331
3CE6
  5
3CFF
331
41B0
  5
41B2
  0
SORTENTSTABLE
  5
3B7C
102
{ACAD_REACTORS
330
3B7B
102
}
330
3B7B
100
AcDbSortentsTable
330
3B51
  0
LAYOUT
  5
22
102
{ACAD_XDICTIONARY
360
2A78
102
}
102
{ACAD_REACTORS
330
1A
102
}
330
1A
100
AcDbPlotSettings
  1

  2
RICOH imagio MP 5000 RPCS
  4
A3
  6
AM_VIEW1
 40
5.873749732971191
 41
5.873747825622558
 42
5.873748779296875
 43
5.873748779296875
 44
296.9259948730469
 45
419.9466552734374
 46
-5.910751819610652
 47
-5.921849237169567
 48
0.0
 49
0.0
140
0.0
141
0.0
142
1.0
143
0.5
 70
 11956
 72
     1
 73
     1
 74
     2
  7
IMAGIO.ctb
 75
    27
147
2.0
148
-115.2696222226474
149
-247.1175262532765
100
AcDbLayout
  1
Model
 70
     1
 71
     0
 10
0.0
 20
0.0
 11
12.0
 21
9.0
 12
0.0
 22
0.0
 32
0.0
 14
0.0
 24
0.0
 34
0.0
 15
0.0
 25
0.0
 35
0.0
146
0.0
 13
0.0
 23
0.0
 33
0.0
 16
1.0
 26
0.0
 36
0.0
 17
0.0
 27
1.0
 37
0.0
 76
     0
330
1F
331
1E18
1001
ACAD_PSEXT
1000
RICOH imagio MP 5000 RPCS
1000
RICOH imagio MP 5000 RPCS
1000
192.168.1.151@
1000
RPCS Driver (Windows 2000/XP/Server 2003/Vista)
1070
     0
  0
LAYOUT
  5
1E
102
{ACAD_XDICTIONARY
360
4554
102
}
102
{ACAD_REACTORS
330
1A
102
}
330
1A
100
AcDbPlotSettings
  1

  2
MF2730
  4

  6

 40
0.0
 41
0.0
 42
0.0
 43
0.0
 44
0.0
 45
0.0
 46
0.0
 47
0.0
 48
0.0
 49
0.0
140
0.0
141
0.0
142
1.0
143
1.0
 70
   688
 72
     0
 73
     0
 74
     5
  7
IMAGIO.ctb
 75
    16
147
1.0
148
0.0
149
0.0
100
AcDbLayout
  1
ﾚｲｱｳﾄ1
 70
     1
 71
     1
 10
0.0
 20
0.0
 11
420.0
 21
297.0
 12
0.0
 22
0.0
 32
0.0
 14
1.000000000000000E+20
 24
1.000000000000000E+20
 34
1.000000000000000E+20
 15
-1.000000000000000E+20
 25
-1.000000000000000E+20
 35
-1.000000000000000E+20
146
0.0
 13
0.0
 23
0.0
 33
0.0
 16
1.0
 26
0.0
 36
0.0
 17
0.0
 27
1.0
 37
0.0
 76
     0
330
1B
  0
LAYOUT
  5
26
102
{ACAD_XDICTIONARY
360
4557
102
}
102
{ACAD_REACTORS
330
1A
102
}
330
1A
100
AcDbPlotSettings
  1

  2
MF2730
  4

  6

 40
0.0
 41
0.0
 42
0.0
 43
0.0
 44
0.0
 45
0.0
 46
0.0
 47
0.0
 48
0.0
 49
0.0
140
0.0
141
0.0
142
1.0
143
1.0
 70
   688
 72
     0
 73
     0
 74
     5
  7
IMAGIO.ctb
 75
    16
147
1.0
148
0.0
149
0.0
100
AcDbLayout
  1
ﾚｲｱｳﾄ2
 70
     1
 71
     2
 10
0.0
 20
0.0
 11
12.0
 21
9.0
 12
0.0
 22
0.0
 32
0.0
 14
0.0
 24
0.0
 34
0.0
 15
0.0
 25
0.0
 35
0.0
146
0.0
 13
0.0
 23
0.0
 33
0.0
 16
1.0
 26
0.0
 36
0.0
 17
0.0
 27
1.0
 37
0.0
 76
     0
330
23
  0
MATERIAL
  5
1AC5
102
{ACAD_XDICTIONARY
360
455B
102
}
102
{ACAD_REACTORS
330
1AC3
102
}
330
1AC3
100
AcDbMaterial
  1
ByBlock
 73
     1
 78
     1
172
     1
176
     1
270
     1
274
     1
  0
MATERIAL
  5
1AC4
102
{ACAD_XDICTIONARY
360
4559
102
}
102
{ACAD_REACTORS
330
1AC3
102
}
330
1AC3
100
AcDbMaterial
  1
ByLayer
 73
     1
 78
     1
172
     1
176
     1
270
     1
274
     1
  0
MATERIAL
  5
1AC6
102
{ACAD_XDICTIONARY
360
455D
102
}
102
{ACAD_REACTORS
330
1AC3
102
}
330
1AC3
100
AcDbMaterial
  1
Global
 73
     1
 78
     1
172
     1
176
     1
270
     1
274
     1
  0
MLEADERSTYLE
  5
277C
102
{ACAD_REACTORS
330
277B
102
}
330
277B
100
AcDbMLeaderStyle
170
     2
171
     1
172
     0
 90
        2
 40
0.0
 41
0.0
173
     1
 91
-1056964608
340
14
 92
       -2
290
     1
 42
2.0
291
     1
 43
0.36
  3
Standard
 44
4.0
300

342
11
174
     1
178
     6
175
     1
176
     0
 93
-1056964608
 45
4.0
292
     0
297
     0
 46
4.0
 94
-1056964608
 47
1.0
 49
1.0
140
1.0
293
     1
141
0.0
294
     1
177
     0
142
1.0
295
     0
296
     0
143
0.125
1001
ACAD_MLEADERVER
1070
     2
  0
MLINESTYLE
  5
18
102
{ACAD_REACTORS
330
17
102
}
330
17
100
AcDbMlineStyle
  2
STANDARD
 70
     0
  3

 62
   256
 51
90.0
 52
90.0
 71
     2
 49
0.5
 62
   256
  6
BYLAYER
 49
-0.5
 62
   256
  6
BYLAYER
  0
ACDBPLACEHOLDER
  5
F
102
{ACAD_REACTORS
330
E
102
}
330
E
  0
SCALE
  5
276A
102
{ACAD_REACTORS
330
2769
102
}
330
2769
100
AcDbScale
 70
     0
300
1:1
140
1.0
141
1.0
290
     1
  0
SCALE
  5
276B
102
{ACAD_REACTORS
330
2769
102
}
330
2769
100
AcDbScale
 70
     0
300
1:2
140
1.0
141
2.0
290
     0
  0
SCALE
  5
276C
102
{ACAD_REACTORS
330
2769
102
}
330
2769
100
AcDbScale
 70
     0
300
1:4
140
1.0
141
4.0
290
     0
  0
SCALE
  5
276D
102
{ACAD_REACTORS
330
2769
102
}
330
2769
100
AcDbScale
 70
     0
300
1:5
140
1.0
141
5.0
290
     0
  0
SCALE
  5
276E
102
{ACAD_REACTORS
330
2769
102
}
330
2769
100
AcDbScale
 70
     0
300
1:8
140
1.0
141
8.0
290
     0
  0
SCALE
  5
276F
102
{ACAD_REACTORS
330
2769
102
}
330
2769
100
AcDbScale
 70
     0
300
1:10
140
1.0
141
10.0
290
     0
  0
SCALE
  5
2770
102
{ACAD_REACTORS
330
2769
102
}
330
2769
100
AcDbScale
 70
     0
300
1:16
140
1.0
141
16.0
290
     0
  0
SCALE
  5
2771
102
{ACAD_REACTORS
330
2769
102
}
330
2769
100
AcDbScale
 70
     0
300
1:20
140
1.0
141
20.0
290
     0
  0
SCALE
  5
2772
102
{ACAD_REACTORS
330
2769
102
}
330
2769
100
AcDbScale
 70
     0
300
1:30
140
1.0
141
30.0
290
     0
  0
SCALE
  5
2773
102
{ACAD_REACTORS
330
2769
102
}
330
2769
100
AcDbScale
 70
     0
300
1:40
140
1.0
141
40.0
290
     0
  0
SCALE
  5
2774
102
{ACAD_REACTORS
330
2769
102
}
330
2769
100
AcDbScale
 70
     0
300
1:50
140
1.0
141
50.0
290
     0
  0
SCALE
  5
2775
102
{ACAD_REACTORS
330
2769
102
}
330
2769
100
AcDbScale
 70
     0
300
1:100
140
1.0
141
100.0
290
     0
  0
SCALE
  5
2776
102
{ACAD_REACTORS
330
2769
102
}
330
2769
100
AcDbScale
 70
     0
300
2:1
140
2.0
141
1.0
290
     0
  0
SCALE
  5
2777
102
{ACAD_REACTORS
330
2769
102
}
330
2769
100
AcDbScale
 70
     0
300
4:1
140
4.0
141
1.0
290
     0
  0
SCALE
  5
2778
102
{ACAD_REACTORS
330
2769
102
}
330
2769
100
AcDbScale
 70
     0
300
8:1
140
8.0
141
1.0
290
     0
  0
SCALE
  5
2779
102
{ACAD_REACTORS
330
2769
102
}
330
2769
100
AcDbScale
 70
     0
300
10:1
140
10.0
141
1.0
290
     0
  0
SCALE
  5
277A
102
{ACAD_REACTORS
330
2769
102
}
330
2769
100
AcDbScale
 70
     0
300
100:1
140
100.0
141
1.0
290
     0
  0
TABLESTYLE
  5
1ADA
102
{ACAD_XDICTIONARY
360
2A7A
102
}
102
{ACAD_REACTORS
330
1AD9
102
}
330
1AD9
100
AcDbTableStyle
  3
Standard
 70
     0
 71
     0
 40
1.5
 41
1.5
280
     0
281
     0
  7
STANDARD
140
4.5
170
     2
 62
     0
 63
     7
283
     0
274
    -2
284
     1
 64
     0
275
    -2
285
     1
 65
     0
276
    -2
286
     1
 66
     0
277
    -2
287
     1
 67
     0
278
    -2
288
     1
 68
     0
279
    -2
289
     1
 69
     0
  7
STANDARD
140
6.0
170
     5
 62
     0
 63
     7
283
     0
274
    -2
284
     1
 64
     0
275
    -2
285
     1
 65
     0
276
    -2
286
     1
 66
     0
277
    -2
287
     1
 67
     0
278
    -2
288
     1
 68
     0
279
    -2
289
     1
 69
     0
  7
STANDARD
140
4.5
170
     5
 62
     0
 63
     7
283
     0
274
    -2
284
     1
 64
     0
275
    -2
285
     1
 65
     0
276
    -2
286
     1
 66
     0
277
    -2
287
     1
 67
     0
278
    -2
288
     1
 68
     0
279
    -2
289
     1
 69
     0
  0
VISUALSTYLE
  5
1ACD
102
{ACAD_XDICTIONARY
360
4569
102
}
102
{ACAD_REACTORS
330
1AC7
102
}
330
1AC7
100
AcDbVisualStyle
  2
2dWireframe
 70
     4
 71
     0
 72
     2
 73
     0
 90
        0
 40
-0.6
 41
-30.0
 62
     5
 63
     7
 74
     1
 91
        4
 64
     7
 65
   257
 75
     1
175
     1
 42
1.0
 92
        0
 66
   257
 43
1.0
 76
     1
 77
     6
 78
     2
 67
     7
 79
     5
170
     0
171
     0
290
     0
174
     0
 93
        1
 44
0.0
173
     0
291
     0
 45
0.0
1001
ACAD
1000
AcDbSavedByObjectVersion
1070
     0
  0
VISUALSTYLE
  5
1ACF
102
{ACAD_XDICTIONARY
360
456D
102
}
102
{ACAD_REACTORS
330
1AC7
102
}
330
1AC7
100
AcDbVisualStyle
  2
3D Hidden
 70
     6
 71
     1
 72
     2
 73
     2
 90
        0
 40
-0.6
 41
-30.0
 62
     5
 63
     7
 74
     2
 91
        2
 64
     7
 65
   257
 75
     2
175
     1
 42
40.0
 92
        0
 66
   257
 43
1.0
 76
     1
 77
     6
 78
     2
 67
     7
 79
     3
170
     0
171
     0
290
     0
174
     0
 93
        1
 44
0.0
173
     0
291
     0
 45
0.0
1001
ACAD
1000
AcDbSavedByObjectVersion
1070
     0
  0
VISUALSTYLE
  5
1ACE
102
{ACAD_XDICTIONARY
360
456B
102
}
102
{ACAD_REACTORS
330
1AC7
102
}
330
1AC7
100
AcDbVisualStyle
  2
3dWireframe
 70
     5
 71
     0
 72
     2
 73
     0
 90
        0
 40
-0.6
 41
-30.0
 62
     5
 63
     7
 74
     1
 91
        4
 64
     7
 65
   257
 75
     1
175
     1
 42
1.0
 92
        0
 66
   257
 43
1.0
 76
     1
 77
     6
 78
     2
 67
     7
 79
     5
170
     0
171
     0
290
     0
174
     0
 93
        1
 44
0.0
173
     0
291
     0
 45
0.0
1001
ACAD
1000
AcDbSavedByObjectVersion
1070
     0
  0
VISUALSTYLE
  5
1ACC
102
{ACAD_XDICTIONARY
360
4567
102
}
102
{ACAD_REACTORS
330
1AC7
102
}
330
1AC7
100
AcDbVisualStyle
  2
Basic
 70
     7
 71
     1
 72
     0
 73
     1
 90
        0
 40
-0.6
 41
-30.0
 62
     5
 63
     7
 74
     0
 91
        4
 64
     7
 65
   257
 75
     1
175
     1
 42
1.0
 92
        8
 66
     7
 43
1.0
 76
     1
 77
     6
 78
     2
 67
     7
 79
     5
170
     0
171
     0
290
     0
174
     0
 93
        1
 44
0.0
173
     0
291
     1
 45
0.0
1001
ACAD
1000
AcDbSavedByObjectVersion
1070
     0
  0
VISUALSTYLE
  5
1AD3
102
{ACAD_XDICTIONARY
360
4575
102
}
102
{ACAD_REACTORS
330
1AC7
102
}
330
1AC7
100
AcDbVisualStyle
  2
Brighten
 70
    12
 71
     2
 72
     2
 73
     0
 90
        0
 40
-0.6
 41
-30.0
 62
     5
 63
     7
 74
     1
 91
        4
 64
     7
 65
   257
 75
     1
175
     1
 42
1.0
 92
        8
 66
     7
 43
1.0
 76
     1
 77
     6
 78
     2
 67
     7
 79
     5
170
     0
171
     0
290
     0
174
     0
 93
        1
 44
50.0
173
     0
291
     1
 45
0.0
1001
ACAD
1000
AcDbSavedByObjectVersion
1070
     0
  0
VISUALSTYLE
  5
1AD7
102
{ACAD_XDICTIONARY
360
457D
102
}
102
{ACAD_REACTORS
330
1AC7
102
}
330
1AC7
100
AcDbVisualStyle
  2
ColorChange
 70
    16
 71
     2
 72
     2
 73
     3
 90
        0
 40
-0.6
 41
-30.0
 62
     5
 63
     8
 74
     1
 91
        4
 64
     7
 65
   257
 75
     1
175
     1
 42
1.0
 92
        8
 66
     8
 43
1.0
 76
     1
 77
     6
 78
     2
 67
     7
 79
     5
170
     0
171
     0
290
     0
174
     0
 93
        1
 44
0.0
173
     0
291
     1
 45
0.0
1001
ACAD
1000
AcDbSavedByObjectVersion
1070
     0
  0
VISUALSTYLE
  5
1AD0
102
{ACAD_XDICTIONARY
360
456F
102
}
102
{ACAD_REACTORS
330
1AC7
102
}
330
1AC7
100
AcDbVisualStyle
  2
Conceptual
 70
     9
 71
     3
 72
     2
 73
     0
 90
        0
 40
-0.6
 41
-30.0
 62
     5
 63
     7
 74
     2
 91
        2
 64
     7
 65
   257
 75
     1
175
     1
 42
40.0
 92
        8
 66
     7
 43
1.0
 76
     1
 77
     6
 78
     2
 67
     7
 79
     3
170
     0
171
     0
290
     0
174
     0
 93
        1
 44
0.0
173
     0
291
     0
 45
0.0
1001
ACAD
1000
AcDbSavedByObjectVersion
1070
     0
  0
VISUALSTYLE
  5
1AD2
102
{ACAD_XDICTIONARY
360
4573
102
}
102
{ACAD_REACTORS
330
1AC7
102
}
330
1AC7
100
AcDbVisualStyle
  2
Dim
 70
    11
 71
     2
 72
     2
 73
     0
 90
        0
 40
-0.6
 41
-30.0
 62
     5
 63
     7
 74
     1
 91
        4
 64
     7
 65
   257
 75
     1
175
     1
 42
1.0
 92
        8
 66
     7
 43
1.0
 76
     1
 77
     6
 78
     2
 67
     7
 79
     5
170
     0
171
     0
290
     0
174
     0
 93
        1
 44
-50.0
173
     0
291
     1
 45
0.0
1001
ACAD
1000
AcDbSavedByObjectVersion
1070
     0
  0
VISUALSTYLE
  5
2768
102
{ACAD_XDICTIONARY
360
4592
102
}
102
{ACAD_REACTORS
330
1AC7
102
}
330
1AC7
100
AcDbVisualStyle
  2
EdgeColorOff
 70
    22
 71
     2
 72
     2
 73
     0
 90
        0
 40
-0.6
 41
-30.0
 62
     5
 63
     7
 74
     1
 91
        4
 64
     7
 65
   257
 75
     1
175
     1
 42
1.0
 92
        8
 66
     7
 43
1.0
 76
     1
 77
     6
 78
     2
 67
     7
 79
     5
170
     0
171
     0
290
     0
174
     0
 93
        1
 44
0.0
173
     0
291
     1
 45
0.0
1001
ACAD
1000
AcDbSavedByObjectVersion
1070
     0
  0
VISUALSTYLE
  5
1AD6
102
{ACAD_XDICTIONARY
360
457B
102
}
102
{ACAD_REACTORS
330
1AC7
102
}
330
1AC7
100
AcDbVisualStyle
  2
Facepattern
 70
    15
 71
     2
 72
     2
 73
     0
 90
        0
 40
-0.6
 41
-30.0
 62
     5
 63
     7
 74
     1
 91
        4
 64
     7
 65
   257
 75
     1
175
     1
 42
1.0
 92
        8
 66
     7
 43
1.0
 76
     1
 77
     6
 78
     2
 67
     7
 79
     5
170
     0
171
     0
290
     0
174
     0
 93
        1
 44
0.0
173
     0
291
     1
 45
0.0
1001
ACAD
1000
AcDbSavedByObjectVersion
1070
     0
  0
VISUALSTYLE
  5
1AC8
102
{ACAD_XDICTIONARY
360
455F
102
}
102
{ACAD_REACTORS
330
1AC7
102
}
330
1AC7
100
AcDbVisualStyle
  2
Flat
 70
     0
 71
     2
 72
     1
 73
     1
 90
        2
 40
-0.6
 41
30.0
 62
     5
 63
     7
 74
     0
 91
        4
 64
     7
 65
   257
 75
     1
175
     1
 42
1.0
 92
        8
 66
     7
 43
1.0
 76
     1
 77
     6
 78
     2
 67
     7
 79
     5
170
     0
171
     0
290
     0
174
     0
 93
       13
 44
0.0
173
     0
291
     1
 45
0.0
1001
ACAD
1000
AcDbSavedByObjectVersion
1070
     0
  0
VISUALSTYLE
  5
1AC9
102
{ACAD_XDICTIONARY
360
4561
102
}
102
{ACAD_REACTORS
330
1AC7
102
}
330
1AC7
100
AcDbVisualStyle
  2
FlatWithEdges
 70
     1
 71
     2
 72
     1
 73
     1
 90
        2
 40
-0.6
 41
30.0
 62
     5
 63
     7
 74
     1
 91
        4
 64
     7
 65
   257
 75
     1
175
     1
 42
1.0
 92
        0
 66
   257
 43
1.0
 76
     1
 77
     6
 78
     2
 67
     7
 79
     5
170
     0
171
     0
290
     0
174
     0
 93
       13
 44
0.0
173
     0
291
     1
 45
0.0
1001
ACAD
1000
AcDbSavedByObjectVersion
1070
     0
  0
VISUALSTYLE
  5
1ACA
102
{ACAD_XDICTIONARY
360
4563
102
}
102
{ACAD_REACTORS
330
1AC7
102
}
330
1AC7
100
AcDbVisualStyle
  2
Gouraud
 70
     2
 71
     2
 72
     2
 73
     1
 90
        2
 40
-0.6
 41
30.0
 62
     5
 63
     7
 74
     0
 91
        4
 64
     7
 65
   257
 75
     1
175
     1
 42
1.0
 92
        0
 66
     7
 43
1.0
 76
     1
 77
     6
 78
     2
 67
     7
 79
     5
170
     0
171
     0
290
     0
174
     0
 93
       13
 44
0.0
173
     0
291
     1
 45
0.0
1001
ACAD
1000
AcDbSavedByObjectVersion
1070
     0
  0
VISUALSTYLE
  5
1ACB
102
{ACAD_XDICTIONARY
360
4565
102
}
102
{ACAD_REACTORS
330
1AC7
102
}
330
1AC7
100
AcDbVisualStyle
  2
GouraudWithEdges
 70
     3
 71
     2
 72
     2
 73
     1
 90
        2
 40
-0.6
 41
30.0
 62
     5
 63
     7
 74
     1
 91
        4
 64
     7
 65
   257
 75
     1
175
     1
 42
1.0
 92
        0
 66
   257
 43
1.0
 76
     1
 77
     6
 78
     2
 67
     7
 79
     5
170
     0
171
     0
290
     0
174
     0
 93
       13
 44
0.0
173
     0
291
     1
 45
0.0
1001
ACAD
1000
AcDbSavedByObjectVersion
1070
     0
  0
VISUALSTYLE
  5
2760
102
{ACAD_XDICTIONARY
360
4582
102
}
102
{ACAD_REACTORS
330
1AC7
102
}
330
1AC7
100
AcDbVisualStyle
  2
Hidden
 70
     6
 71
     1
 72
     2
 73
     2
 90
        0
 40
-0.6
 41
-30.0
 62
     5
 63
     7
 74
     2
 91
        2
 64
     7
 65
   257
 75
     2
175
     1
 42
40.0
 92
        0
 66
   257
 43
1.0
 76
     1
 77
     6
 78
     2
 67
     7
 79
     3
170
     0
171
     0
290
     0
174
     0
 93
        1
 44
0.0
173
     0
291
     0
 45
0.0
1001
ACAD
1000
AcDbSavedByObjectVersion
1070
     0
  0
VISUALSTYLE
  5
2766
102
{ACAD_XDICTIONARY
360
458E
102
}
102
{ACAD_REACTORS
330
1AC7
102
}
330
1AC7
100
AcDbVisualStyle
  2
JitterOff
 70
    20
 71
     2
 72
     2
 73
     0
 90
        0
 40
-0.6
 41
-30.0
 62
     5
 63
     7
 74
     1
 91
        4
 64
     7
 65
   257
 75
     1
175
     1
 42
1.0
 92
       10
 66
     7
 43
1.0
 76
     1
 77
     6
 78
     2
 67
     7
 79
     5
170
     0
171
     0
290
     0
174
     0
 93
        1
 44
0.0
173
     0
291
     1
 45
0.0
1001
ACAD
1000
AcDbSavedByObjectVersion
1070
     0
  0
VISUALSTYLE
  5
1AD5
102
{ACAD_XDICTIONARY
360
4579
102
}
102
{ACAD_REACTORS
330
1AC7
102
}
330
1AC7
100
AcDbVisualStyle
  2
Linepattern
 70
    14
 71
     2
 72
     2
 73
     0
 90
        0
 40
-0.6
 41
-30.0
 62
     5
 63
     7
 74
     1
 91
        4
 64
     7
 65
   257
 75
     7
175
     7
 42
1.0
 92
        8
 66
     7
 43
1.0
 76
     1
 77
     6
 78
     2
 67
     7
 79
     5
170
     0
171
     0
290
     0
174
     0
 93
        1
 44
0.0
173
     0
291
     1
 45
0.0
1001
ACAD
1000
AcDbSavedByObjectVersion
1070
     0
  0
VISUALSTYLE
  5
2767
102
{ACAD_XDICTIONARY
360
4590
102
}
102
{ACAD_REACTORS
330
1AC7
102
}
330
1AC7
100
AcDbVisualStyle
  2
OverhangOff
 70
    21
 71
     2
 72
     2
 73
     0
 90
        0
 40
-0.6
 41
-30.0
 62
     5
 63
     7
 74
     1
 91
        4
 64
     7
 65
   257
 75
     1
175
     1
 42
1.0
 92
        9
 66
     7
 43
1.0
 76
     1
 77
     6
 78
     2
 67
     7
 79
     5
170
     0
171
     0
290
     0
174
     0
 93
        1
 44
0.0
173
     0
291
     1
 45
0.0
1001
ACAD
1000
AcDbSavedByObjectVersion
1070
     0
  0
VISUALSTYLE
  5
1AD1
102
{ACAD_XDICTIONARY
360
4571
102
}
102
{ACAD_REACTORS
330
1AC7
102
}
330
1AC7
100
AcDbVisualStyle
  2
Realistic
 70
     8
 71
     2
 72
     2
 73
     0
 90
        0
 40
-0.6
 41
-30.0
 62
     5
 63
     7
 74
     1
 91
        0
 64
     7
 65
   257
 75
     1
175
     1
 42
1.0
 92
        8
 66
     8
 43
1.0
 76
     1
 77
     6
 78
     2
 67
     7
 79
     5
170
     0
171
     0
290
     0
174
     0
 93
       13
 44
0.0
173
     0
291
     0
 45
0.0
1001
ACAD
1000
AcDbSavedByObjectVersion
1070
     0
  0
VISUALSTYLE
  5
2765
102
{ACAD_XDICTIONARY
360
458C
102
}
102
{ACAD_REACTORS
330
1AC7
102
}
330
1AC7
100
AcDbVisualStyle
  2
Shaded
 70
    27
 71
     2
 72
     2
 73
     1
 90
        2
 40
-0.6
 41
30.0
 62
     5
 63
     7
 74
     0
 91
        4
 64
     7
 65
   257
 75
     1
175
     1
 42
1.0
 92
        8
 66
   257
 43
1.0
 76
     1
 77
     6
 78
     2
 67
     8
 79
     3
170
     0
171
     0
290
     0
174
     0
 93
        5
 44
0.0
173
     0
291
     0
 45
0.0
1001
ACAD
1000
AcDbSavedByObjectVersion
1070
     0
  0
VISUALSTYLE
  5
2764
102
{ACAD_XDICTIONARY
360
458A
102
}
102
{ACAD_REACTORS
330
1AC7
102
}
330
1AC7
100
AcDbVisualStyle
  2
Shaded with edges
 70
    26
 71
     2
 72
     2
 73
     1
 90
        2
 40
-0.6
 41
30.0
 62
     5
 63
     7
 74
     1
 91
       10
 64
     7
 65
   257
 75
     2
175
     1
 42
1.0
 92
        8
 66
   257
 43
1.0
 76
     1
 77
     6
 78
     2
 67
     7
 79
     3
170
     0
171
     0
290
     0
174
     0
 93
        5
 44
0.0
173
     0
291
     0
 45
0.0
1001
ACAD
1000
AcDbSavedByObjectVersion
1070
     0
  0
VISUALSTYLE
  5
2761
102
{ACAD_XDICTIONARY
360
4584
102
}
102
{ACAD_REACTORS
330
1AC7
102
}
330
1AC7
100
AcDbVisualStyle
  2
Shades of Gray
 70
    23
 71
     2
 72
     2
 73
     3
 90
        0
 40
-0.6
 41
-30.0
 62
     5
 63
     7
 74
     2
 91
        2
 64
     7
 65
     7
 75
     1
175
     1
 42
40.0
 92
        8
 66
     7
 43
1.0
 76
     1
 77
     6
 78
     2
 67
     7
 79
     3
170
     0
171
     0
290
     0
174
     0
 93
        1
 44
0.0
173
     0
291
     0
 45
0.0
1001
ACAD
1000
AcDbSavedByObjectVersion
1070
     0
  0
VISUALSTYLE
  5
2762
102
{ACAD_XDICTIONARY
360
4586
102
}
102
{ACAD_REACTORS
330
1AC7
102
}
330
1AC7
100
AcDbVisualStyle
  2
Sketchy
 70
    24
 71
     1
 72
     2
 73
     2
 90
        0
 40
-0.6
 41
-30.0
 62
     5
 63
     7
 74
     2
 91
        2
 64
     7
 65
     7
 75
     1
175
     1
 42
40.0
 92
       11
 66
     7
 43
1.0
 76
     1
 77
     6
 78
     2
 67
     7
 79
     6
170
     0
171
     0
290
     0
174
     0
 93
        1
 44
0.0
173
     0
291
     0
 45
0.0
1001
ACAD
1000
AcDbSavedByObjectVersion
1070
     0
  0
VISUALSTYLE
  5
1AD4
102
{ACAD_XDICTIONARY
360
4577
102
}
102
{ACAD_REACTORS
330
1AC7
102
}
330
1AC7
100
AcDbVisualStyle
  2
Thicken
 70
    13
 71
     2
 72
     2
 73
     0
 90
        0
 40
-0.6
 41
-30.0
 62
     5
 63
     7
 74
     1
 91
        4
 64
     7
 65
   257
 75
     1
175
     1
 42
1.0
 92
       12
 66
     7
 43
1.0
 76
     1
 77
     6
 78
     2
 67
     7
 79
     5
170
     0
171
     0
290
     0
174
     0
 93
        1
 44
0.0
173
     0
291
     1
 45
0.0
1001
ACAD
1000
AcDbSavedByObjectVersion
1070
     0
  0
VISUALSTYLE
  5
275F
102
{ACAD_XDICTIONARY
360
4580
102
}
102
{ACAD_REACTORS
330
1AC7
102
}
330
1AC7
100
AcDbVisualStyle
  2
Wireframe
 70
     5
 71
     0
 72
     2
 73
     0
 90
        0
 40
-0.6
 41
-30.0
 62
     5
 63
     7
 74
     1
 91
        4
 64
     7
 65
   257
 75
     1
175
     1
 42
1.0
 92
        0
 66
   257
 43
1.0
 76
     1
 77
     6
 78
     2
 67
     7
 79
     3
170
     0
171
     0
290
     0
174
     0
 93
        1
 44
0.0
173
     0
291
     0
 45
0.0
1001
ACAD
1000
AcDbSavedByObjectVersion
1070
     0
  0
VISUALSTYLE
  5
2763
102
{ACAD_XDICTIONARY
360
4588
102
}
102
{ACAD_REACTORS
330
1AC7
102
}
330
1AC7
100
AcDbVisualStyle
  2
X-Ray
 70
    25
 71
     2
 72
     2
 73
     1
 90
        1
 40
0.5
 41
-30.0
 62
     5
 63
     7
 74
     1
 91
        0
 64
     7
 65
   257
 75
     1
175
     1
 42
1.0
 92
        8
 66
     7
 43
1.0
 76
     1
 77
     6
 78
     2
 67
     7
 79
     3
170
     0
171
     0
290
     0
174
     0
 93
       13
 44
0.0
173
     0
291
     0
 45
0.0
1001
ACAD
1000
AcDbSavedByObjectVersion
1070
     0
  0
DICTIONARYVAR
  5
2AC7
102
{ACAD_REACTORS
330
34
102
}
330
34
100
DictionaryVariables
280
     0
  1
1:1
  0
DICTIONARYVAR
  5
2AC6
102
{ACAD_REACTORS
330
34
102
}
330
34
100
DictionaryVariables
280
     0
  1
STANDARD
  0
DICTIONARYVAR
  5
1D4A
102
{ACAD_REACTORS
330
34
102
}
330
34
100
DictionaryVariables
280
     0
  1
STANDARD
  0
DICTIONARYVAR
  5
4550
102
{ACAD_REACTORS
330
34
102
}
330
34
100
DictionaryVariables
280
     0
  1
2
  0
DICTIONARYVAR
  5
35
102
{ACAD_REACTORS
330
34
102
}
330
34
100
DictionaryVariables
280
     0
  1
0
  0
DICTIONARYVAR
  5
17E2
102
{ACAD_REACTORS
330
34
102
}
330
34
100
DictionaryVariables
280
     0
  1
127
  0
DICTIONARYVAR
  5
454F
102
{ACAD_REACTORS
330
34
102
}
330
34
100
DictionaryVariables
280
     0
  1
0
  0
DICTIONARY
  5
1435
102
{ACAD_REACTORS
330
43
102
}
330
43
100
AcDbDictionary
281
     1
  0
DICTIONARY
  5
15F
102
{ACAD_REACTORS
330
43
102
}
330
43
100
AcDbDictionary
281
     1
  0
XRECORD
  5
1B3B
102
{ACAD_REACTORS
330
43
102
}
330
43
100
AcDbXrecord
280
     1
 90
-1023410169
  0
DICTIONARY
  5
2A78
330
22
100
AcDbDictionary
280
     1
281
     1
  3
ACAD_XREC_ROUNDTRIP
360
4556
  3
ADSK_XREC_LAYOUTTHUMBNAIL
360
2A79
  0
DICTIONARY
  5
4554
330
1E
100
AcDbDictionary
280
     1
281
     1
  3
ACAD_XREC_ROUNDTRIP
360
4555
  0
DICTIONARY
  5
4557
330
26
100
AcDbDictionary
280
     1
281
     1
  3
ACAD_XREC_ROUNDTRIP
360
4558
  0
DICTIONARY
  5
455B
330
1AC5
100
AcDbDictionary
280
     1
281
     1
  3
ACAD_XREC_ROUNDTRIP
360
455C
  0
DICTIONARY
  5
4559
330
1AC4
100
AcDbDictionary
280
     1
281
     1
  3
ACAD_XREC_ROUNDTRIP
360
455A
  0
DICTIONARY
  5
455D
330
1AC6
100
AcDbDictionary
280
     1
281
     1
  3
ACAD_XREC_ROUNDTRIP
360
455E
  0
DICTIONARY
  5
2A7A
330
1ADA
100
AcDbDictionary
280
     1
281
     1
  3
ACAD_ROUNDTRIP_2008_TABLESTYLE_CELLSTYLEMAP
360
4551
  3
ACAD_XREC_ROUNDTRIP
360
457F
  0
DICTIONARY
  5
4569
330
1ACD
100
AcDbDictionary
280
     1
281
     1
  3
ACAD_XREC_ROUNDTRIP
360
456A
  0
DICTIONARY
  5
456D
330
1ACF
100
AcDbDictionary
280
     1
281
     1
  3
ACAD_XREC_ROUNDTRIP
360
456E
  0
DICTIONARY
  5
456B
330
1ACE
100
AcDbDictionary
280
     1
281
     1
  3
ACAD_XREC_ROUNDTRIP
360
456C
  0
DICTIONARY
  5
4567
330
1ACC
100
AcDbDictionary
280
     1
281
     1
  3
ACAD_XREC_ROUNDTRIP
360
4568
  0
DICTIONARY
  5
4575
330
1AD3
100
AcDbDictionary
280
     1
281
     1
  3
ACAD_XREC_ROUNDTRIP
360
4576
  0
DICTIONARY
  5
457D
330
1AD7
100
AcDbDictionary
280
     1
281
     1
  3
ACAD_XREC_ROUNDTRIP
360
457E
  0
DICTIONARY
  5
456F
330
1AD0
100
AcDbDictionary
280
     1
281
     1
  3
ACAD_XREC_ROUNDTRIP
360
4570
  0
DICTIONARY
  5
4573
330
1AD2
100
AcDbDictionary
280
     1
281
     1
  3
ACAD_XREC_ROUNDTRIP
360
4574
  0
DICTIONARY
  5
4592
330
2768
100
AcDbDictionary
280
     1
281
     1
  3
ACAD_XREC_ROUNDTRIP
360
4593
  0
DICTIONARY
  5
457B
330
1AD6
100
AcDbDictionary
280
     1
281
     1
  3
ACAD_XREC_ROUNDTRIP
360
457C
  0
DICTIONARY
  5
455F
330
1AC8
100
AcDbDictionary
280
     1
281
     1
  3
ACAD_XREC_ROUNDTRIP
360
4560
  0
DICTIONARY
  5
4561
330
1AC9
100
AcDbDictionary
280
     1
281
     1
  3
ACAD_XREC_ROUNDTRIP
360
4562
  0
DICTIONARY
  5
4563
330
1ACA
100
AcDbDictionary
280
     1
281
     1
  3
ACAD_XREC_ROUNDTRIP
360
4564
  0
DICTIONARY
  5
4565
330
1ACB
100
AcDbDictionary
280
     1
281
     1
  3
ACAD_XREC_ROUNDTRIP
360
4566
  0
DICTIONARY
  5
4582
330
2760
100
AcDbDictionary
280
     1
281
     1
  3
ACAD_XREC_ROUNDTRIP
360
4583
  0
DICTIONARY
  5
458E
330
2766
100
AcDbDictionary
280
     1
281
     1
  3
ACAD_XREC_ROUNDTRIP
360
458F
  0
DICTIONARY
  5
4579
330
1AD5
100
AcDbDictionary
280
     1
281
     1
  3
ACAD_XREC_ROUNDTRIP
360
457A
  0
DICTIONARY
  5
4590
330
2767
100
AcDbDictionary
280
     1
281
     1
  3
ACAD_XREC_ROUNDTRIP
360
4591
  0
DICTIONARY
  5
4571
330
1AD1
100
AcDbDictionary
280
     1
281
     1
  3
ACAD_XREC_ROUNDTRIP
360
4572
  0
DICTIONARY
  5
458C
330
2765
100
AcDbDictionary
280
     1
281
     1
  3
ACAD_XREC_ROUNDTRIP
360
458D
  0
DICTIONARY
  5
458A
330
2764
100
AcDbDictionary
280
     1
281
     1
  3
ACAD_XREC_ROUNDTRIP
360
458B
  0
DICTIONARY
  5
4584
330
2761
100
AcDbDictionary
280
     1
281
     1
  3
ACAD_XREC_ROUNDTRIP
360
4585
  0
DICTIONARY
  5
4586
330
2762
100
AcDbDictionary
280
     1
281
     1
  3
ACAD_XREC_ROUNDTRIP
360
4587
  0
DICTIONARY
  5
4577
330
1AD4
100
AcDbDictionary
280
     1
281
     1
  3
ACAD_XREC_ROUNDTRIP
360
4578
  0
DICTIONARY
  5
4580
330
275F
100
AcDbDictionary
280
     1
281
     1
  3
ACAD_XREC_ROUNDTRIP
360
4581
  0
DICTIONARY
  5
4588
330
2763
100
AcDbDictionary
280
     1
281
     1
  3
ACAD_XREC_ROUNDTRIP
360
4589
  0
XRECORD
  5
4556
102
{ACAD_REACTORS
330
2A78
102
}
330
2A78
100
AcDbXrecord
280
     1
102
SHADEPLOT
 70
     0
102
SHADEPLOTRESLEVEL
 70
     2
102
SHADEPLOTCUSTOMDPI
 70
   300
  0
XRECORD
  5
2A79
102
{ACAD_REACTORS
330
2A78
102
}
330
2A78
100
AcDbXrecord
280
     1
310
28000000000100007B0000000100080000000000007B0000000000000000000000010000000000000000000000000000FFFFFF000000000000000000000000000000000000000000000000000000000000000000330000006600000099000000CC000000FF00000000330000333300006633000099330000CC330000FF3300
310
0000660000336600006666000099660000CC660000FF66000000990000339900006699000099990000CC990000FF99000000CC000033CC000066CC000099CC0000CCCC0000FFCC000000FF000033FF000066FF000099FF0000CCFF0000FFFF000000003300330033006600330099003300CC003300FF003300003333003333
310
33006633330099333300CC333300FF33330000663300336633006666330099663300CC663300FF66330000993300339933006699330099993300CC993300FF99330000CC330033CC330066CC330099CC3300CCCC3300FFCC330000FF330033FF330066FF330099FF3300CCFF3300FFFF330000006600330066006600660099
310
006600CC006600FF00660000336600333366006633660099336600CC336600FF33660000666600336666006666660099666600CC666600FF66660000996600339966006699660099996600CC996600FF99660000CC660033CC660066CC660099CC6600CCCC6600FFCC660000FF660033FF660066FF660099FF6600CCFF6600
310
FFFF660000009900330099006600990099009900CC009900FF00990000339900333399006633990099339900CC339900FF33990000669900336699006666990099669900CC669900FF66990000999900339999006699990099999900CC999900FF99990000CC990033CC990066CC990099CC9900CCCC9900FFCC990000FF99
310
0033FF990066FF990099FF9900CCFF9900FFFF99000000CC003300CC006600CC009900CC00CC00CC00FF00CC000033CC003333CC006633CC009933CC00CC33CC00FF33CC000066CC003366CC006666CC009966CC00CC66CC00FF66CC000099CC003399CC006699CC009999CC00CC99CC00FF99CC0000CCCC0033CCCC0066CC
310
CC0099CCCC00CCCCCC00FFCCCC0000FFCC0033FFCC0066FFCC0099FFCC00CCFFCC00FFFFCC000000FF003300FF006600FF009900FF00CC00FF00FF00FF000033FF003333FF006633FF009933FF00CC33FF00FF33FF000066FF003366FF006666FF009966FF00CC66FF00FF66FF000099FF003399FF006699FF009999FF00CC
310
99FF00FF99FF0000CCFF0033CCFF0066CCFF0099CCFF00CCCCFF00FFCCFF0000FFFF0033FFFF0066FFFF0099FFFF00CCFFFF00FFFFFF00000000000D0D0D001A1A1A00282828003535350043434300505050005D5D5D006B6B6B00787878008686860093939300A1A1A100AEAEAE00BBBBBB00C9C9C900D6D6D600E4E4E400
310
F1F1F100FFFFFF000000000000000000000000000000000000000000000000000000000000000000000000000000000000000000000000000000000000000000000000000000000000000000000000000000000000000000000000000000000000000000000000000000000000000000000000000000000000000000000000
310
000000000000000000000000000000000000000000000000000000000000000000000000000000000000000000000000000000000000000000000000000000000000000000000000000000000000000000000000000000000000000000000000002D0000000000000000000000000000000000000000000000000000000000
310
00000000000000000000000000000000000000000000000000000000000000000000000000000000000000000000000000000000000000000000000000000000000000000000000000000000000000000000000000000000000000000000000000000000000000000000000000000000000000000000000000000000000000
310
00000000000000000000000000000000000000000000000000000000000000002D0000000000000000000000000000000000000000000000000000000000000000000000000000000000000000000000000000000000000000000000000000000000002D000000000000000000000000000000000000000000000000000000
310
00000000000000000000000000000000000000000000000000000000000000000000000000000000000000000000000000000000000000000000000000000000000000000000000000000000000000000000000000000000000000000000000000000000000000000000000000000000000000000000000000000000000000
310
000000000000000000000000000000000000000000000000000000000000000000002D0000000000000000000000000000000000000000000000000000000000000000000000000000000000000000000000000000000000000000000000000000000000002D00000000000000000000000000000000000000000000000000
310
00000000000000000000000000000000000000000000000000000000000000000000000000000000000000000000000000000000000000000000000000000000000000000000000000000000000000000000000000000000000000000000000000000000000000000000000000000000000000000000000000000000000000
310
00000000000000000000000000000000000000000000000000000000000000F5F5F5F5F5F5F5F5F5F5F500000000000000000000000000000000000000000000000000000000000000000000000000000000000000000000000000000000000000F5F5F5F5F5F5F5F5F5F5F5F5000000000000000000000000000000000000
310
00000000000000000000000000000000000000000000000000000000000000000000000000000000000000000000000000000000000000000000000000000000000000000000000000000000000000000000000000000000000000000000000000000000000000000000000000000000000000000000000000000000000000
310
000000000000000000000000000000000000000000000000000000000000000000F5000000002D00000000F500000000000000000000000000000000000000000000000000000000000000000000000000000000000000000000000000000000000000F500000000002D00000000F500000000000000000000000000000000
310
00000000000000000000000000000000000000000000000000000000000000000000000000000000000000000000000000000000000000000000000000000000000000000000000000000000000000000000000000000000000000000000000000000000000000000000000000000000000000000000000000000000000000
310
000000000000000000F5F5F5F5F5F5F5F5F5F500000000000000000000000000000000F5000000002D0000000000F5F5F500000000000000000000000000000000000000000000000000000000000000000000000000000000000000000000000000000000F500000000F5F500000000F50000000000000000000000000000
310
00000000000000000000000000000000000000000000000000000000000000000000000000000000000000000000000000000000000000000000000000000000000000000000000000000000000000000000000000000000000000000000000000000000000000000000000000000000000000000000000000000000000000
310
00000000000000000000F500000000000000F50000F5000000000000000000000000000000F5000000002D0000000000000000F5F5F5F5000000000000000000000000000000000000000000000000000000000000000000000000000000000000000000000000F50000F5F5002DF5F50000F5000000000000000000000000
310
00000000000000000000000000000000000000000000000000000000000000000000000000000000000000000000000000000000000000000000000000000000000000000000000000000000000000000000000000000000000000000000000000000000000000000000000000000000000000000000000000000000000000
310
000000000000000000F5F5F5F500000000000000000000F50000000000000000000000000000F5F5000000002D000000000000000000000000F5F5F5F50000000000000000000000000000000000000000000000000000000000000000000000000000000000000000F500F50000002D0000F500F500000000000000000000
310
00000000000000000000000000000000000000000000000000000000000000000000000000000000000000000000000000000000000000000000000000000000000000000000000000000000000000000000000000000000000000000000000000000000000000000000000000000000000000000000000000000000000000
310
0000000000F5F5F5F5F5F50000F50000000000000000000000F50000F5F5F5F5F5F5F5F5F5F5F5F5F5F5000000002D00000000F5F500000000000000000000F5F5F5F5F5F5F5F5F5F5F5F5000000000000000000000000000000000000000000000000000000000000F5F5F5F500F5F5F5F5F5F500F5F5F5F5000000000000
310
00000000000000000000000000000000000000000000000000000000000000000000000000000000000000000000000000000000000000000000000000000000000000000000000000000000000000000000000000000000000000000000000000000000000000000000000000000000000000000000000000000000000000
310
00000000F5F5F50000000000000000F5F500000000000000F50000F50000F5000000000000000000000000F5000000002D00000000F5000000000000000000000000F5F52828282828000000F5F5F5000000000000000000000000000000000000000000000000000000F5F500F5F5F50000002D0000F5F5F500F5F5000000
310
00000000000000000000000000000000000000000000000000000000000000000000000000000000000000000000000000000000000000000000000000000000000000000000000000000000000000000000000000000000000000000000000000000000000000000000000000000000000000000000000000000000000000
310
0000000000F5F500000000000000000000F5F500000000000000F5F500F5F5F5F5F5F5F5F5F5F5F50000000000F5000000002D00000000F5000000000000F5F5F5F5F5F5F5F50000000000282828F52828F5000000000000000000000000000000000000000000000000F5F5F5F5F5F5000000F5F5F5F5280000F5F5F5F5F5
310
F5000000000000000000000000000000000000000000000000000000000000000000000000000000000000000000000000000000000000000000000000000000000000000000000000000000000000000000000000000000000000000000000000000000000000000000000000000000000000000000000000000000000000
310
00000000000000F5F500000000000000000000F500F5F5F5F5F5F5F5F5F5F5F5F528F5000000000000F5F500000000F5000000002D00000000F500000000F5F5000000000000F5F50000000000000000F50000F50000000000000000000000000000000000000000000000F500F500F5F50000F5F5F5F5F5F5F5F50000F5F5
310
00F500F5000000000000000000000000000000000000000000000000000000000000000000000000000000000000000000000000000000000000000000000000000000000000000000000000000000000000000000000000000000000000000000000000000000000000000000000000000000000000000000000000000000
310
000000000000000000F5F500000000000000000000F500F5000000000000F5F5F5F5F500F500000000000000F500000000F5000000002D00000000F500000000F500000000000000F5F50000000000000000F50000F50000000000000000000000000000000000000000000000F500F500F50028F5F5F5F5F5F5F5F5F5F5F5
310
0000F5F5F5F500000000000000000000000000000000000000000000000000000000000000000000000000000000000000000000000000000000000000000000000000000000000000000000000000000000000000000000000000000000000000000000000000000000000000000000000000000000000000000000000000
310
0000000000000000000000F5F500000000000000000000F5F500000000000000F50000F5F500F500000000000000F500000000F5000000002D00000000F500000000F500000000000000F5F50000000000000000F50000F50000000000000000000000000000000000000000000000F5F5F5F50028F500F5F500002D00F5F5
310
F500F500F5F5F5F50000000000000000000000000000000000000000000000000000000000000000000000000000000000000000000000000000000000000000000000000000000000000000000000000000000000000000000000000000000000000000000000000000000000000000000000000000000000000000000000
310
00000000000000000000000000F5F500000000000000000000F5F500000000000000F50000F5F500F500000000000000F500000000F500F5F5F5F5F5F5F500F500000000F500000000000000F5F50000000000000000F50000F50000000000000000000000000000000000000000000000F5F5F5F500F500F5F50000002D00
310
00F5F500F52800F5F5F5000000000000000000000000000000000000000000000000000000000000000000000000000000000000000000000000000000000000000000000000000000000000000000000000000000000000000000000000000000000000000000000000000000000000000000000000000000000000000000
310
000000000000000000000000000000F5F500000000000000000000F5F500000000000000000000F5F500F500000000000000F500000000F500F500002D0000F500F500000000F500000000000000F5F50000000000000000F50000F50000000000000000000000000000000000000000000000F5F5F50028F5F500F5000000
310
2D0000F500F5F52800F500F500000000000000000000000000000000000000000000000000000000000000000000000000000000000000000000000000000000000000000000000000000000000000000000000000000000000000000000000000000000000000000000000000000000000000000000000000000000000000
310
0000000000000000000000000000000000F5F500000000000000000000F50000000000000000000000F5F500F500000000000000F500000000F500F5F5F5F5F5F5F500F500000000F500000000000000F5F50000000000000000F50000F50000000000000000000000000000000000000000000000F5F5F50028F5F500F500
310
00002D0000F500F5F5F500F500F50000000000000000000000000000000000000000000000000000000000000000000000000000000000000000000000000000000000000000000000000000000000000000000000000000000000000000000000000000000000000000000000000000000000000000000000000000000000
310
0000000000000000000000000000000000002DF5F52D2D2D2D2D2D2D2D2D2DF52D2D2D2D2D2D2D2D2D2D2DF5F52DF52D2D2D2D2D2D2DF52D2D2D2DF52D2DF5F52DF5F52D2DF52D2D2D2DF52D2D2D2D2D2D2DF5F52D2D2D2D2D2D2D2DF52D2DF52D2D2D000000000000000000000000000000000000002DF5F5F52D2D2DF52D
310
F52D2D2D2D2D2DF52DF52D2D2DF52DF52D0000000000000000000000000000000000000000000000000000000000000000000000000000000000000000000000000000000000000000000000000000000000000000000000000000000000000000000000000000000000000000000000000000000000000000000000000000
310
000000000000000000000000000000000000000000F5F500000000000000000000F50000000000000000000000F5F500F500000000000000F500000000F5000000F5F500F50000F500000000F500000000000000F5F50000000000000000F50000F50000000000000000000000000000000000000000000000F5F5F50028F5
310
F50000F5F5002DF5F50000F5F5F500F500F500000000000000000000000000000000000000000000000000000000000000000000000000000000000000000000000000000000000000000000000000000000000000000000000000000000000000000000000000000000000000000000000000000000000000000000000000
310
0000000000000000000000000000000000000000000000F5F500000000000000000000F5F500000000000000000000F5F500F500000000000000F500000000F5000000F5F5F5000000F500000000F500000000000000F5F50000000000000000F50000F50000000000000000000000000000000000000000000000F5F5F500
310
28F5F500000000F5F500000000F5F52800F500F50000000000000000000000000000000000000000000000000000000000000000000000000000000000000000000000000000000000000000000000000000000000000000000000000000000000000000000000000000000000000000000000000000000000000000000000
310
00000000000000000000000000000000000000000000000000F5F500000000000000000000F5F500000000000000F50000F5F500F500000000000000F500000000F500000000F5F5000000F500000000F500000000000000F5F50000000000000000F50000F50000000000000000000000000000000000000000000000F5F5
310
F5F500F500F5000000002D000000F5F5F52800F5F5F5000000000000000000000000000000000000000000000000000000000000000000000000000000000000000000000000000000000000000000000000000000000000000000000000000000000000000000000000000000000000000000000000000000000000000000
310
000000000000000000000000000000000000000000000000000000F5F500000000000000000000F5F500000000000000F50000F5F500F500000000000000F500000000F500000000F5F5000000F500000000F500000000000000F5F50000000000000000F50000F50000000000000000000000000000000000000000000000
310
F5F5F5F500F500F5F50000002D0000F5F500F500F5F5F5F500000000000000000000000000000000000000000000000000000000000000000000000000000000000000000000000000000000000000000000000000000000000000000000000000000000000000000000000000000000000000000000000000000000000000
310
0000000000000000000000000000000000000000000000000000000000F5F500000000000000000000F500F5000000000000F5F5F5F5F500F500000000000000F500000000F500000000F500000000F500000000F500000000000000F5F50000000000000000F50000F5000000000000000000000000000000000000000000
310
0000F500F500F500F5F5F5F5F5F5F5F5F5F500F50000F5F5F5F50000000000000000000000000000000000000000000000000000000000000000000000000000000000000000000000000000000000000000000000000000000000000000000000000000000000000000000000000000000000000000000000000000000000
310
00000000000000000000000000000000000000000000000000000000000000F5F500000000000000000000F500F5F5F5F5F5F5F5F5F5F5F5F500F500000000000000F500000000F5000000002D00000000F500000000F5F5000000000000F5F50000000000000000F50000F500000000000000000000000000000000000000
310
00000000F500F500F5000028F5F5F5F5F5F5F5F5F50000F500F500F5000000000000000000000000000000000000000000000000000000000000000000000000000000000000000000000000000000000000000000000000000000000000000000000000000000000000000000000000000000000000000000000000000000
310
000000000000000000000000000000000000000000000000000000000000000000F5F500000000000000000000F500F5000000000000F5F500F5F5F5F5F5F5F5F5F5F5F50000000000F5000000002D00000000F50000000000F5F5F5F5F5F5F5F5F50000000000282828F52828F50000000000000000000000000000000000
310
000000000000F500F5F5F5F5F50000F5F5F5F5F5F50000F5F5F5F5F500F500000000000000000000000000000000000000000000000000000000000000000000000000000000000000000000000000000000000000000000000000000000000000000000000000000000000000000000000000000000000000000000000000
310
000000000000000000000000000000000000000000000000000000000000000000000000F5F5F50000000000000000F5F500000000000000F50000F50000F5000000000000000000000000F5000000002D00000000F5000000000000000000000000F5F52828282828000000F5F5F500000000000000000000000000000000
310
000000000000000000F5F500F500F5F5000000002D000000F5F5F5F500F5F5000000000000000000000000000000000000000000000000000000000000000000000000000000000000000000000000000000000000000000000000000000000000000000000000000000000000000000000000000000000000000000000000
310
0000000000000000000000000000000000000000000000000000000000000000000000000000000000F5F5F5F5F5F50000F50000000000000000000000F50000F5F50000000000000000000000F5000000002D00000000F5000000F5F5F5F5F5F5F5F5F5F5F5F5F5F5F5F5F5F5F5F500000000000000000000000000000000
310
00000000000000000000000000F5F5000000F5F5F5F5F5F5F5F5000000F5F5000000000000000000000000000000000000000000000000000000000000000000000000000000000000000000000000000000000000000000000000000000000000000000000000000000000000000000000000000000000000000000000000
310
00000000000000000000000000000000000000000000000000000000000000000000000000000000000000000000000000F5F5F5F500000000000000000000F500000000F5F5F5000000000000F5F500000000002D0000000000F5F5F500000000000000000000000000000000000000000000000000000000000000000000
310
00000000000000000000000000000000F5000000000000002D000000000000F50000000000000000000000000000000000000000000000000000000000000000000000000000000000000000000000000000000000000000000000000000000000000000000000000000000000000000000000000000000000000000000000
310
000000000000000000000000000000000000000000000000000000000000000000000000000000000000000000000000000000000000F500000000000000F50000F500000000000000F5F5F5F50000000000000000002D000000000000F5000000000000000000000000000000000000000000000000000000000000000000
310
000000000000000000000000000000000000F5000000000000002D000000000000F5000000000000000000000000000000000000000000000000000000000000000000000000000000000000000000000000000000000000000000000000000000000000000000000000000000000000000000000000000000000000000000
310
000000000000000000000000000000000000000000000000000000000000000000000000000000000000000000000000000000000000000000F5F5F5F5F5F5F5F5F5F5000000000000000000000000F5F5F50000000000002D000000000000F500000000000000000000000000000000000000000000000000000000000000
310
0000000000000000000000000000000000000000F5000000000000002D000000000000F500000000000000000000000000000000000000000000000000000000000000000000000000000000000000000000000000000000000000000000000000000000000000000000000000000000000000000000000000000000000000
310
0000000000000000000000000000000000000000000000000000000000000000000000000000000000000000000000000000000000000000000000000000000000000000000000000000000000000000000000F50000000000002D000000000000F50000000000000000000000000000000000000000000000000000000000
310
00000000000000000000000000000000000000000000F5000000000000002D000000000000F50000000000000000000000000000000000000000000000000000000000000000000000000000000000000000000000000000000000000000000000000000000000000000000000000000000000000000000000000000000000
310
00000000000000000000000000000000000000000000000000000000000000000000000000000000000000000000000000000000000000000000000000000000000000000000000000000000000000000000000000F50000000000002D000000000000F5000000000000000000000000000000000000000000000000000000
310
000000000000000000000000000000000000000000000000F5000000000000002D000000000000F5000000000000000000000000000000000000000000000000000000000000000000000000000000000000000000000000000000000000000000000000000000000000000000000000000000000000000000000000000000
310
000000000000000000000000000000000000000000000000000000000000000000000000000000000000000000000000000000000000000000000000000000000000000000000000000000000000000000000000000000F50000000000002D000000000000F500000000000000000000000000000000000000000000000000
310
0000000000000000000000000000000000000000000000000000F5000000000000002D000000000000F500000000000000000000000000000000000000000000000000000000000000000000000000000000000000000000000000000000000000000000000000000000000000000000000000000000000000000000000000
310
0000000000000000000000000000000000000000000000000000000000000000000000000000000000000000000000000000000000000000000000000000000000000000000000000000000000000000000000000000000000F50000000000002D000000000000F50000000000000000000000000000000000000000000000
310
00000000000000000000000000000000000000000000000000000000F5000000000000002D000000000000F50000000000000000000000000000000000000000000000000000000000000000000000000000000000000000000000000000000000000000000000000000000000000000000000000000000000000000000000
310
00000000000000000000000000000000000000000000000000000000000000000000000000000000000000000000000000000000000000000000000000000000000000000000000000000000000000000000000000000000000000F50000000000002D000000000000F5000000000000000000000000000000000000000000
310
000000000000000000000000000000000000000000000000000000000000F5000000000000002D000000000000F5000000000000000000000000000000000000000000000000000000000000000000000000000000000000000000000000000000000000000000000000000000000000000000000000000000000000000000
310
000000000000000000000000000000000000000000000000000000000000000000000000000000000000000000000000000000000000000000000000000000000000000000000000000000000000000000000000000000000000000000F50000000000002D000000000000F500000000000000000000000000000000000000
310
0000000000000000000000000000000000000000000000000000000000000000F5000000000000002D000000000000F500000000000000000000000000000000000000000000000000000000000000000000000000000000000000000000000000000000000000000000000000000000000000000000000000000000000000
310
0000000000000000000000000000000000000000000000000000000000000000000000000000000000000000000000000000000000000000000000000000000000000000000000000000000000000000000000000000000000000000000000F5F5F5F5F5F5F5F5F5F5F5F5F5F5F5F500000000000000000000000000000000
310
00000000000000000000000000000000000000000000000000000000000000000000F5F5F5F5F5F5F5F5F5F5F5F5F5F5F5F50000000000000000000000000000000000000000000000000000000000000000000000000000000000000000000000000000000000000000000000000000000000000000000000000000000000
310
000000000000000000000000000000000000000000000000000000000000000000000000000000000000000000000000000000000000000000000000000000000000000000000000000000000000000000000000000000000000000000000028F5000000000000002D00000000000000F52800000000000000000000000000
310
0000000000000000000000000000000000000000000000000000000000000000000000F500000000000000002D00000000000000280000000000000000000000000000000000000000000000000000000000000000000000000000000000000000000000000000000000000000000000000000000000000000000000000000
310
00000000000000000000000000000000000000000000000000000000000000000000000000000000000000000000000000000000000000000000000000000000000000000000000000000000000000000000000000000000000000000000000000F5F5F5F5F5F5F5F5F5F5F5F5F5F5F5F5F5F5F5F500000000000000000000
310
000000000000000000000000000000000000000000000000000000000000000000000000F5F5F5F5F5F5F5F5F5F5F5F5F5F5F5F5F5F5F5F50000000000000000000000000000000000000000000000000000000000000000000000000000000000000000000000000000000000000000000000000000000000000000000000
310
00000000000000000000000000000000000000000000000000000000000000000000000000000000000000000000000000000000000000000000000000000000000000000000000000000000000000000000000000000000000000000000000000F5F5F5F5F5F5F5F5F5F5F5F5F5F5F5F5F5F5F5F5F5F5F500000000000000
310
00000000000000000000000000000000000000000000000000000000000000000000000000F5F5F5F5F5F5F5F5F5F5F5F5F5F5F5F5F5F5F5F5F5F50000000000000000000000000000000000000000000000000000000000000000000000000000000000000000000000000000000000000000000000000000000000000000
310
000000000000000000000000000000000000000000000000000000000000000000000000000000000000000000000000000000000000000000000000000000000000000000000000000000000000000000000000000000000000000000000000000000F5000000000000000000002D00000000000000000000F50000000000
310
000000000000000000000000000000000000000000000000000000000000000000000000000000F5000000000000000000002D000000000000000000F5000000000000000000000000000000000000000000000000000000000000000000000000000000000000000000000000000000000000000000000000000000000000
310
0000000000000000000000000000000000000000000000000000000000000000000000000000000000000000000000000000000000000000000000000000000000000000000000000000000000000000000000000000000000000000000000000000000000F5F5F5F5F5F5F5F5F5F5F5F5F5F5F5F5F5F5F5F5F5F5F5000000
310
0000000000000000000000000000000000000000000000000000000000000000000000000000000000F5F5F5F5F5F5F5F5F5F5F5F5F5F5F5F5F5F5F5F5F5F500000000000000000000000000000000000000000000000000000000000000000000000000000000000000000000000000000000000000000000000000000000
310
000000000000000000000000000000000000000000000000000000000000000000000000000000000000000000000000000000000000000000000000000000000000000000000000000000000000000000000000000000000000000000000000000000000000F5F5F5F5F5F5F5F5F5F5F5F5F5F5F5F5F5F5F5F5F5F5F5F5F5
310
F50000000000000000000000000000000000000000000000000000000000000000000000000000000000F5F5F5F5F5F5F5F5F5F5F5F5F5F5F5F5F5F5F5F5F5F5F5F500000000000000000000000000000000000000000000000000000000000000000000000000000000000000000000000000000000000000000000000000
310
0000000000000000000000000000000000000000000000000000000000000000000000000000000000000000000000000000000000000000000000000000000000000000000000000000000000000000000000000000000000000000000000000000000000000000F500000000F500F5000000002D00000000F500F5000000
310
0000F50000000000000000000000000000000000000000000000000000000000000000000000000000000000F5F50000000000000000F5002DF50000000000000000F5F50000000000000000000000000000000000000000000000000000000000000000000000000000000000000000000000000000000000000000000000
310
00000000000000000000000000000000000000000000000000000000000000000000000000000000000000000000000000000000000000000000000000000000000000000000000000000000000000000000000000000000000000000000000000000000000000000000F500000000F500F5000000002D00000000F500F500
310
00000000F50000000000000000000000000000000000000000000000000000000000000000000000000000000000F5F50000000000000000F5002DF50000000000000000F5F5000000000000000000000000000000000000000000000000000000000000000000000000000000000000000000000000000000000000000000
310
000000000000000000000000000000000000000000000000000000000000000000000000000000000000000000000000000000000000000000000000000000000000000000000000000000000000000000000000000000000000000000000000000000000000000000000000F500000000F500F5000000002D00000000F500
310
F50000000000F50000000000000000000000000000000000000000000000000000000000000000000000000000000000F5F50000000000000000F5002DF50000000000000000F5F500000000000000000000000000000000000000000000000000000000000000000000000000000000000000000000000000000000000000
310
0000000000000000000000000000000000000000000000000000000000000000000000000000000000000000000000000000000000000000000000000000000000000000000000000000000000000000000000000000000000000000000000000000000000000000000000000000F500000000F500F5000000002D00000000
310
F500F50000000000F50000000000000000000000000000000000000000000000000000000000000000000000000000000000F5F50000000000000000F5002DF50000000000000000F5F50000000000000000000000000000000000000000000000000000000000000000000000000000000000000000000000000000000000
310
00000000000000000000000000000000000000000000000000000000000000000000000000000000000000000000000000000000000000000000000000000000000000000000000000000000000000000000000000000000000000000000000000000000000000000000000000000000F500000000F500F5000000002D0000
310
0000F500F50000000000F50000000000000000000000000000000000000000000000000000000000000000000000000000000000F5F50000000000000000F5002DF50000000000000000F5F5000000000000000000000000000000000000000000000000000000000000000000000000000000000000000000000000000000
310
000000000000000000000000000000000000000000000000000000000000000000000000000000000000000000000000000000000000000000000000000000000000000000000000000000000000000000000000000000000000000000000000000000000000000000000000000000000000F500000000F500F5000000002D
310
00000000F500F50000000000F50000000000000000000000000000000000000000000000000000000000000000000000000000000000F5F50000000000000000F5002DF50000000000000000F5F500000000000000000000000000000000000000000000000000000000000000000000000000000000000000000000000000
310
0000000000000000000000000000000000000000000000000000000000000000000000000000000000000000000000000000000000000000000000000000000000000000000000000000000000000000000000000000000000000000000000000000000000000000000000000000000000000000F500000000F5F5F5F50000
310
002D000000F5F5F5F50000000000F50000000000000000000000000000000000000000000000000000000000000000000000000000000000F5F5F5000000000000F5F5F5F5F5F5000000000000F5F5F50000000000000000000000000000000000000000000000000000000000000000000000000000000000000000000000
310
0000000000000000000000000000000000000000000000000000000000000000000000000000000000000000000000000000000000000000000000000000000000000000000000000000000000000000000000000000000000000000000000000000000000000000000000000000000000000000000000F5F5F5F5F5F5F5F5
310
F5F5F5F5F5F5F5F5F5F5F5F5F5F5F5F500000000000000000000000000000000000000000000000000000000000000000000000000000000000000F5F5F5F5F5F5F5F5F5F5F5F5F5F5F5F5F5F5F5F5F5F500000000000000000000000000000000000000000000000000000000000000000000000000000000000000000000
310
00000000000000000000000000000000000000000000000000000000000000000000000000000000000000000000000000000000000000000000000000000000000000000000000000000000000000000000000000000000000000000000000000000000000000000000000000000000000000000000000000000000000000
310
00F50000002D000000F500000000000000000000000000000000000000000000000000000000000000000000000000000000000000000000000000000000000000000000F50000002D000000F50000000000000000000000000000000000000000000000000000000000000000000000000000000000000000000000000000
310
00000000000000000000000000000000000000000000000000000000000000000000000000000000000000000000000000000000000000000000000000000000000000000000000000000000000000000000000000000000000000000000000000000000000000000000000000000000000000000000000000000000000000
310
000000F50000002D000000F500000000000000000000000000000000000000000000000000000000000000000000000000000000000000000000000000000000000000000000F50000002D000000F5000000000000000000000000000000000000000000000000000000000000000000000000000000000000000000000000
310
00000000000000000000000000000000000000000000000000000000000000000000000000000000000000000000000000000000000000000000000000000000000000000000000000000000000000000000000000000000000000000000000000000000000000000000000000000000000000000000000000000000000000
310
0000000000F50000002D000000F500000000000000000000000000000000000000000000000000000000000000000000000000000000000000000000000000000000000000000000F50000002D000000F500000000000000000000000000000000000000000000000000000000000000000000000000000000000000000000
310
00000000000000000000000000000000000000000000000000000000000000000000000000000000000000000000000000000000000000000000000000000000000000000000000000000000000000000000000000000000000000000000000000000000000000000000000000000000000000000000000000000000000000
310
00000000000000F50000002D000000F500000000000000000000000000000000000000000000000000000000000000000000000000000000000000000000000000000000000000000000F50000002D000000F50000000000000000000000000000000000000000000000000000000000000000000000000000000000000000
310
00000000000000000000000000000000000000000000000000000000000000000000000000000000000000000000000000000000000000000000000000000000000000000000000000000000000000000000000000000000000000000000000000000000000000000000000000000000000000000000000000000000000000
310
000000000000000000F50000002D000000F500000000000000000000000000000000000000000000000000000000000000000000000000000000000000000000000000000000000000000000F50000002D000000F5000000000000000000000000000000000000000000000000000000000000000000000000000000000000
310
00000000000000000000000000000000000000000000000000000000000000000000000000000000000000000000000000000000000000000000000000000000000000000000000000000000000000000000000000000000000000000000000000000000000000000000000000000000000000000000000000000000000000
310
0000000000000000000000F50000002D000000F500000000000000000000000000000000000000000000000000000000000000000000000000000000000000000000000000000000000000000000F50000002D000000F500000000000000000000000000000000000000000000000000000000000000000000000000000000
310
00000000000000000000000000000000000000000000000000000000000000000000000000000000000000000000000000000000000000000000000000000000000000000000000000000000000000000000000000000000000000000000000000000000000000000000000000000000000000000000000000000000000000
310
000000F5F5F5F5F5F5F5F5F5F5F5F5F5F5F5F5F5F5F5F5F5F5F5F5F5F5F5F5F500000000000000000000000000000000000000000000000000000000000000000000000000F5F5F5F5F5F5F5F5F5F5F5F5F5F5F5F5F5F5F5F5F5F5F5F5F5F5F5F5F5F500000000000000000000000000000000000000000000000000000000
310
00000000000000000000000000000000000000000000000000000000000000000000000000000000000000000000000000000000000000000000000000000000000000000000000000000000000000000000000000000000000000000000000000000000000000000000000000000000000000000000000000000000000000
310
0000000000F5000000000000000000000000002D00000000000000000000000000F500000000000000000000000000000000000000000000000000000000000000000000000000F500000000000000000000000000002D00000000000000000000000000F50000000000000000000000000000000000000000000000000000
310
00000000000000000000000000000000000000000000000000000000000000000000000000000000000000000000000000000000000000000000000000000000000000000000000000000000000000000000000000000000000000000000000000000000000000000000000000000000000000000000000000000000000000
310
00000000F5F5F5F5F5F5F5F5F5F5F5F5F5F5F5F5F5F5F5F5F5F5F5F5F5F5F5F5F5F5F5F5F5F5F50000000000000000000000000000000000000000000000000000000000000000F5F5F5F5F5F5F5F5F5F5F5F5F5F5F5F5F5F5F5F5F5F5F5F5F5F5F5F5F5F5F5F5F5F500000000000000000000000000000000000000000000
310
00000000000000000000000000000000000000000000000000000000000000000000000000000000000000000000000000000000000000000000000000000000000000000000000000000000000000000000000000000000000000000000000000000000000000000000000000000000000000000000000000000000000000
310
000000000000F500F5000000F500F500000000000000F52DF500000000000000F500F500000000F5F50000000000000000000000000000000000000000000000000000000000000000F5000000F50000000000F50000F50000002D000000F500F50000000000F5000000F50000000000000000000000000000000000000000
310
00000000000000000000000000000000000000000000000000000000000000000000000000000000000000000000000000000000000000000000000000000000000000000000000000000000000000000000000000000000000000000000000000000000000000000000000000000000000000000000000000000000000000
310
0000000000000000F500F5000000F500F500000000000000F52DF500000000000000F500F500000000F5F50000000000000000000000000000000000000000000000000000000000000000F5000000F50000000000F50000F50000002D000000F500F50000000000F5000000F5000000000000000000000000000000000000
310
00000000000000000000000000000000000000000000000000000000000000000000000000000000000000000000000000000000000000000000000000000000000000000000000000000000000000000000000000000000000000000000000000000000000000000000000000000000000000000000000000000000000000
310
00000000000000000000F500F5000000F500F500000000000000F52DF500000000000000F500F500000000F5F50000000000000000000000000000000000000000000000000000000000000000F5000000F50000000000F50000F50000002D000000F500F50000000000F5000000F500000000000000000000000000000000
310
00000000000000000000000000000000000000000000000000000000000000000000000000000000000000000000000000000000000000000000000000000000000000000000000000000000000000000000000000000000000000000000000000000000000000000000000000000000000000000000000000000000000000
310
000000000000000000000000F500F5000000F500F500000000000000F52DF500000000000000F500F500000000F5F50000000000000000000000000000000000000000000000000000000000000000F5000000F50000000000F50000F50000002D000000F500F50000000000F5000000F50000000000000000000000000000
310
00000000000000000000000000000000000000000000000000000000000000000000000000000000000000000000000000000000000000000000000000000000000000000000000000000000000000000000000000000000000000000000000000000000000000000000000000000000000000000000000000000000000000
310
0000000000000000000000000000F500F5000000F500F500000000000000F52DF500000000000000F500F500000000F5F50000000000000000000000000000000000000000000000000000000000000000F5000000F50000000000F50000F50000002D000000F500F50000000000F5000000F5000000000000000000000000
310
00000000000000000000000000000000000000000000000000000000000000000000000000000000000000000000000000000000000000000000000000000000000000000000000000000000000000000000000000000000000000000000000000000000000000000000000000000000000000000000000000000000000000
310
00000000000000000000000000000000F500F5000000F500F500000000000000F52DF500000000000000F500F500000000F5F50000000000000000000000000000000000000000000000000000000000000000F5000000F50000000000F50000F50000002D000000F500F50000000000F5000000F500000000000000000000
310
00000000000000000000000000000000000000000000000000000000000000000000000000000000000000000000000000000000000000000000000000000000000000000000000000000000000000000000000000000000000000000000000000000000000000000000000000000000000000000000000000000000000000
310
000000000000000000000000000000000000F500F5000000F500F500000000000000F52DF500000000000000F500F500000000F5F50000000000000000000000000000000000000000000000000000000000000000F5000000F50000000000F50000F50000002D000000F500F50000000000F5000000F50000000000000000
310
00000000000000000000000000000000000000000000000000000000000000000000000000000000000000000000000000000000000000000000000000000000000000000000000000000000000000000000000000000000000000000000000000000000000000000000000000000000000000000000000000000000000000
310
0000000000000000000000000000000000000000F500F5000000F500F500000000000000F52DF500000000000000F500F500000000F5F50000000000000000000000000000000000000000000000000000000000000000F5000000F50000000000F50000F50000002D000000F500F50000000000F5000000F5000000000000
310
00000000000000000000000000000000000000000000000000000000000000000000000000000000000000000000000000000000000000000000000000000000000000000000000000000000000000000000000000000000000000000000000000000000000000000000000000000000000000000000000000000000000000
310
00000000000000000000000000000000000000000000F500F5000000F500F500000000000000F52DF500000000000000F500F500000000F5F50000000000000000000000000000000000000000000000000000000000000000F5000000F50000000000F50000F50000002D000000F500F50000000000F5000000F500000000
310
00000000000000000000000000000000000000000000000000000000000000000000000000000000000000000000000000000000000000000000000000000000000000000000000000000000000000000000000000000000000000000000000000000000000000000000000000000000000000000000000000000000000000
310
000000000000000000000000000000000000000000000000F500F5000000F500F500000000000000F52DF500000000000000F500F500000000F5F50000000000000000000000000000000000000000000000000000000000000000F5000000F50000000000F50000F50000002D000000F500F50000000000F5000000F50000
310
00000000000000000000000000000000000000000000000000000000000000000000000000000000000000000000000000000000000000000000000000000000000000000000000000000000000000000000000000000000000000000000000000000000000000000000000000000000000000000000000000000000000000
310
0000000000000000000000000000000000000000000000000000F500F5000000F500F500000000000000F52DF500000000000000F500F500000000F5F50000000000000000000000000000000000000000000000000000000000000000F5000000F50000000000F50000F50000002D000000F500F50000000000F5000000F5
310
00000000000000000000000000000000000000000000000000000000000000000000000000000000000000000000000000000000000000000000000000000000000000000000000000000000000000000000000000000000000000000000000000000000000000000000000000000000000000000000000000000000000000
310
00000000000000000000000000000000000000000000000000000000F5F5F5000000F5F5F500000000000000F5F5F500000000000000F5F5F500000000F5F50000000000000000000000000000000000000000000000000000000000000000F5F5F5F5F50000000000F5F5F5F50000002D000000F5F5F50000000000F5F5F5
310
F5F50000000000000000000000000000000000000000000000000000000000000000000000000000000000000000000000000000000000000000000000000000000000000000000000000000000000000000000000000000000000000000000000000000000000000000000000000000000000000000000000000000000000
310
000000000000000000000000000000000000000000000000000000000000F500F5000000F50000F50000000000F5002D00F50000000000F50000F5000000F500F50000000000000000000000000000000000000000000000000000000000000000F5000000F50000000000F50000F50000002D0000F50000F50000000000F5
310
000000F5000000000000000000000000000000000000000000000000000000000000000000000000000000000000000000000000000000000000000000000000000000000000000000000000000000000000000000000000000000000000000000000000000000000000000000000000000000000000000000000000000000
310
000000000000000000000000000000000000000000000000000000000000000000F5F5F5F5F5F5F5F5F5F5F5F5F5F5F5F5F5F5F5F5F5F5F5F5F5F5F5F5F5F5F5F5F500000000000000000000000000000000000000000000000000000000000000000000F5F5F5F5F5F5F5F5F5F5F5F5F5F5F5F5F5F5F5F5F5F5F5F5F5F5F5
310
F5F5F5F5F5F500000000000000000000000000000000000000000000000000000000000000000000000000000000000000000000000000000000000000000000000000000000000000000000000000000000000000000000000000000000000000000000000000000000000000000000000000000000000000000000000000
310
00000000000000000000000000000000000000000000000000000000000000000000000000F5000000000000000000000000002D00000000000000000000000000F500000000000000000000000000000000000000000000000000000000000000000000000000F500000000000000000000000000002D0000000000000000
310
0000000000F500000000000000000000000000000000000000000000000000000000000000000000000000000000000000000000000000000000000000000000000000000000000000000000000000000000000000000000000000000000000000000000000000000000000000000000000000000000000000000000000000
310
000000000000000000000000000000000000000000000000000000000000000000000000000000F5000000000000000000000000002D00000000000000000000000000F500000000000000000000000000000000000000000000000000000000000000000000000000F500000000000000000000000000002D000000000000
310
00000000000000F50000000000000000000000000000000000000000000000000000000000000000000000000000000000000000000000000000000000000000000000000000000000000000000000000000000000000000000000000000000000000000000000000000000000000000000000000000000000000000000000
310
0000000000000000000000000000000000000000000000000000000000000000000000000000000000F5F5F5F5F5F5F5F5F5F5F5F5F5F5F5F5F5F5F5F5F5F5F5F5F5F5F5F5F50000000000000000000000000000000000000000000000000000000000000000000000000000F5F5F5F5F5F5F5F5F5F5F5F5F5F5F5F5F5F5F5
310
F5F5F5F5F5F5F5F5F5F5000000000000000000000000000000000000000000000000000000000000000000000000000000000000000000000000000000000000000000000000000000000000000000000000000000000000000000000000000000000000000000000000000000000000000000000000000000000000000000
310
0000000000000000000000000000000000000000000000000000000000000000000000000000000000000000000000000000000000000000002D0000000000000000000000000000000000000000000000000000000000000000000000000000000000000000000000000000000000000000000000000000000000002D0000
310
00000000000000000000000000000000000000000000000000000000000000000000000000000000000000000000000000000000000000000000000000000000000000000000000000000000000000000000000000000000000000000000000000000000000000000000000000000000000000000000000000000000000000
310
00000000000000000000000000000000000000000000000000000000000000000000000000000000000000000000000000000000000000000000002D0000000000000000000000000000000000000000000000000000000000000000000000000000000000000000000000000000000000000000000000000000000000002D
310
00000000000000000000000000000000000000000000000000000000000000000000000000000000000000000000000000000000000000000000000000000000000000000000000000000000000000000000000000000000000000000000000000000000000000000000000000000000000000000000000000000000000000
310
00000000000000000000000000000000000000000000000000000000000000000000000000000000000000000000000000000000000000000000000000000000000000000000000000000000000000000000000000000000000000000000000000000000000000000000000000000000000000000000000000000000000000
310
002D0000000000000000000000000000000000000000000000000000000000000000000000000000000000000000000000000000000000000000000000000000000000000000000000000000000000000000000000000000000000000000000000000000000000000000000000000000000000000000000000000000000000
310
00000000000000000000000000000000000000000000000000000000000000000000000000000000000000000000000000000000000000000000000000000000000000000000000000000000000000000000000000000000000000000000000000000000000000000000000000000000000000000000000000000000000000
310
00000000000000000000000000000000000000000000000000000000000000000000000000000000000000000000000000000000000000000000000000000000000000000000000000000000000000000000000000000000000000000000000000000000000000000000000000000000000000000000000000000000000000
310
00000000000000000000000000000000000000000000000000000000000000000000000000000000000000000000000000000000000000000000000000000000000000000000000000000000000000000000000000000000000000000000000000000000000000000000000000000000000000000000000000000000000000
310
00000000000000000000000000000000000000000000000000000000000000000000000000000000000000000000000000000000000000000000000000000000000000000000000000000000000000000000000000000000000000000000000000000000000000000000000000000000000000000000000000000000000000
310
00000000000000000000000000000000000000000000000000000000000000000000000000000000000000000000000000000000000000000000000000000000000000000000000000000000000000000000000000000000000000000000000000000000000000000000000000000000000000000000000000000000000000
310
00000000000000000000000000000000000000000000000000000000000000000000000000000000000000000000000000000000000000000000000000000000000000000000000000000000000000000000000000000000000000000000000000000000000000000000000000000000000000000000000000000000000000
310
00000000000000000000000000000000000000000000000000000000000000000000000000000000000000000000000000000000000000000000000000000000000000000000000000000000000000000000000000000000000000000000000000000000000000000000000000000000000000000000000000000000000000
310
00000000000000000000000000000000000000000000000000000000000000000000000000000000000000000000000000000000000000000000000000000000000000000000000000000000000000000000000000000000000000000000000000000000000000000000000000000000000000000000000000000000000000
310
00000000000000000000000000000000000000000000000000000000000000000000000000000000000000000000000000000000000000000000000000000000000000000000002D00000000000000000000000000000000000000000000000000000000000000000000000000000000000000000000000000000000000000
310
00000000000000000000000000000000000000000000000000000000000000000000000000000000000000000000000000000000000000000000000000000000000000000000000000000000000000000000000000000000000000000000000000000000000000000000000000000000000000000000000000000000000000
310
000000000000000000000000000000000000000000000000000000000000000000000000000000000000000000000000000000000000000000000000000000000000000000000000002D0000000000000000000000000000000000000000000000000000000000000000000000000000000000000000000000000000000000
310
00000000000000000000000000000000000000000000000000000000000000000000000000000000000000000000000000000000000000000000000000000000000000000000000000000000000000000000000000000000000000000000000000000000000000000000000000000000000000000000000000000000000000
310
0000000000000000000000000000000000000000000000000000000000000000000000000000000000000000000000000000000000000000000000000000000000000000000000000000F52DF50000000000000000000000000000000000000000000000000000000000000000000000000000000000000000000000000000
310
00000000000000000000000000000000000000000000000000000000000000000000000000000000000000000000000000000000000000000000000000000000000000000000000000000000000000000000000000000000000000000000000000000000000000000000000000000000000000000000000000000000000000
310
00000000000000000000000000000000000000000000000000000000000000000000000000000000000000000000000000000000000000000000000000000000000000000000000000000000F52DF5F50000000000000000000000000000000000000000000000000000000000000000000000000000000000000000000000
310
00000000000000000000000000000000000000000000000000000000000000000000000000000000000000000000000000000000000000000000000000000000000000000000000000000000000000000000000000000000000000000000000000000000000000000000000000000000000000000000000000000000000000
310
0000000000000000000000000000000000000000000000000000000000000000000000000000000000000000000000000000000000000000000000000000000000000000000000000000000000F5002D00F5000000000000000000000000000000000000000000000000000000000000000000000000000000000000000000
310
00000000000000000000000000000000000000000000000000000000000000000000000000000000000000000000000000000000000000000000000000000000000000000000000000000000000000000000000000000000000000000000000000000000000000000000000000000000000000000000000000000000000000
310
000000000000000000000000000000000000000000000000000000000000000000000000000000000000000000000000000000000000000000000000000000000000000000000000F5F500000000F5F5F52DF5F5F5F500000000F5000000000000000000000000000000000000000000000000000000000000000000000000
310
00000000000000000000000000000000000000000000000000000000000000000000000000000000000000000000000000000000000000000000000000000000000000000000000000000000000000000000000000000000000000000000000000000000000000000000000000000000000000000000000000000000000000
310
000000000000000000000000000000000000000000000000000000000000000000000000000000000000000000000000000000000000000000000000000000000000000000000000F5F50000F5F5F5F50000002D000000F5F5F5F5F500F5F50000000000000000000000000000000000000000000000000000000000000000
310
00000000000000000000000000000000000000000000000000000000000000000000000000000000000000000000000000000000000000000000000000000000000000000000000000000000000000000000000000000000000000000000000000000000000000000000000000000000000000000000000000000000000000
310
0000000000000000000000000000000000000000000000000000000000000000000000000000000000000000000000000000000000000000000000000000000000000000000000000000F50000F5F5000000F5F5F52DF5F5F5000000F5F50000F5000000000000000000000000000000000000000000000000000000000000
310
00000000000000000000000000000000000000000000000000000000000000000000000000000000000000000000000000000000000000000000000000000000000000000000000000000000000000000000000000000000000000000000000000000000000000000000000000000000000000000000000000000000000000
310
0000000000000000000000000000000000000000000000000000000000000000000000000000000000000000000000000000000000000000000000000000000000000000000000000000000000F5F5000000F5F50000002D000000F5F5000000F500F500000000000000000000000000000000000000000000000000000000
310
00000000000000000000000000000000000000000000000000000000000000000000000000000000000000000000000000000000000000000000000000000000000000000000000000000000000000000000000000000000000000000000000000000000000000000000000000000000000000000000000000000000000000
310
00000000000000000000000000000000000000000000000000000000000000000000000000000000000000000000000000000000000000000000000000000000000000000000000000000000000000F50000F5F500000000002D0000000000F5F50000F5F50000000000000000000000000000000000000000000000000000
310
00000000000000000000000000000000000000000000000000000000000000000000000000000000000000000000000000000000000000000000000000000000000000000000000000000000000000000000000000000000000000000000000000000000000000000000000000000000000000000000000000000000000000
310
0000000000000000000000000000000000000000000000000000000000000000000000000000000000000000000000000000000000000000000000000000000000000000000000000000000000000000F5000000F50000000000002D00000000000000F50000F5000000000000000000000000000000000000000000000000
310
00000000000000000000000000000000000000000000000000000000000000000000000000000000000000000000000000000000000000000000000000000000000000000000000000000000000000000000000000000000000000000000000000000000000000000000000000000000000000000000000000000000000000
310
000000000000000000000000000000000000000000000000000000000000000000000000000000000000000000000000000000000000000000000000000000000000000000000000000000000000000000F5F50000F5000000000000002D0000000000000000F50000F5000000000000000000000000000000000000000000
310
00000000000000000000000000000000000000000000000000000000000000000000000000000000000000000000000000000000000000000000000000000000000000000000000000000000000000000000000000000000000000000000000000000000000000000000000000000000000000000000000000000000000000
310
000000000000000000000000000000000000000000000000000000000000000000000000000000000000000000000000000000000000000000000000000000000000000000000000000000000000000000F5F5F500F5F500000000000000002D000000000000000000F500F5F5F50000000000000000000000000000000000
310
00000000000000000000000000000000000000000000000000000000000000000000000000000000000000000000000000000000000000000000000000000000000000000000000000000000000000000000000000000000000000000000000000000000000000000000000000000000000000000000000000000000000000
310
000000000000000000000000000000000000000000000000000000000000000000000000000000000000000000000000000000000000000000000000000000000000000000000000000000000000000000F5F500F50000F50000000000000000002D0000000000000000F5F5F500F500F5F500000000000000000000000000
310
00000000000000000000000000000000000000000000000000000000000000000000000000000000000000000000000000000000000000000000000000000000000000000000000000000000000000000000000000000000000000000000000000000000000000000000000000000000000000000000000000000000000000
310
0000000000000000000000000000000000000000000000000000000000000000000000000000000000000000000000000000000000000000000000000000000000000000000000000000000000000000000000F50000F500F5000000000000000000002D0000000000000000F5F5F500F50000F50000000000000000000000
310
00000000000000000000000000000000000000000000000000000000000000000000000000000000000000000000000000000000000000000000000000000000000000000000000000000000000000000000000000000000000000000000000000000000000000000000000000000000000000000000000000000000000000
310
00000000000000000000000000000000000000000000000000000000000000000000000000000000000000000000000000000000000000000000000000000000000000000000000000000000000000000000000000F50000F500F5000000000000000000002D00000000000000F5F5F5F50000F500F5000000000000000000
310
00000000000000000000000000000000000000000000000000000000000000000000000000000000000000000000000000000000000000000000000000000000000000000000000000000000000000000000000000000000000000000000000000000000000000000000000000000000000000000000000000000000000000
310
00000000000000000000000000000000000000000000000000000000000000000000000000000000000000000000000000000000000000000000000000000000000000000000000000000000000000000000000000000000F5F500F500000000000000000000002D00000000000000F5F5F5F5F500F5F50000000000000000
310
00000000000000000000000000000000000000000000000000000000000000000000000000000000000000000000000000000000000000000000000000000000000000000000000000000000000000000000000000000000000000000000000000000000000000000000000000000000000000000000000000000000000000
310
00000000000000000000000000000000000000000000000000000000000000000000000000000000000000000000000000000000000000000000000000000000000000000000000000000000000000000000000000000000000000F500F5F5F5F5F5F5F5F5F5F5F5F52DF5F5F5F5F5F5F5F5F5F5F5F500F5F5000000000000
310
00000000000000000000000000000000000000000000F5F5F5F5F5F5F5F5F5F5F5F5F5F5F5F5F5F5F5F5F5F5F5F5F5F5F5F5F5F5F5F5F5F5F5F5F5F500000000000000000000000000000000000000000000000000000000000000000000000000000000000000000000000000000000000000000000000000000000000000
310
000000000000000000000000000000000000000000000000000000000000000000000000000000000000000000000000000000000000000000000000000000000000000000000000000000000000000000000000000000000000000000F500F5F5F5F5F5F5F5F5F5F5F5F52DF5F5F5F5F5F5F5F5F5F5F5F500F50000000000
310
000000000000000000000000000000000000000000000000F5F5F5F5F5F5F5F5F5F5F5F5F5F5F5F5F5F5F5F5F5F5F5F5F5F5F5F5F5F5F5F5F5F5F5F5F5F50000000000000000000000000000000000000000000000000000000000000000000000000000000000000000000000000000000000000000000000000000000000
310
0000000000000000000000000000000000000000000000000000000000000000000000000000000000000000000000000000000000000000000000000000000000000000000000000000000000000000000000000000000000000000002D2D2D2D2D2D2D2D2D2D2D2D2D2D2D2D2D2D2D2D2D2D2D2D2D2D2D2D2D2D2D2D2D00
310
0000000000000000000000000000000000000000000000000000F5F5F5F5F5F5F5F5F5F5F5F5F5F5F5F5F5F5F5F5F5F5F5F5F5F5F5F5F5F5F5F5F5F5F5F5F5F5000000000000000000000000000000000000000000000000000000000000000000000000000000000000000000000000000000000000000000000000000000
310
00000000000000000000000000000000000000000000000000000000000000000000000000000000000000000000000000000000000000000000000000000000000000000000000000000000000000000000000000000000000000000000000000F500F5F5F5F5F5F5F5F5F5F5F5F52DF5F5F5F5F5F5F5F5F5F5F5F500F500
310
00000000000000000000000000000000000000000000000000000000000000000000000000000000000000000000000000000000000000000000000000000000000000000000000000000000000000000000000000000000000000000000000000000000000000000000000000000000000000000000000000000000000000
310
000000000000000000000000000000000000000000000000000000000000000000000000000000000000000000000000000000000000000000000000000000000000000000000000000000000000000000000000000000000000000000000000000000F500F5F5F5F5F5F5F5F5F5F5F5F52DF5F5F5F5F5F5F5F5F5F5F5F500
310
F5F50000000000000000000000000000000000000000000000000000000000000000000000000000000000000000000000000000000000000000000000000000000000000000000000000000000000000000000000000000000000000000000000000000000000000000000000000000000000000000000000000000000000
310
00000000000000000000000000000000000000000000000000000000000000000000000000000000000000000000000000000000000000000000000000000000000000000000000000000000000000000000000000000000000000000000000000000000F5F500F500F5F5F5000000000000002D0000000000000000000000
310
F500F5F5000000000000000000000000000000000000000000000000000000000000000000000000000000000000000000000000000000000000000000000000000000000000000000000000000000000000000000000000000000000000000000000000000000000000000000000000000000000000000000000000000000
310
0000000000000000000000000000000000000000000000000000000000000000000000000000000000000000000000000000000000000000000000000000000000000000000000000000000000000000000000000000000000000000000000000000000000F50000F500F5F5F500000000000000002D000000000000000000
310
00F50000F500F5000000000000000000000000000000000000000000000000000000000000000000000000000000000000000000000000000000000000000000000000000000000000000000000000000000000000000000000000000000000000000000000000000000000000000000000000000000000000000000000000
310
00000000000000000000000000000000000000000000000000000000000000000000000000000000000000000000000000000000000000000000000000000000000000000000000000000000000000000000000000000000000000000000000000000000000000F50000F500F500F500000000000000002D00000000000000
310
000000F500F50000F500000000000000000000000000000000000000000000000000000000000000000000000000000000000000000000000000000000000000000000000000000000000000000000000000000000000000000000000000000000000000000000000000000000000000000000000000000000000000000000
310
000000000000000000000000000000000000000000000000000000000000000000000000000000000000000000000000000000000000000000000000000000000000000000000000000000000000000000000000000000000000000000000000000000000000000000F5F500F50000F5F500000000000000002D0000000000
310
0000000000F500F500F5F50000000000000000000000000000000000000000000000000000000000000000000000000000000000000000000000000000000000000000000000000000000000000000000000000000000000000000000000000000000000000000000000000000000000000000000000000000000000000000
310
00000000000000000000000000000000000000000000000000000000000000000000000000000000000000000000000000000000000000000000000000000000000000000000000000000000000000000000000000000000000000000000000000000000000000000000000000F5F5F500F50000000000000000002D000000
310
000000000000F500F5F5F50000000000000000000000000000000000000000000000000000000000000000000000000000000000000000000000000000000000000000000000000000000000000000000000000000000000000000000000000000000000000000000000000000000000000000000000000000000000000000
310
0000000000000000000000000000000000000000000000000000000000000000000000000000000000000000000000000000000000000000000000000000000000000000000000000000000000000000000000000000000000000000000000000000000000000000000000000000000000F5F500F500000000000000002D00
310
0000000000000000F500F50000000000000000000000000000000000000000000000000000000000000000000000000000000000000000000000000000000000000000000000000000000000000000000000000000000000000000000000000000000000000000000000000000000000000000000000000000000000000000
310
0000000000000000000000000000000000000000000000000000000000000000000000000000000000000000000000000000000000000000000000000000000000000000000000000000000000000000000000000000000000000000000000000000000000000000000000000000000000000000F50000F500000000000000
310
2D0000000000000000F500F5F5000000000000000000000000000000000000000000000000000000000000000000000000000000000000000000000000000000000000000000000000000000000000000000000000000000000000000000000000000000000000000000000000000000000000000000000000000000000000
310
00000000000000000000000000000000000000000000000000000000000000000000000000000000000000000000000000000000000000000000000000000000000000000000000000000000000000000000000000000000000000000000000000000000000000000000000000000000000000000000F5F50000F500000000
310
00002D000000000000F5F500F5F50000000000000000000000000000000000000000000000000000000000000000000000000000000000000000000000000000000000000000000000000000000000000000000000000000000000000000000000000000000000000000000000000000000000000000000000000000000000
310
00000000000000000000000000000000000000000000000000000000000000000000000000000000000000000000000000000000000000000000000000000000000000000000000000000000000000000000000000000000000000000000000000000000000000000000000000000000000000000000000000F5F50000F5F5
310
F50000002D000000F5F5F50000F500F5000000000000000000000000000000000000000000000000000000000000000000000000000000000000000000000000000000000000000000000000000000000000000000000000000000000000000000000000000000000000000000000000000000000000000000000000000000
310
0000000000000000000000000000000000000000000000000000000000000000000000000000000000000000000000000000000000000000000000000000000000000000000000000000000000000000000000000000000000000000000000000000000000000000000000000000000000000000000000000000F50000F5F5
310
000000F5F5F52DF5F5F500000000F50000F500000000000000000000000000000000000000000000000000000000000000000000000000000000000000000000000000000000000000000000000000000000000000000000000000000000000000000000000000000000000000000000000000000000000000000000000000
310
00000000000000000000000000000000000000000000000000000000000000000000000000000000000000000000000000000000000000000000000000000000000000000000000000000000000000000000000000000000000000000000000000000000000000000000000000000000000000000000000000000000F5F500
310
00F5F5F5F50000002D000000F5F5F5F5000000F50000000000000000000000000000000000000000000000000000000000000000000000000000000000000000000000000000000000000000000000000000000000000000000000000000000000000000000000000000000000000000000000000000000000000000000000
310
00000000000000000000000000000000000000000000000000000000000000000000000000000000000000000000000000000000000000000000000000000000000000000000000000000000000000000000000000000000000000000000000000000000000000000000000000000000000000000000000000000000000000
310
00F5F5000000F5F5F5F52DF5F5F5F5000000F5F5F500000000000000000000000000000000000000000000000000000000000000000000000000000000000000000000000000000000000000000000000000000000000000000000000000000000000000000000000000000000000000000000000000000000000000000000
310
00000000000000000000000000000000000000000000000000000000000000000000000000000000000000000000000000000000000000000000000000000000000000000000000000000000000000000000000000000000000000000000000000000000000000000000000000000000000000000000000000000000000000
310
00000000000000000000F5002D00F500000000000000000000000000000000000000000000000000000000000000000000000000000000000000000000000000000000000000000000000000000000000000000000000000000000000000000000000000000000000000000000000000000000000000000000000000000000
310
00000000000000000000000000000000000000000000000000000000000000000000000000000000000000000000000000000000000000000000000000000000000000000000000000000000000000000000000000000000000000000000000000000000000000000000000000000000000000000000000000000000000000
310
00000000000000000000000000F52D00F50000000000000000000000000000000000000000000000000000000000000000000000000000000000000000000000000000000000000000000000000000000000000000000000000000000000000000000000000000000000000000000000000000000000000000000000000000
310
00000000000000000000000000000000000000000000000000000000000000000000000000000000000000000000000000000000000000000000000000000000000000000000000000000000000000000000000000000000000000000000000000000000000000000000000000000000000000000000000000000000000000
310
000000000000000000000000000000F52DF500000000000000000000000000000000000000000000000000000000000000000000000000000000000000000000000000000000000000000000000000000000000000000000000000000000000000000000000000000000000000000000000000000000000000000000000000
310
00000000000000000000000000000000000000000000000000000000000000000000000000000000000000000000000000000000000000000000000000000000000000000000000000000000000000000000000000000000000000000000000000000000000000000000000000000000000000000000000000000000000000
310
0000000000000000000000000000000000002D000000000000000000000000000000000000000000000000000000000000000000000000000000000000000000000000000000000000000000000000000000000000000000000000000000000000000000000000000000000000000000000000000000000000000000000000
310
00000000000000000000000000000000000000000000000000000000000000000000000000000000000000000000000000000000000000000000000000000000000000000000000000000000000000000000000000000000000000000000000000000000000000000000000000000000000000000000000000000000000000
310
00000000000000000000000000000000000000002D00000000000000000000000000000000000000000000000000000000000000000000000000000000000000000000000000000000000000000000000000000000000000000000000000000000000000000000000000000000000000000000000000000000000000000000
310
00000000000000000000000000000000000000000000000000000000000000000000000000000000
  0
XRECORD
  5
4555
102
{ACAD_REACTORS
330
4554
102
}
330
4554
100
AcDbXrecord
280
     1
102
SHADEPLOT
 70
     0
102
SHADEPLOTRESLEVEL
 70
     2
102
SHADEPLOTCUSTOMDPI
 70
   300
  0
XRECORD
  5
4558
102
{ACAD_REACTORS
330
4557
102
}
330
4557
100
AcDbXrecord
280
     1
102
SHADEPLOT
 70
     0
102
SHADEPLOTRESLEVEL
 70
     2
102
SHADEPLOTCUSTOMDPI
 70
   300
  0
XRECORD
  5
455C
102
{ACAD_REACTORS
330
455B
102
}
330
455B
100
AcDbXrecord
280
     1
102
MATERIAL
148
0.0
149
0.0
149
0.0
 93
        0
 94
       63
282
     0
 72
     1
 77
     1
171
     1
175
     1
179
     1
273
     0
  0
XRECORD
  5
455A
102
{ACAD_REACTORS
330
4559
102
}
330
4559
100
AcDbXrecord
280
     1
102
MATERIAL
148
0.0
149
0.0
149
0.0
 93
        0
 94
       63
282
     0
 72
     1
 77
     1
171
     1
175
     1
179
     1
273
     0
  0
XRECORD
  5
455E
102
{ACAD_REACTORS
330
455D
102
}
330
455D
100
AcDbXrecord
280
     1
102
MATERIAL
148
0.0
149
0.0
149
0.0
 93
        0
 94
       63
282
     0
 72
     1
 77
     1
171
     1
175
     1
179
     1
273
     0
  0
CELLSTYLEMAP
  5
4551
102
{ACAD_REACTORS
330
2A7A
102
}
330
2A7A
100
AcDbCellStyleMap
 90
        3
300
CELLSTYLE
  1
TABLEFORMAT_BEGIN
 90
        5
170
     1
 91
        0
 92
    32768
 62
   257
 93
        1
300
CONTENTFORMAT
  1
CONTENTFORMAT_BEGIN
 90
        0
 91
        0
 92
      512
 93
        0
300

 40
0.0
140
1.0
 94
        5
 62
     0
340
11
144
6.0
309
CONTENTFORMAT_END
171
     1
301
MARGIN
  1
CELLMARGIN_BEGIN
 40
1.5
 40
1.5
 40
1.5
 40
1.5
 40
0.18
 40
0.18
309
CELLMARGIN_END
 94
        6
 95
        1
302
GRIDFORMAT
  1
GRIDFORMAT_BEGIN
 90
        0
 91
        1
 62
     0
 92
       -2
340
0
 93
        0
 40
0.045
309
GRIDFORMAT_END
 95
        2
302
GRIDFORMAT
  1
GRIDFORMAT_BEGIN
 90
        0
 91
        1
 62
     0
 92
       -2
340
0
 93
        0
 40
0.045
309
GRIDFORMAT_END
 95
        4
302
GRIDFORMAT
  1
GRIDFORMAT_BEGIN
 90
        0
 91
        1
 62
     0
 92
       -2
340
0
 93
        0
 40
0.045
309
GRIDFORMAT_END
 95
        8
302
GRIDFORMAT
  1
GRIDFORMAT_BEGIN
 90
        0
 91
        1
 62
     0
 92
       -2
340
0
 93
        0
 40
0.045
309
GRIDFORMAT_END
 95
       16
302
GRIDFORMAT
  1
GRIDFORMAT_BEGIN
 90
        0
 91
        1
 62
     0
 92
       -2
340
0
 93
        0
 40
0.045
309
GRIDFORMAT_END
 95
       32
302
GRIDFORMAT
  1
GRIDFORMAT_BEGIN
 90
        0
 91
        1
 62
     0
 92
       -2
340
0
 93
        0
 40
0.045
309
GRIDFORMAT_END
309
TABLEFORMAT_END
  1
CELLSTYLE_BEGIN
 90
        1
 91
        1
300
_TITLE
309
CELLSTYLE_END
300
CELLSTYLE
  1
TABLEFORMAT_BEGIN
 90
        5
170
     1
 91
        0
 92
        0
 62
   257
 93
        1
300
CONTENTFORMAT
  1
CONTENTFORMAT_BEGIN
 90
        0
 91
        0
 92
      512
 93
        0
300

 40
0.0
140
1.0
 94
        5
 62
     0
340
11
144
4.5
309
CONTENTFORMAT_END
171
     1
301
MARGIN
  1
CELLMARGIN_BEGIN
 40
1.5
 40
1.5
 40
1.5
 40
1.5
 40
0.18
 40
0.18
309
CELLMARGIN_END
 94
        6
 95
        1
302
GRIDFORMAT
  1
GRIDFORMAT_BEGIN
 90
        0
 91
        1
 62
     0
 92
       -2
340
0
 93
        0
 40
0.045
309
GRIDFORMAT_END
 95
        2
302
GRIDFORMAT
  1
GRIDFORMAT_BEGIN
 90
        0
 91
        1
 62
     0
 92
       -2
340
0
 93
        0
 40
0.045
309
GRIDFORMAT_END
 95
        4
302
GRIDFORMAT
  1
GRIDFORMAT_BEGIN
 90
        0
 91
        1
 62
     0
 92
       -2
340
0
 93
        0
 40
0.045
309
GRIDFORMAT_END
 95
        8
302
GRIDFORMAT
  1
GRIDFORMAT_BEGIN
 90
        0
 91
        1
 62
     0
 92
       -2
340
0
 93
        0
 40
0.045
309
GRIDFORMAT_END
 95
       16
302
GRIDFORMAT
  1
GRIDFORMAT_BEGIN
 90
        0
 91
        1
 62
     0
 92
       -2
340
0
 93
        0
 40
0.045
309
GRIDFORMAT_END
 95
       32
302
GRIDFORMAT
  1
GRIDFORMAT_BEGIN
 90
        0
 91
        1
 62
     0
 92
       -2
340
0
 93
        0
 40
0.045
309
GRIDFORMAT_END
309
TABLEFORMAT_END
  1
CELLSTYLE_BEGIN
 90
        2
 91
        1
300
_HEADER
309
CELLSTYLE_END
300
CELLSTYLE
  1
TABLEFORMAT_BEGIN
 90
        5
170
     1
 91
        0
 92
        0
 62
   257
 93
        1
300
CONTENTFORMAT
  1
CONTENTFORMAT_BEGIN
 90
        0
 91
        0
 92
      512
 93
        0
300

 40
0.0
140
1.0
 94
        2
 62
     0
340
11
144
4.5
309
CONTENTFORMAT_END
171
     1
301
MARGIN
  1
CELLMARGIN_BEGIN
 40
1.5
 40
1.5
 40
1.5
 40
1.5
 40
0.18
 40
0.18
309
CELLMARGIN_END
 94
        6
 95
        1
302
GRIDFORMAT
  1
GRIDFORMAT_BEGIN
 90
        0
 91
        1
 62
     0
 92
       -2
340
0
 93
        0
 40
0.045
309
GRIDFORMAT_END
 95
        2
302
GRIDFORMAT
  1
GRIDFORMAT_BEGIN
 90
        0
 91
        1
 62
     0
 92
       -2
340
0
 93
        0
 40
0.045
309
GRIDFORMAT_END
 95
        4
302
GRIDFORMAT
  1
GRIDFORMAT_BEGIN
 90
        0
 91
        1
 62
     0
 92
       -2
340
0
 93
        0
 40
0.045
309
GRIDFORMAT_END
 95
        8
302
GRIDFORMAT
  1
GRIDFORMAT_BEGIN
 90
        0
 91
        1
 62
     0
 92
       -2
340
0
 93
        0
 40
0.045
309
GRIDFORMAT_END
 95
       16
302
GRIDFORMAT
  1
GRIDFORMAT_BEGIN
 90
        0
 91
        1
 62
     0
 92
       -2
340
0
 93
        0
 40
0.045
309
GRIDFORMAT_END
 95
       32
302
GRIDFORMAT
  1
GRIDFORMAT_BEGIN
 90
        0
 91
        1
 62
     0
 92
       -2
340
0
 93
        0
 40
0.045
309
GRIDFORMAT_END
309
TABLEFORMAT_END
  1
CELLSTYLE_BEGIN
 90
        3
 91
        2
300
_DATA
309
CELLSTYLE_END
  0
XRECORD
  5
457F
102
{ACAD_REACTORS
330
2A7A
102
}
330
2A7A
100
AcDbXrecord
280
     1
102
ACAD_ROUNDTRIP_PRE2007_TABLESTYLE
 90
      512
 91
        0
  1

 92
      512
 93
        0
  2

 94
      512
 95
        0
  3

  0
XRECORD
  5
456A
102
{ACAD_REACTORS
330
4569
102
}
330
4569
100
AcDbXrecord
280
     1
102
RTVSPropertyOp0
 70
     1
102
RTVSPropertyOp1
 70
     1
102
RTVSPropertyOp2
 70
     1
102
RTVSPropertyOp3
 70
     1
102
RTVSPropertyOp4
 70
     1
102
RTVSPropertyOp5
 70
     1
102
RTVSPropertyOp6
 70
     1
102
RTVSPropertyOp7
 70
     1
102
RTVSPropertyOp8
 70
     1
102
RTVSPropertyOp9
 70
     1
102
RTVSPropertyOp10
 70
     1
102
RTVSPropertyOp11
 70
     1
102
RTVSPropertyOp12
 70
     1
102
RTVSPropertyOp13
 70
     1
102
RTVSPropertyOp14
 70
     1
102
RTVSPropertyOp15
 70
     1
102
RTVSPropertyOp16
 70
     1
102
RTVSPropertyOp17
 70
     1
102
RTVSPropertyOp18
 70
     1
102
RTVSPropertyOp19
 70
     1
102
RTVSPropertyOp20
 70
     1
102
RTVSPropertyOp21
 70
     1
102
RTVSPropertyOp22
 70
     1
102
RTVSPropertyOp23
 70
     1
102
RTVSPropertyOp24
 70
     1
102
RTVSPropertyOp25
 70
     1
102
RTVSPropertyOp26
 70
     1
102
RTVSPropertyOp27
 70
     1
102
RTVSPropertyOp28
 70
     1
102
RTVSPropertyOp29
 70
     1
102
RTVSPropertyOp30
 70
     1
102
RTVSPropertyOp31
 70
     1
102
RTVSPropertyOp32
 70
     1
  0
XRECORD
  5
456E
102
{ACAD_REACTORS
330
456D
102
}
330
456D
100
AcDbXrecord
280
     1
102
RTVSPropertyOp0
 70
     1
102
RTVSPropertyOp1
 70
     1
102
RTVSPropertyOp2
 70
     1
102
RTVSPropertyOp3
 70
     1
102
RTVSPropertyOp4
 70
     1
102
RTVSPropertyOp5
 70
     1
102
RTVSPropertyOp6
 70
     1
102
RTVSPropertyOp7
 70
     1
102
RTVSPropertyOp8
 70
     1
102
RTVSPropertyOp9
 70
     1
102
RTVSPropertyOp10
 70
     1
102
RTVSPropertyOp11
 70
     1
102
RTVSPropertyOp12
 70
     1
102
RTVSPropertyOp13
 70
     1
102
RTVSPropertyOp14
 70
     1
102
RTVSPropertyOp15
 70
     1
102
RTVSPropertyOp16
 70
     1
102
RTVSPropertyOp17
 70
     1
102
RTVSPropertyOp18
 70
     1
102
RTVSPropertyOp19
 70
     1
102
RTVSPropertyOp20
 70
     1
102
RTVSPropertyOp21
 70
     1
102
RTVSPropertyOp22
 70
     1
102
RTVSPropertyOp23
 70
     1
102
RTVSPropertyOp24
 70
     1
102
RTVSPropertyOp25
 70
     1
102
RTVSPropertyOp26
 70
     1
102
RTVSPropertyOp27
 70
     1
102
RTVSPropertyOp28
 70
     1
102
RTVSPropertyOp29
 70
     1
102
RTVSPropertyOp30
 70
     1
102
RTVSPropertyOp31
 70
     1
102
RTVSPropertyOp32
 70
     1
  0
XRECORD
  5
456C
102
{ACAD_REACTORS
330
456B
102
}
330
456B
100
AcDbXrecord
280
     1
102
RTVSPropertyOp0
 70
     1
102
RTVSPropertyOp1
 70
     1
102
RTVSPropertyOp2
 70
     1
102
RTVSPropertyOp3
 70
     1
102
RTVSPropertyOp4
 70
     1
102
RTVSPropertyOp5
 70
     1
102
RTVSPropertyOp6
 70
     1
102
RTVSPropertyOp7
 70
     1
102
RTVSPropertyOp8
 70
     1
102
RTVSPropertyOp9
 70
     1
102
RTVSPropertyOp10
 70
     1
102
RTVSPropertyOp11
 70
     1
102
RTVSPropertyOp12
 70
     1
102
RTVSPropertyOp13
 70
     1
102
RTVSPropertyOp14
 70
     1
102
RTVSPropertyOp15
 70
     1
102
RTVSPropertyOp16
 70
     1
102
RTVSPropertyOp17
 70
     1
102
RTVSPropertyOp18
 70
     1
102
RTVSPropertyOp19
 70
     1
102
RTVSPropertyOp20
 70
     1
102
RTVSPropertyOp21
 70
     1
102
RTVSPropertyOp22
 70
     1
102
RTVSPropertyOp23
 70
     1
102
RTVSPropertyOp24
 70
     1
102
RTVSPropertyOp25
 70
     1
102
RTVSPropertyOp26
 70
     1
102
RTVSPropertyOp27
 70
     1
102
RTVSPropertyOp28
 70
     1
102
RTVSPropertyOp29
 70
     1
102
RTVSPropertyOp30
 70
     1
102
RTVSPropertyOp31
 70
     1
102
RTVSPropertyOp32
 70
     1
  0
XRECORD
  5
4568
102
{ACAD_REACTORS
330
4567
102
}
330
4567
100
AcDbXrecord
280
     1
102
RTVSPropertyOp0
 70
     1
102
RTVSPropertyOp1
 70
     1
102
RTVSPropertyOp2
 70
     1
102
RTVSPropertyOp3
 70
     1
102
RTVSPropertyOp4
 70
     1
102
RTVSPropertyOp5
 70
     1
102
RTVSPropertyOp6
 70
     1
102
RTVSPropertyOp7
 70
     1
102
RTVSPropertyOp8
 70
     1
102
RTVSPropertyOp9
 70
     1
102
RTVSPropertyOp10
 70
     1
102
RTVSPropertyOp11
 70
     1
102
RTVSPropertyOp12
 70
     1
102
RTVSPropertyOp13
 70
     1
102
RTVSPropertyOp14
 70
     1
102
RTVSPropertyOp15
 70
     1
102
RTVSPropertyOp16
 70
     1
102
RTVSPropertyOp17
 70
     1
102
RTVSPropertyOp18
 70
     1
102
RTVSPropertyOp19
 70
     1
102
RTVSPropertyOp20
 70
     1
102
RTVSPropertyOp21
 70
     1
102
RTVSPropertyOp22
 70
     1
102
RTVSPropertyOp23
 70
     1
102
RTVSPropertyOp24
 70
     1
102
RTVSPropertyOp25
 70
     1
102
RTVSPropertyOp26
 70
     1
102
RTVSPropertyOp27
 70
     1
102
RTVSPropertyOp28
 70
     1
102
RTVSPropertyOp29
 70
     1
102
RTVSPropertyOp30
 70
     1
102
RTVSPropertyOp31
 70
     1
102
RTVSPropertyOp32
 70
     1
  0
XRECORD
  5
4576
102
{ACAD_REACTORS
330
4575
102
}
330
4575
100
AcDbXrecord
280
     1
102
RTVSPropertyOp0
 70
     1
102
RTVSPropertyOp1
 70
     1
102
RTVSPropertyOp2
 70
     1
102
RTVSPropertyOp3
 70
     1
102
RTVSPropertyOp4
 70
     1
102
RTVSPropertyOp5
 70
     1
102
RTVSPropertyOp6
 70
     1
102
RTVSPropertyOp7
 70
     1
102
RTVSPropertyOp8
 70
     1
102
RTVSPropertyOp9
 70
     1
102
RTVSPropertyOp10
 70
     1
102
RTVSPropertyOp11
 70
     1
102
RTVSPropertyOp12
 70
     1
102
RTVSPropertyOp13
 70
     1
102
RTVSPropertyOp14
 70
     1
102
RTVSPropertyOp15
 70
     1
102
RTVSPropertyOp16
 70
     1
102
RTVSPropertyOp17
 70
     1
102
RTVSPropertyOp18
 70
     1
102
RTVSPropertyOp19
 70
     1
102
RTVSPropertyOp20
 70
     1
102
RTVSPropertyOp21
 70
     1
102
RTVSPropertyOp22
 70
     1
102
RTVSPropertyOp23
 70
     1
102
RTVSPropertyOp24
 70
     1
102
RTVSPropertyOp25
 70
     1
102
RTVSPropertyOp26
 70
     1
102
RTVSPropertyOp27
 70
     1
102
RTVSPropertyOp28
 70
     1
102
RTVSPropertyOp29
 70
     1
102
RTVSPropertyOp30
 70
     1
102
RTVSPropertyOp31
 70
     1
102
RTVSPropertyOp32
 70
     1
  0
XRECORD
  5
457E
102
{ACAD_REACTORS
330
457D
102
}
330
457D
100
AcDbXrecord
280
     1
102
RTVSPropertyOp0
 70
     1
102
RTVSPropertyOp1
 70
     1
102
RTVSPropertyOp2
 70
     1
102
RTVSPropertyOp3
 70
     1
102
RTVSPropertyOp4
 70
     1
102
RTVSPropertyOp5
 70
     1
102
RTVSPropertyOp6
 70
     1
102
RTVSPropertyOp7
 70
     1
102
RTVSPropertyOp8
 70
     1
102
RTVSPropertyOp9
 70
     1
102
RTVSPropertyOp10
 70
     1
102
RTVSPropertyOp11
 70
     1
102
RTVSPropertyOp12
 70
     1
102
RTVSPropertyOp13
 70
     1
102
RTVSPropertyOp14
 70
     1
102
RTVSPropertyOp15
 70
     1
102
RTVSPropertyOp16
 70
     1
102
RTVSPropertyOp17
 70
     1
102
RTVSPropertyOp18
 70
     1
102
RTVSPropertyOp19
 70
     1
102
RTVSPropertyOp20
 70
     1
102
RTVSPropertyOp21
 70
     1
102
RTVSPropertyOp22
 70
     1
102
RTVSPropertyOp23
 70
     1
102
RTVSPropertyOp24
 70
     1
102
RTVSPropertyOp25
 70
     1
102
RTVSPropertyOp26
 70
     1
102
RTVSPropertyOp27
 70
     1
102
RTVSPropertyOp28
 70
     1
102
RTVSPropertyOp29
 70
     1
102
RTVSPropertyOp30
 70
     1
102
RTVSPropertyOp31
 70
     1
102
RTVSPropertyOp32
 70
     1
  0
XRECORD
  5
4570
102
{ACAD_REACTORS
330
456F
102
}
330
456F
100
AcDbXrecord
280
     1
102
RTVSPropertyOp0
 70
     1
102
RTVSPropertyOp1
 70
     1
102
RTVSPropertyOp2
 70
     1
102
RTVSPropertyOp3
 70
     1
102
RTVSPropertyOp4
 70
     1
102
RTVSPropertyOp5
 70
     1
102
RTVSPropertyOp6
 70
     1
102
RTVSPropertyOp7
 70
     1
102
RTVSPropertyOp8
 70
     1
102
RTVSPropertyOp9
 70
     1
102
RTVSPropertyOp10
 70
     1
102
RTVSPropertyOp11
 70
     1
102
RTVSPropertyOp12
 70
     1
102
RTVSPropertyOp13
 70
     1
102
RTVSPropertyOp14
 70
     1
102
RTVSPropertyOp15
 70
     1
102
RTVSPropertyOp16
 70
     1
102
RTVSPropertyOp17
 70
     1
102
RTVSPropertyOp18
 70
     1
102
RTVSPropertyOp19
 70
     1
102
RTVSPropertyOp20
 70
     1
102
RTVSPropertyOp21
 70
     1
102
RTVSPropertyOp22
 70
     1
102
RTVSPropertyOp23
 70
     1
102
RTVSPropertyOp24
 70
     1
102
RTVSPropertyOp25
 70
     1
102
RTVSPropertyOp26
 70
     1
102
RTVSPropertyOp27
 70
     1
102
RTVSPropertyOp28
 70
     1
102
RTVSPropertyOp29
 70
     1
102
RTVSPropertyOp30
 70
     1
102
RTVSPropertyOp31
 70
     1
102
RTVSPropertyOp32
 70
     1
  0
XRECORD
  5
4574
102
{ACAD_REACTORS
330
4573
102
}
330
4573
100
AcDbXrecord
280
     1
102
RTVSPropertyOp0
 70
     1
102
RTVSPropertyOp1
 70
     1
102
RTVSPropertyOp2
 70
     1
102
RTVSPropertyOp3
 70
     1
102
RTVSPropertyOp4
 70
     1
102
RTVSPropertyOp5
 70
     1
102
RTVSPropertyOp6
 70
     1
102
RTVSPropertyOp7
 70
     1
102
RTVSPropertyOp8
 70
     1
102
RTVSPropertyOp9
 70
     1
102
RTVSPropertyOp10
 70
     1
102
RTVSPropertyOp11
 70
     1
102
RTVSPropertyOp12
 70
     1
102
RTVSPropertyOp13
 70
     1
102
RTVSPropertyOp14
 70
     1
102
RTVSPropertyOp15
 70
     1
102
RTVSPropertyOp16
 70
     1
102
RTVSPropertyOp17
 70
     1
102
RTVSPropertyOp18
 70
     1
102
RTVSPropertyOp19
 70
     1
102
RTVSPropertyOp20
 70
     1
102
RTVSPropertyOp21
 70
     1
102
RTVSPropertyOp22
 70
     1
102
RTVSPropertyOp23
 70
     1
102
RTVSPropertyOp24
 70
     1
102
RTVSPropertyOp25
 70
     1
102
RTVSPropertyOp26
 70
     1
102
RTVSPropertyOp27
 70
     1
102
RTVSPropertyOp28
 70
     1
102
RTVSPropertyOp29
 70
     1
102
RTVSPropertyOp30
 70
     1
102
RTVSPropertyOp31
 70
     1
102
RTVSPropertyOp32
 70
     1
  0
XRECORD
  5
4593
102
{ACAD_REACTORS
330
4592
102
}
330
4592
100
AcDbXrecord
280
     1
102
RTVSPropertyOp0
 70
     0
102
RTVSPropertyOp1
 70
     0
102
RTVSPropertyOp2
 70
     0
102
RTVSPropertyOp3
 70
     0
102
RTVSPropertyOp4
 70
     0
102
RTVSPropertyOp5
 70
     0
102
RTVSPropertyOp6
 70
     0
102
RTVSPropertyOp7
 70
     0
102
RTVSPropertyOp8
 70
     0
102
RTVSPropertyOp9
 70
     0
102
RTVSPropertyOp10
 70
     0
102
RTVSPropertyOp11
 70
     0
102
RTVSPropertyOp12
 70
     0
102
RTVSPropertyOp13
 70
     0
102
RTVSPropertyOp14
 70
     2
102
RTVSPropertyOp15
 70
     0
102
RTVSPropertyOp16
 70
     0
102
RTVSPropertyOp17
 70
     0
102
RTVSPropertyOp18
 70
     0
102
RTVSPropertyOp19
 70
     0
102
RTVSPropertyOp20
 70
     0
102
RTVSPropertyOp21
 70
     0
102
RTVSPropertyOp22
 70
     0
102
RTVSPropertyOp23
 70
     0
102
RTVSPropertyOp24
 70
     0
102
RTVSPropertyOp25
 70
     0
102
RTVSPropertyOp26
 70
     0
102
RTVSPropertyOp27
 70
     0
102
RTVSPropertyOp28
 70
     0
102
RTVSPropertyOp29
 70
     0
102
RTVSPropertyOp30
 70
     0
102
RTVSPropertyOp31
 70
     0
102
RTVSPropertyOp32
 70
     0
  0
XRECORD
  5
457C
102
{ACAD_REACTORS
330
457B
102
}
330
457B
100
AcDbXrecord
280
     1
102
RTVSPropertyOp0
 70
     1
102
RTVSPropertyOp1
 70
     1
102
RTVSPropertyOp2
 70
     1
102
RTVSPropertyOp3
 70
     1
102
RTVSPropertyOp4
 70
     1
102
RTVSPropertyOp5
 70
     1
102
RTVSPropertyOp6
 70
     1
102
RTVSPropertyOp7
 70
     1
102
RTVSPropertyOp8
 70
     1
102
RTVSPropertyOp9
 70
     1
102
RTVSPropertyOp10
 70
     1
102
RTVSPropertyOp11
 70
     1
102
RTVSPropertyOp12
 70
     1
102
RTVSPropertyOp13
 70
     1
102
RTVSPropertyOp14
 70
     1
102
RTVSPropertyOp15
 70
     1
102
RTVSPropertyOp16
 70
     1
102
RTVSPropertyOp17
 70
     1
102
RTVSPropertyOp18
 70
     1
102
RTVSPropertyOp19
 70
     1
102
RTVSPropertyOp20
 70
     1
102
RTVSPropertyOp21
 70
     1
102
RTVSPropertyOp22
 70
     1
102
RTVSPropertyOp23
 70
     1
102
RTVSPropertyOp24
 70
     1
102
RTVSPropertyOp25
 70
     1
102
RTVSPropertyOp26
 70
     1
102
RTVSPropertyOp27
 70
     1
102
RTVSPropertyOp28
 70
     1
102
RTVSPropertyOp29
 70
     1
102
RTVSPropertyOp30
 70
     1
102
RTVSPropertyOp31
 70
     1
102
RTVSPropertyOp32
 70
     1
  0
XRECORD
  5
4560
102
{ACAD_REACTORS
330
455F
102
}
330
455F
100
AcDbXrecord
280
     1
102
RTVSPropertyOp0
 70
     1
102
RTVSPropertyOp1
 70
     1
102
RTVSPropertyOp2
 70
     1
102
RTVSPropertyOp3
 70
     1
102
RTVSPropertyOp4
 70
     1
102
RTVSPropertyOp5
 70
     1
102
RTVSPropertyOp6
 70
     1
102
RTVSPropertyOp7
 70
     1
102
RTVSPropertyOp8
 70
     1
102
RTVSPropertyOp9
 70
     1
102
RTVSPropertyOp10
 70
     1
102
RTVSPropertyOp11
 70
     1
102
RTVSPropertyOp12
 70
     1
102
RTVSPropertyOp13
 70
     1
102
RTVSPropertyOp14
 70
     1
102
RTVSPropertyOp15
 70
     1
102
RTVSPropertyOp16
 70
     1
102
RTVSPropertyOp17
 70
     1
102
RTVSPropertyOp18
 70
     1
102
RTVSPropertyOp19
 70
     1
102
RTVSPropertyOp20
 70
     1
102
RTVSPropertyOp21
 70
     1
102
RTVSPropertyOp22
 70
     1
102
RTVSPropertyOp23
 70
     1
102
RTVSPropertyOp24
 70
     1
102
RTVSPropertyOp25
 70
     1
102
RTVSPropertyOp26
 70
     1
102
RTVSPropertyOp27
 70
     1
102
RTVSPropertyOp28
 70
     1
102
RTVSPropertyOp29
 70
     1
102
RTVSPropertyOp30
 70
     1
102
RTVSPropertyOp31
 70
     1
102
RTVSPropertyOp32
 70
     1
  0
XRECORD
  5
4562
102
{ACAD_REACTORS
330
4561
102
}
330
4561
100
AcDbXrecord
280
     1
102
RTVSPropertyOp0
 70
     1
102
RTVSPropertyOp1
 70
     1
102
RTVSPropertyOp2
 70
     1
102
RTVSPropertyOp3
 70
     1
102
RTVSPropertyOp4
 70
     1
102
RTVSPropertyOp5
 70
     1
102
RTVSPropertyOp6
 70
     1
102
RTVSPropertyOp7
 70
     1
102
RTVSPropertyOp8
 70
     1
102
RTVSPropertyOp9
 70
     1
102
RTVSPropertyOp10
 70
     1
102
RTVSPropertyOp11
 70
     1
102
RTVSPropertyOp12
 70
     1
102
RTVSPropertyOp13
 70
     1
102
RTVSPropertyOp14
 70
     1
102
RTVSPropertyOp15
 70
     1
102
RTVSPropertyOp16
 70
     1
102
RTVSPropertyOp17
 70
     1
102
RTVSPropertyOp18
 70
     1
102
RTVSPropertyOp19
 70
     1
102
RTVSPropertyOp20
 70
     1
102
RTVSPropertyOp21
 70
     1
102
RTVSPropertyOp22
 70
     1
102
RTVSPropertyOp23
 70
     1
102
RTVSPropertyOp24
 70
     1
102
RTVSPropertyOp25
 70
     1
102
RTVSPropertyOp26
 70
     1
102
RTVSPropertyOp27
 70
     1
102
RTVSPropertyOp28
 70
     1
102
RTVSPropertyOp29
 70
     1
102
RTVSPropertyOp30
 70
     1
102
RTVSPropertyOp31
 70
     1
102
RTVSPropertyOp32
 70
     1
  0
XRECORD
  5
4564
102
{ACAD_REACTORS
330
4563
102
}
330
4563
100
AcDbXrecord
280
     1
102
RTVSPropertyOp0
 70
     1
102
RTVSPropertyOp1
 70
     1
102
RTVSPropertyOp2
 70
     1
102
RTVSPropertyOp3
 70
     1
102
RTVSPropertyOp4
 70
     1
102
RTVSPropertyOp5
 70
     1
102
RTVSPropertyOp6
 70
     1
102
RTVSPropertyOp7
 70
     1
102
RTVSPropertyOp8
 70
     1
102
RTVSPropertyOp9
 70
     1
102
RTVSPropertyOp10
 70
     1
102
RTVSPropertyOp11
 70
     1
102
RTVSPropertyOp12
 70
     1
102
RTVSPropertyOp13
 70
     1
102
RTVSPropertyOp14
 70
     1
102
RTVSPropertyOp15
 70
     1
102
RTVSPropertyOp16
 70
     1
102
RTVSPropertyOp17
 70
     1
102
RTVSPropertyOp18
 70
     1
102
RTVSPropertyOp19
 70
     1
102
RTVSPropertyOp20
 70
     1
102
RTVSPropertyOp21
 70
     1
102
RTVSPropertyOp22
 70
     1
102
RTVSPropertyOp23
 70
     1
102
RTVSPropertyOp24
 70
     1
102
RTVSPropertyOp25
 70
     1
102
RTVSPropertyOp26
 70
     1
102
RTVSPropertyOp27
 70
     1
102
RTVSPropertyOp28
 70
     1
102
RTVSPropertyOp29
 70
     1
102
RTVSPropertyOp30
 70
     1
102
RTVSPropertyOp31
 70
     1
102
RTVSPropertyOp32
 70
     1
  0
XRECORD
  5
4566
102
{ACAD_REACTORS
330
4565
102
}
330
4565
100
AcDbXrecord
280
     1
102
RTVSPropertyOp0
 70
     1
102
RTVSPropertyOp1
 70
     1
102
RTVSPropertyOp2
 70
     1
102
RTVSPropertyOp3
 70
     1
102
RTVSPropertyOp4
 70
     1
102
RTVSPropertyOp5
 70
     1
102
RTVSPropertyOp6
 70
     1
102
RTVSPropertyOp7
 70
     1
102
RTVSPropertyOp8
 70
     1
102
RTVSPropertyOp9
 70
     1
102
RTVSPropertyOp10
 70
     1
102
RTVSPropertyOp11
 70
     1
102
RTVSPropertyOp12
 70
     1
102
RTVSPropertyOp13
 70
     1
102
RTVSPropertyOp14
 70
     1
102
RTVSPropertyOp15
 70
     1
102
RTVSPropertyOp16
 70
     1
102
RTVSPropertyOp17
 70
     1
102
RTVSPropertyOp18
 70
     1
102
RTVSPropertyOp19
 70
     1
102
RTVSPropertyOp20
 70
     1
102
RTVSPropertyOp21
 70
     1
102
RTVSPropertyOp22
 70
     1
102
RTVSPropertyOp23
 70
     1
102
RTVSPropertyOp24
 70
     1
102
RTVSPropertyOp25
 70
     1
102
RTVSPropertyOp26
 70
     1
102
RTVSPropertyOp27
 70
     1
102
RTVSPropertyOp28
 70
     1
102
RTVSPropertyOp29
 70
     1
102
RTVSPropertyOp30
 70
     1
102
RTVSPropertyOp31
 70
     1
102
RTVSPropertyOp32
 70
     1
  0
XRECORD
  5
4583
102
{ACAD_REACTORS
330
4582
102
}
330
4582
100
AcDbXrecord
280
     1
102
RTVSPropertyOp0
 70
     1
102
RTVSPropertyOp1
 70
     1
102
RTVSPropertyOp2
 70
     1
102
RTVSPropertyOp3
 70
     1
102
RTVSPropertyOp4
 70
     1
102
RTVSPropertyOp5
 70
     1
102
RTVSPropertyOp6
 70
     1
102
RTVSPropertyOp7
 70
     1
102
RTVSPropertyOp8
 70
     1
102
RTVSPropertyOp9
 70
     1
102
RTVSPropertyOp10
 70
     1
102
RTVSPropertyOp11
 70
     1
102
RTVSPropertyOp12
 70
     1
102
RTVSPropertyOp13
 70
     1
102
RTVSPropertyOp14
 70
     1
102
RTVSPropertyOp15
 70
     1
102
RTVSPropertyOp16
 70
     1
102
RTVSPropertyOp17
 70
     1
102
RTVSPropertyOp18
 70
     1
102
RTVSPropertyOp19
 70
     1
102
RTVSPropertyOp20
 70
     1
102
RTVSPropertyOp21
 70
     1
102
RTVSPropertyOp22
 70
     1
102
RTVSPropertyOp23
 70
     1
102
RTVSPropertyOp24
 70
     1
102
RTVSPropertyOp25
 70
     1
102
RTVSPropertyOp26
 70
     1
102
RTVSPropertyOp27
 70
     1
102
RTVSPropertyOp28
 70
     1
102
RTVSPropertyOp29
 70
     1
102
RTVSPropertyOp30
 70
     1
102
RTVSPropertyOp31
 70
     1
102
RTVSPropertyOp32
 70
     1
  0
XRECORD
  5
458F
102
{ACAD_REACTORS
330
458E
102
}
330
458E
100
AcDbXrecord
280
     1
102
RTVSPropertyOp0
 70
     0
102
RTVSPropertyOp1
 70
     0
102
RTVSPropertyOp2
 70
     0
102
RTVSPropertyOp3
 70
     0
102
RTVSPropertyOp4
 70
     0
102
RTVSPropertyOp5
 70
     0
102
RTVSPropertyOp6
 70
     0
102
RTVSPropertyOp7
 70
     0
102
RTVSPropertyOp8
 70
     0
102
RTVSPropertyOp9
 70
     0
102
RTVSPropertyOp10
 70
     0
102
RTVSPropertyOp11
 70
     0
102
RTVSPropertyOp12
 70
     0
102
RTVSPropertyOp13
 70
     0
102
RTVSPropertyOp14
 70
     2
102
RTVSPropertyOp15
 70
     0
102
RTVSPropertyOp16
 70
     0
102
RTVSPropertyOp17
 70
     0
102
RTVSPropertyOp18
 70
     0
102
RTVSPropertyOp19
 70
     0
102
RTVSPropertyOp20
 70
     0
102
RTVSPropertyOp21
 70
     0
102
RTVSPropertyOp22
 70
     0
102
RTVSPropertyOp23
 70
     0
102
RTVSPropertyOp24
 70
     0
102
RTVSPropertyOp25
 70
     0
102
RTVSPropertyOp26
 70
     0
102
RTVSPropertyOp27
 70
     0
102
RTVSPropertyOp28
 70
     0
102
RTVSPropertyOp29
 70
     0
102
RTVSPropertyOp30
 70
     0
102
RTVSPropertyOp31
 70
     0
102
RTVSPropertyOp32
 70
     0
  0
XRECORD
  5
457A
102
{ACAD_REACTORS
330
4579
102
}
330
4579
100
AcDbXrecord
280
     1
102
RTVSPropertyOp0
 70
     1
102
RTVSPropertyOp1
 70
     1
102
RTVSPropertyOp2
 70
     1
102
RTVSPropertyOp3
 70
     1
102
RTVSPropertyOp4
 70
     1
102
RTVSPropertyOp5
 70
     1
102
RTVSPropertyOp6
 70
     1
102
RTVSPropertyOp7
 70
     1
102
RTVSPropertyOp8
 70
     1
102
RTVSPropertyOp9
 70
     1
102
RTVSPropertyOp10
 70
     1
102
RTVSPropertyOp11
 70
     1
102
RTVSPropertyOp12
 70
     1
102
RTVSPropertyOp13
 70
     1
102
RTVSPropertyOp14
 70
     1
102
RTVSPropertyOp15
 70
     1
102
RTVSPropertyOp16
 70
     1
102
RTVSPropertyOp17
 70
     1
102
RTVSPropertyOp18
 70
     1
102
RTVSPropertyOp19
 70
     1
102
RTVSPropertyOp20
 70
     1
102
RTVSPropertyOp21
 70
     1
102
RTVSPropertyOp22
 70
     1
102
RTVSPropertyOp23
 70
     1
102
RTVSPropertyOp24
 70
     1
102
RTVSPropertyOp25
 70
     1
102
RTVSPropertyOp26
 70
     1
102
RTVSPropertyOp27
 70
     1
102
RTVSPropertyOp28
 70
     1
102
RTVSPropertyOp29
 70
     1
102
RTVSPropertyOp30
 70
     1
102
RTVSPropertyOp31
 70
     1
102
RTVSPropertyOp32
 70
     1
  0
XRECORD
  5
4591
102
{ACAD_REACTORS
330
4590
102
}
330
4590
100
AcDbXrecord
280
     1
102
RTVSPropertyOp0
 70
     0
102
RTVSPropertyOp1
 70
     0
102
RTVSPropertyOp2
 70
     0
102
RTVSPropertyOp3
 70
     0
102
RTVSPropertyOp4
 70
     0
102
RTVSPropertyOp5
 70
     0
102
RTVSPropertyOp6
 70
     0
102
RTVSPropertyOp7
 70
     0
102
RTVSPropertyOp8
 70
     0
102
RTVSPropertyOp9
 70
     0
102
RTVSPropertyOp10
 70
     0
102
RTVSPropertyOp11
 70
     0
102
RTVSPropertyOp12
 70
     0
102
RTVSPropertyOp13
 70
     0
102
RTVSPropertyOp14
 70
     2
102
RTVSPropertyOp15
 70
     0
102
RTVSPropertyOp16
 70
     0
102
RTVSPropertyOp17
 70
     0
102
RTVSPropertyOp18
 70
     0
102
RTVSPropertyOp19
 70
     0
102
RTVSPropertyOp20
 70
     0
102
RTVSPropertyOp21
 70
     0
102
RTVSPropertyOp22
 70
     0
102
RTVSPropertyOp23
 70
     0
102
RTVSPropertyOp24
 70
     0
102
RTVSPropertyOp25
 70
     0
102
RTVSPropertyOp26
 70
     0
102
RTVSPropertyOp27
 70
     0
102
RTVSPropertyOp28
 70
     0
102
RTVSPropertyOp29
 70
     0
102
RTVSPropertyOp30
 70
     0
102
RTVSPropertyOp31
 70
     0
102
RTVSPropertyOp32
 70
     0
  0
XRECORD
  5
4572
102
{ACAD_REACTORS
330
4571
102
}
330
4571
100
AcDbXrecord
280
     1
102
RTVSPropertyOp0
 70
     1
102
RTVSPropertyOp1
 70
     1
102
RTVSPropertyOp2
 70
     1
102
RTVSPropertyOp3
 70
     1
102
RTVSPropertyOp4
 70
     1
102
RTVSPropertyOp5
 70
     1
102
RTVSPropertyOp6
 70
     1
102
RTVSPropertyOp7
 70
     1
102
RTVSPropertyOp8
 70
     1
102
RTVSPropertyOp9
 70
     1
102
RTVSPropertyOp10
 70
     1
102
RTVSPropertyOp11
 70
     1
102
RTVSPropertyOp12
 70
     1
102
RTVSPropertyOp13
 70
     1
102
RTVSPropertyOp14
 70
     1
102
RTVSPropertyOp15
 70
     1
102
RTVSPropertyOp16
 70
     1
102
RTVSPropertyOp17
 70
     1
102
RTVSPropertyOp18
 70
     1
102
RTVSPropertyOp19
 70
     1
102
RTVSPropertyOp20
 70
     1
102
RTVSPropertyOp21
 70
     1
102
RTVSPropertyOp22
 70
     1
102
RTVSPropertyOp23
 70
     1
102
RTVSPropertyOp24
 70
     1
102
RTVSPropertyOp25
 70
     1
102
RTVSPropertyOp26
 70
     1
102
RTVSPropertyOp27
 70
     1
102
RTVSPropertyOp28
 70
     1
102
RTVSPropertyOp29
 70
     1
102
RTVSPropertyOp30
 70
     1
102
RTVSPropertyOp31
 70
     1
102
RTVSPropertyOp32
 70
     1
  0
XRECORD
  5
458D
102
{ACAD_REACTORS
330
458C
102
}
330
458C
100
AcDbXrecord
280
     1
102
RTVSPropertyOp0
 70
     1
102
RTVSPropertyOp1
 70
     1
102
RTVSPropertyOp2
 70
     1
102
RTVSPropertyOp3
 70
     1
102
RTVSPropertyOp4
 70
     1
102
RTVSPropertyOp5
 70
     1
102
RTVSPropertyOp6
 70
     1
102
RTVSPropertyOp7
 70
     1
102
RTVSPropertyOp8
 70
     1
102
RTVSPropertyOp9
 70
     1
102
RTVSPropertyOp10
 70
     1
102
RTVSPropertyOp11
 70
     1
102
RTVSPropertyOp12
 70
     1
102
RTVSPropertyOp13
 70
     1
102
RTVSPropertyOp14
 70
     1
102
RTVSPropertyOp15
 70
     1
102
RTVSPropertyOp16
 70
     1
102
RTVSPropertyOp17
 70
     1
102
RTVSPropertyOp18
 70
     1
102
RTVSPropertyOp19
 70
     1
102
RTVSPropertyOp20
 70
     1
102
RTVSPropertyOp21
 70
     1
102
RTVSPropertyOp22
 70
     1
102
RTVSPropertyOp23
 70
     1
102
RTVSPropertyOp24
 70
     1
102
RTVSPropertyOp25
 70
     1
102
RTVSPropertyOp26
 70
     1
102
RTVSPropertyOp27
 70
     1
102
RTVSPropertyOp28
 70
     1
102
RTVSPropertyOp29
 70
     1
102
RTVSPropertyOp30
 70
     1
102
RTVSPropertyOp31
 70
     1
102
RTVSPropertyOp32
 70
     1
  0
XRECORD
  5
458B
102
{ACAD_REACTORS
330
458A
102
}
330
458A
100
AcDbXrecord
280
     1
102
RTVSPropertyOp0
 70
     1
102
RTVSPropertyOp1
 70
     1
102
RTVSPropertyOp2
 70
     1
102
RTVSPropertyOp3
 70
     1
102
RTVSPropertyOp4
 70
     1
102
RTVSPropertyOp5
 70
     1
102
RTVSPropertyOp6
 70
     1
102
RTVSPropertyOp7
 70
     1
102
RTVSPropertyOp8
 70
     1
102
RTVSPropertyOp9
 70
     1
102
RTVSPropertyOp10
 70
     1
102
RTVSPropertyOp11
 70
     1
102
RTVSPropertyOp12
 70
     1
102
RTVSPropertyOp13
 70
     1
102
RTVSPropertyOp14
 70
     1
102
RTVSPropertyOp15
 70
     1
102
RTVSPropertyOp16
 70
     1
102
RTVSPropertyOp17
 70
     1
102
RTVSPropertyOp18
 70
     1
102
RTVSPropertyOp19
 70
     1
102
RTVSPropertyOp20
 70
     1
102
RTVSPropertyOp21
 70
     1
102
RTVSPropertyOp22
 70
     1
102
RTVSPropertyOp23
 70
     1
102
RTVSPropertyOp24
 70
     1
102
RTVSPropertyOp25
 70
     1
102
RTVSPropertyOp26
 70
     1
102
RTVSPropertyOp27
 70
     1
102
RTVSPropertyOp28
 70
     1
102
RTVSPropertyOp29
 70
     1
102
RTVSPropertyOp30
 70
     1
102
RTVSPropertyOp31
 70
     1
102
RTVSPropertyOp32
 70
     1
  0
XRECORD
  5
4585
102
{ACAD_REACTORS
330
4584
102
}
330
4584
100
AcDbXrecord
280
     1
102
RTVSPropertyOp0
 70
     1
102
RTVSPropertyOp1
 70
     1
102
RTVSPropertyOp2
 70
     1
102
RTVSPropertyOp3
 70
     1
102
RTVSPropertyOp4
 70
     1
102
RTVSPropertyOp5
 70
     1
102
RTVSPropertyOp6
 70
     1
102
RTVSPropertyOp7
 70
     1
102
RTVSPropertyOp8
 70
     1
102
RTVSPropertyOp9
 70
     1
102
RTVSPropertyOp10
 70
     1
102
RTVSPropertyOp11
 70
     1
102
RTVSPropertyOp12
 70
     1
102
RTVSPropertyOp13
 70
     1
102
RTVSPropertyOp14
 70
     1
102
RTVSPropertyOp15
 70
     1
102
RTVSPropertyOp16
 70
     1
102
RTVSPropertyOp17
 70
     1
102
RTVSPropertyOp18
 70
     1
102
RTVSPropertyOp19
 70
     1
102
RTVSPropertyOp20
 70
     1
102
RTVSPropertyOp21
 70
     1
102
RTVSPropertyOp22
 70
     1
102
RTVSPropertyOp23
 70
     1
102
RTVSPropertyOp24
 70
     1
102
RTVSPropertyOp25
 70
     1
102
RTVSPropertyOp26
 70
     1
102
RTVSPropertyOp27
 70
     1
102
RTVSPropertyOp28
 70
     1
102
RTVSPropertyOp29
 70
     1
102
RTVSPropertyOp30
 70
     1
102
RTVSPropertyOp31
 70
     1
102
RTVSPropertyOp32
 70
     1
  0
XRECORD
  5
4587
102
{ACAD_REACTORS
330
4586
102
}
330
4586
100
AcDbXrecord
280
     1
102
RTVSPropertyOp0
 70
     1
102
RTVSPropertyOp1
 70
     1
102
RTVSPropertyOp2
 70
     1
102
RTVSPropertyOp3
 70
     1
102
RTVSPropertyOp4
 70
     1
102
RTVSPropertyOp5
 70
     1
102
RTVSPropertyOp6
 70
     1
102
RTVSPropertyOp7
 70
     1
102
RTVSPropertyOp8
 70
     1
102
RTVSPropertyOp9
 70
     1
102
RTVSPropertyOp10
 70
     1
102
RTVSPropertyOp11
 70
     1
102
RTVSPropertyOp12
 70
     1
102
RTVSPropertyOp13
 70
     1
102
RTVSPropertyOp14
 70
     1
102
RTVSPropertyOp15
 70
     1
102
RTVSPropertyOp16
 70
     1
102
RTVSPropertyOp17
 70
     1
102
RTVSPropertyOp18
 70
     1
102
RTVSPropertyOp19
 70
     1
102
RTVSPropertyOp20
 70
     1
102
RTVSPropertyOp21
 70
     1
102
RTVSPropertyOp22
 70
     1
102
RTVSPropertyOp23
 70
     1
102
RTVSPropertyOp24
 70
     1
102
RTVSPropertyOp25
 70
     1
102
RTVSPropertyOp26
 70
     1
102
RTVSPropertyOp27
 70
     1
102
RTVSPropertyOp28
 70
     1
102
RTVSPropertyOp29
 70
     1
102
RTVSPropertyOp30
 70
     1
102
RTVSPropertyOp31
 70
     1
102
RTVSPropertyOp32
 70
     1
  0
XRECORD
  5
4578
102
{ACAD_REACTORS
330
4577
102
}
330
4577
100
AcDbXrecord
280
     1
102
RTVSPropertyOp0
 70
     1
102
RTVSPropertyOp1
 70
     1
102
RTVSPropertyOp2
 70
     1
102
RTVSPropertyOp3
 70
     1
102
RTVSPropertyOp4
 70
     1
102
RTVSPropertyOp5
 70
     1
102
RTVSPropertyOp6
 70
     1
102
RTVSPropertyOp7
 70
     1
102
RTVSPropertyOp8
 70
     1
102
RTVSPropertyOp9
 70
     1
102
RTVSPropertyOp10
 70
     1
102
RTVSPropertyOp11
 70
     1
102
RTVSPropertyOp12
 70
     1
102
RTVSPropertyOp13
 70
     1
102
RTVSPropertyOp14
 70
     1
102
RTVSPropertyOp15
 70
     1
102
RTVSPropertyOp16
 70
     1
102
RTVSPropertyOp17
 70
     1
102
RTVSPropertyOp18
 70
     1
102
RTVSPropertyOp19
 70
     1
102
RTVSPropertyOp20
 70
     1
102
RTVSPropertyOp21
 70
     1
102
RTVSPropertyOp22
 70
     1
102
RTVSPropertyOp23
 70
     1
102
RTVSPropertyOp24
 70
     1
102
RTVSPropertyOp25
 70
     1
102
RTVSPropertyOp26
 70
     1
102
RTVSPropertyOp27
 70
     1
102
RTVSPropertyOp28
 70
     1
102
RTVSPropertyOp29
 70
     1
102
RTVSPropertyOp30
 70
     1
102
RTVSPropertyOp31
 70
     1
102
RTVSPropertyOp32
 70
     1
  0
XRECORD
  5
4581
102
{ACAD_REACTORS
330
4580
102
}
330
4580
100
AcDbXrecord
280
     1
102
RTVSPropertyOp0
 70
     1
102
RTVSPropertyOp1
 70
     1
102
RTVSPropertyOp2
 70
     1
102
RTVSPropertyOp3
 70
     1
102
RTVSPropertyOp4
 70
     1
102
RTVSPropertyOp5
 70
     1
102
RTVSPropertyOp6
 70
     1
102
RTVSPropertyOp7
 70
     1
102
RTVSPropertyOp8
 70
     1
102
RTVSPropertyOp9
 70
     1
102
RTVSPropertyOp10
 70
     1
102
RTVSPropertyOp11
 70
     1
102
RTVSPropertyOp12
 70
     1
102
RTVSPropertyOp13
 70
     1
102
RTVSPropertyOp14
 70
     1
102
RTVSPropertyOp15
 70
     1
102
RTVSPropertyOp16
 70
     1
102
RTVSPropertyOp17
 70
     1
102
RTVSPropertyOp18
 70
     1
102
RTVSPropertyOp19
 70
     1
102
RTVSPropertyOp20
 70
     1
102
RTVSPropertyOp21
 70
     1
102
RTVSPropertyOp22
 70
     1
102
RTVSPropertyOp23
 70
     1
102
RTVSPropertyOp24
 70
     1
102
RTVSPropertyOp25
 70
     1
102
RTVSPropertyOp26
 70
     1
102
RTVSPropertyOp27
 70
     1
102
RTVSPropertyOp28
 70
     1
102
RTVSPropertyOp29
 70
     1
102
RTVSPropertyOp30
 70
     1
102
RTVSPropertyOp31
 70
     1
102
RTVSPropertyOp32
 70
     1
  0
XRECORD
  5
4589
102
{ACAD_REACTORS
330
4588
102
}
330
4588
100
AcDbXrecord
280
     1
102
RTVSPropertyOp0
 70
     1
102
RTVSPropertyOp1
 70
     1
102
RTVSPropertyOp2
 70
     1
102
RTVSPropertyOp3
 70
     1
102
RTVSPropertyOp4
 70
     1
102
RTVSPropertyOp5
 70
     1
102
RTVSPropertyOp6
 70
     1
102
RTVSPropertyOp7
 70
     1
102
RTVSPropertyOp8
 70
     1
102
RTVSPropertyOp9
 70
     1
102
RTVSPropertyOp10
 70
     1
102
RTVSPropertyOp11
 70
     1
102
RTVSPropertyOp12
 70
     1
102
RTVSPropertyOp13
 70
     1
102
RTVSPropertyOp14
 70
     1
102
RTVSPropertyOp15
 70
     1
102
RTVSPropertyOp16
 70
     1
102
RTVSPropertyOp17
 70
     1
102
RTVSPropertyOp18
 70
     1
102
RTVSPropertyOp19
 70
     1
102
RTVSPropertyOp20
 70
     1
102
RTVSPropertyOp21
 70
     1
102
RTVSPropertyOp22
 70
     1
102
RTVSPropertyOp23
 70
     1
102
RTVSPropertyOp24
 70
     1
102
RTVSPropertyOp25
 70
     1
102
RTVSPropertyOp26
 70
     1
102
RTVSPropertyOp27
 70
     1
102
RTVSPropertyOp28
 70
     1
102
RTVSPropertyOp29
 70
     1
102
RTVSPropertyOp30
 70
     1
102
RTVSPropertyOp31
 70
     1
102
RTVSPropertyOp32
 70
     1
  0
ENDSEC
  0
EOF
