  0
SECTION
  2
HEADER
  9
$ACADVER
  1
AC1015
  9
$ACADMAINTVER
 70
    20
  9
$DWGCODEPAGE
  3
ANSI_932
  9
$INSBASE
 10
0.0
 20
0.0
 30
0.0
  9
$EXTMIN
 10
134.2816292804304
 20
282.4998701863239
 30
0.0
  9
$EXTMAX
 10
243.2066679457968
 20
373.6167006836677
 30
0.0
  9
$LIMMIN
 10
115.2696222226474
 20
247.1175262532765
  9
$LIMMAX
 10
325.291050794076
 20
395.6175262532765
  9
$ORTHOMODE
 70
     0
  9
$REGENMODE
 70
     1
  9
$FILLMODE
 70
     1
  9
$QTEXTMODE
 70
     0
  9
$MIRRTEXT
 70
     1
  9
$LTSCALE
 40
0.5
  9
$ATTMODE
 70
     1
  9
$TEXTSIZE
 40
1.5
  9
$TRACEWID
 40
1.0
  9
$TEXTSTYLE
  7
STANDARD
  9
$CLAYER
  8
AM_0
  9
$CELTYPE
  6
ByLayer
  9
$CECOLOR
 62
   256
  9
$CELTSCALE
 40
1.0
  9
$DISPSILH
 70
     0
  9
$DIMSCALE
 40
0.5
  9
$DIMASZ
 40
2.5
  9
$DIMEXO
 40
1.0
  9
$DIMDLI
 40
10.0
  9
$DIMRND
 40
0.0
  9
$DIMDLE
 40
0.0
  9
$DIMEXE
 40
1.0
  9
$DIMTP
 40
0.1
  9
$DIMTM
 40
0.1
  9
$DIMTXT
 40
3.5
  9
$DIMCEN
 40
0.0
  9
$DIMTSZ
 40
0.0
  9
$DIMTOL
 70
     0
  9
$DIMLIM
 70
     0
  9
$DIMTIH
 70
     0
  9
$DIMTOH
 70
     0
  9
$DIMSE1
 70
     0
  9
$DIMSE2
 70
     0
  9
$DIMTAD
 70
     3
  9
$DIMZIN
 70
     8
  9
$DIMBLK
  1
Open30
  9
$DIMASO
 70
     1
  9
$DIMSHO
 70
     1
  9
$DIMPOST
  1

  9
$DIMAPOST
  1
"
  9
$DIMALT
 70
     0
  9
$DIMALTD
 70
     2
  9
$DIMALTF
 40
0.0393701
  9
$DIMLFAC
 40
1.0
  9
$DIMTOFL
 70
     1
  9
$DIMTVP
 40
0.0
  9
$DIMTIX
 70
     0
  9
$DIMSOXD
 70
     0
  9
$DIMSAH
 70
     0
  9
$DIMBLK1
  1
Open30
  9
$DIMBLK2
  1
Open30
  9
$DIMSTYLE
  2
AM_JIS
  9
$DIMCLRD
 70
   256
  9
$DIMCLRE
 70
   256
  9
$DIMCLRT
 70
     2
  9
$DIMTFAC
 40
0.71
  9
$DIMGAP
 40
1.5
  9
$DIMJUST
 70
     0
  9
$DIMSD1
 70
     0
  9
$DIMSD2
 70
     0
  9
$DIMTOLJ
 70
     0
  9
$DIMTZIN
 70
     0
  9
$DIMALTZ
 70
     0
  9
$DIMALTTZ
 70
     0
  9
$DIMUPT
 70
     0
  9
$DIMDEC
 70
     2
  9
$DIMTDEC
 70
     3
  9
$DIMALTU
 70
     2
  9
$DIMALTTD
 70
     4
  9
$DIMTXSTY
  7
STANDARD
  9
$DIMAUNIT
 70
     0
  9
$DIMADEC
 70
     0
  9
$DIMALTRND
 40
0.0
  9
$DIMAZIN
 70
     2
  9
$DIMDSEP
 70
    46
  9
$DIMATFIT
 70
     3
  9
$DIMFRAC
 70
     0
  9
$DIMLDRBLK
  1
Open30
  9
$DIMLUNIT
 70
     2
  9
$DIMLWD
 70
    -1
  9
$DIMLWE
 70
    -1
  9
$DIMTMOVE
 70
     0
  9
$LUNITS
 70
     2
  9
$LUPREC
 70
     2
  9
$SKETCHINC
 40
1.0
  9
$FILLETRAD
 40
0.5
  9
$AUNITS
 70
     0
  9
$AUPREC
 70
     0
  9
$MENU
  1
.
  9
$ELEVATION
 40
0.0
  9
$PELEVATION
 40
0.0
  9
$THICKNESS
 40
0.0
  9
$LIMCHECK
 70
     0
  9
$CHAMFERA
 40
0.5
  9
$CHAMFERB
 40
0.5
  9
$CHAMFERC
 40
20.0
  9
$CHAMFERD
 40
0.0
  9
$SKPOLY
 70
     0
  9
$TDCREATE
 40
2453060.746216852
  9
$TDUCREATE
 40
2453060.371216852
  9
$TDUPDATE
 40
2455715.486509873
  9
$TDUUPDATE
 40
2455715.111509873
  9
$TDINDWG
 40
0.2760808102
  9
$TDUSRTIMER
 40
0.2760808102
  9
$USRTIMER
 70
     1
  9
$ANGBASE
 50
0.0
  9
$ANGDIR
 70
     0
  9
$PDMODE
 70
     0
  9
$PDSIZE
 40
0.0
  9
$PLINEWID
 40
0.0
  9
$SPLFRAME
 70
     0
  9
$SPLINETYPE
 70
     6
  9
$SPLINESEGS
 70
     8
  9
$HANDSEED
  5
31D9
  9
$SURFTAB1
 70
     6
  9
$SURFTAB2
 70
     6
  9
$SURFTYPE
 70
     6
  9
$SURFU
 70
     6
  9
$SURFV
 70
     6
  9
$UCSBASE
  2

  9
$UCSNAME
  2

  9
$UCSORG
 10
0.0
 20
0.0
 30
0.0
  9
$UCSXDIR
 10
1.0
 20
0.0
 30
0.0
  9
$UCSYDIR
 10
0.0
 20
1.0
 30
0.0
  9
$UCSORTHOREF
  2

  9
$UCSORTHOVIEW
 70
     0
  9
$UCSORGTOP
 10
0.0
 20
0.0
 30
0.0
  9
$UCSORGBOTTOM
 10
0.0
 20
0.0
 30
0.0
  9
$UCSORGLEFT
 10
0.0
 20
0.0
 30
0.0
  9
$UCSORGRIGHT
 10
0.0
 20
0.0
 30
0.0
  9
$UCSORGFRONT
 10
0.0
 20
0.0
 30
0.0
  9
$UCSORGBACK
 10
0.0
 20
0.0
 30
0.0
  9
$PUCSBASE
  2

  9
$PUCSNAME
  2

  9
$PUCSORG
 10
0.0
 20
0.0
 30
0.0
  9
$PUCSXDIR
 10
1.0
 20
0.0
 30
0.0
  9
$PUCSYDIR
 10
0.0
 20
1.0
 30
0.0
  9
$PUCSORTHOREF
  2

  9
$PUCSORTHOVIEW
 70
     0
  9
$PUCSORGTOP
 10
0.0
 20
0.0
 30
0.0
  9
$PUCSORGBOTTOM
 10
0.0
 20
0.0
 30
0.0
  9
$PUCSORGLEFT
 10
0.0
 20
0.0
 30
0.0
  9
$PUCSORGRIGHT
 10
0.0
 20
0.0
 30
0.0
  9
$PUCSORGFRONT
 10
0.0
 20
0.0
 30
0.0
  9
$PUCSORGBACK
 10
0.0
 20
0.0
 30
0.0
  9
$USERI1
 70
     0
  9
$USERI2
 70
     0
  9
$USERI3
 70
     0
  9
$USERI4
 70
     0
  9
$USERI5
 70
     0
  9
$USERR1
 40
0.0
  9
$USERR2
 40
0.0
  9
$USERR3
 40
0.0
  9
$USERR4
 40
0.0
  9
$USERR5
 40
0.0
  9
$WORLDVIEW
 70
     1
  9
$SHADEDGE
 70
     3
  9
$SHADEDIF
 70
    70
  9
$TILEMODE
 70
     1
  9
$MAXACTVP
 70
    64
  9
$PINSBASE
 10
0.0
 20
0.0
 30
0.0
  9
$PLIMCHECK
 70
     0
  9
$PEXTMIN
 10
1.000000000000000E+20
 20
1.000000000000000E+20
 30
1.000000000000000E+20
  9
$PEXTMAX
 10
-1.000000000000000E+20
 20
-1.000000000000000E+20
 30
-1.000000000000000E+20
  9
$PLIMMIN
 10
0.0
 20
0.0
  9
$PLIMMAX
 10
420.0
 20
297.0
  9
$UNITMODE
 70
     0
  9
$VISRETAIN
 70
     1
  9
$PLINEGEN
 70
     0
  9
$PSLTSCALE
 70
     1
  9
$TREEDEPTH
 70
  3020
  9
$CMLSTYLE
  2
Standard
  9
$CMLJUST
 70
     0
  9
$CMLSCALE
 40
20.0
  9
$PROXYGRAPHICS
 70
     1
  9
$MEASUREMENT
 70
     1
  9
$CELWEIGHT
370
    -1
  9
$ENDCAPS
280
     0
  9
$JOINSTYLE
280
     0
  9
$LWDISPLAY
290
     0
  9
$INSUNITS
 70
     4
  9
$HYPERLINKBASE
  1

  9
$STYLESHEET
  1
IMAGIO.ctb
  9
$XEDIT
290
     1
  9
$CEPSNTYPE
380
     0
  9
$PSTYLEMODE
290
     1
  9
$FINGERPRINTGUID
  2
{E9837AF4-F598-11D4-A28F-00004C61E3BD}
  9
$VERSIONGUID
  2
{726DA82B-A5FF-47E7-866B-8510382491A2}
  9
$EXTNAMES
290
     1
  9
$PSVPSCALE
 40
0.0
  9
$OLESTARTUP
290
     0
  0
ENDSEC
  0
SECTION
  2
CLASSES
  0
CLASS
  1
ACDBDICTIONARYWDFLT
  2
AcDbDictionaryWithDefault
  3
ObjectDBX Classes
 90
        0
280
     0
281
     0
  0
CLASS
  1
ACDBPLACEHOLDER
  2
AcDbPlaceHolder
  3
ObjectDBX Classes
 90
        0
280
     0
281
     0
  0
CLASS
  1
LAYOUT
  2
AcDbLayout
  3
ObjectDBX Classes
 90
        0
280
     0
281
     0
  0
CLASS
  1
AMGSETTINGSOBJ
  2
AmgSettingsObj
  3
"AcadM|Product Description: AutoCAD Mechanical|Company: Autodesk, Inc."
 90
     1024
280
     0
281
     0
  0
CLASS
  1
ACME_DOCUMENT
  2
AcMeDbDoc
  3
AcMeServices
 90
     1024
280
     0
281
     0
  0
CLASS
  1
ACMESCOPE
  2
AcMeScope
  3
AcMeServices
 90
     1024
280
     0
281
     0
  0
CLASS
  1
ACMECOMMANDHISTORY
  2
AcMeCommandHistory
  3
AcMeServices
 90
     1024
280
     0
281
     0
  0
CLASS
  1
DICTIONARYVAR
  2
AcDbDictionaryVar
  3
ObjectDBX Classes
 90
        0
280
     0
281
     0
  0
CLASS
  1
ACIMSYSVARMAN
  2
AcImSysVarManager
  3
AcMeServices
 90
     1024
280
     0
281
     0
  0
CLASS
  1
ACIMREALSYSVAR
  2
AcImRealSysVar
  3
AcMeServices
 90
     1024
280
     0
281
     0
  0
CLASS
  1
ACIMINTSYSVAR
  2
AcImIntSysVar
  3
AcMeServices
 90
     1024
280
     0
281
     0
  0
CLASS
  1
ACMEDRAWINGMAN
  2
AcMeDrawingMan
  3
AcMeServices
 90
    33792
280
     0
281
     0
  0
CLASS
  1
ACMEVIEW
  2
AcMeView
  3
AcMeServices
 90
    33792
280
     0
281
     0
  0
CLASS
  1
ACDBENTITYCACHE
  2
AcMeEntityCache
  3
AcMeServices
 90
     1024
280
     0
281
     0
  0
CLASS
  1
GSMANAGER
  2
AcMeGSManager
  3
AcMeServices
 90
    32768
280
     0
281
     0
  0
CLASS
  1
AMDTINTERNALREACTOR
  2
AmdtInternalReactor
  3
AcMeServices
 90
     1024
280
     0
281
     0
  0
CLASS
  1
ACMESTATEMGR
  2
AcMeStateMgr
  3
AcMeServices
 90
     1024
280
     0
281
     0
  0
CLASS
  1
ACME_DATABASE
  2
AcMeDbDatabase
  3
AcMeServices
 90
     1024
280
     0
281
     0
  0
CLASS
  1
ACRFINSADJUSTERMGR
  2
AcRfInsAdjusterMgr
  3
AcMeServices
 90
     1024
280
     0
281
     0
  0
CLASS
  1
ACMDATADICTIONARY
  2
AcmDataDictionary
  3
"AcmSymBB|Product Description: AutoCAD Mechanical|Company: Autodesk, Inc."
 90
     1024
280
     0
281
     0
  0
CLASS
  1
ACMDATAENTRYBLOCK
  2
AcmDataEntryBlock
  3
AcmSymBB|Product Description: AutoCAD Mechanical|Company: Autodesk, Inc.
 90
     1024
280
     0
281
     0
  0
CLASS
  1
AMGOBJPROPCFG
  2
AmgObjPropCfg
  3
"AmgLay|Product Description: AutoCAD Mechanical|Company: Autodesk, Inc."
 90
     1025
280
     0
281
     0
  0
CLASS
  1
ACAMGFILTERDAT
  2
AcAmgFilterDat
  3
"AcadM|Product Description: AutoCAD Mechanical|Company: Autodesk, Inc."
 90
     1024
280
     0
281
     0
  0
CLASS
  1
LAYER_INDEX
  2
AcDbLayerIndex
  3
ObjectDBX Classes
 90
    32768
280
     0
281
     0
  0
CLASS
  1
IDBUFFER
  2
AcDbIdBuffer
  3
ObjectDBX Classes
 90
    32768
280
     0
281
     0
  0
CLASS
  1
ACIMSTRSYSVAR
  2
AcImStrSysVar
  3
AcMeServices
 90
     1024
280
     0
281
     0
  0
CLASS
  1
ACMSTANDARDJIS
  2
AcmStandardJIS
  3
"Amdt_StdImp|Product Description: AutoCAD Mechanical|Company: Autodesk, Inc."
 90
     1024
280
     0
281
     0
  0
CLASS
  1
ACMSURFSTANDARDJIS
  2
AcmSurfTextStdJIS
  3
"Amdt_StdImp|Product Description: AutoCAD Mechanical|Company: Autodesk, Inc."
 90
     1024
280
     0
281
     0
  0
CLASS
  1
ACMFCFSTANDARDJIS
  2
AcmFCFStdJIS
  3
"Amdt_StdImp|Product Description: AutoCAD Mechanical|Company: Autodesk, Inc."
 90
     1024
280
     0
281
     0
  0
CLASS
  1
ACMWELDSTANDARDJIS
  2
AcmWeldingStdJIS
  3
"Amdt_StdImp|Product Description: AutoCAD Mechanical|Company: Autodesk, Inc."
 90
     1024
280
     0
281
     0
  0
CLASS
  1
ACMIDSTANDARDJIS
  2
AcmIdStdJIS
  3
"Amdt_StdImp|Product Description: AutoCAD Mechanical|Company: Autodesk, Inc."
 90
     1024
280
     0
281
     0
  0
CLASS
  1
ACMDATUMSTANDARDJIS
  2
AcmDatumStdJIS
  3
"Amdt_StdImp|Product Description: AutoCAD Mechanical|Company: Autodesk, Inc."
 90
     1024
280
     0
281
     0
  0
CLASS
  1
ACMBOMSTANDARDJIS
  2
AcmBOMStdJIS
  3
"Amdt_StdImp|Product Description: AutoCAD Mechanical|Company: Autodesk, Inc."
 90
     1024
280
     0
281
     0
  0
CLASS
  1
ACMPARTREF
  2
AcmPartRef
  3
"AcmSymBB|Product Description: AutoCAD Mechanical|Company: Autodesk, Inc."
 90
    36863
280
     0
281
     1
  0
CLASS
  1
NEWSTDPARTPARLIST
  2
AmgNewParListFiler
  3
"AmgParList|Product Description: AutoCAD Mechanical|Company: Autodesk, Inc."
 90
    36863
280
     0
281
     0
  0
CLASS
  1
ACMDATAENTRYPART
  2
AcmDataEntryPart
  3
AcmSymBB|Product Description: AutoCAD Mechanical|Company: Autodesk, Inc.
 90
    33792
280
     0
281
     0
  0
CLASS
  1
AMDTNOTE
  2
AmdtNote
  3
"AcmSymBB|Product Description: AutoCAD Mechanical|Company: Autodesk, Inc."
 90
    36863
280
     0
281
     1
  0
CLASS
  1
ACMPICKOBJ
  2
AcmPickEnt
  3
"AcmSymBB|Product Description: AutoCAD Mechanical|Company: Autodesk, Inc."
 90
    33792
280
     0
281
     1
  0
CLASS
  1
ACMDATAENTRY
  2
AcmDataEntry
  3
AcmSymBB|Product Description: AutoCAD Mechanical|Company: Autodesk, Inc.
 90
     1024
280
     0
281
     0
  0
CLASS
  1
ACMBOM
  2
AcmBom
  3
"AcmSymBB|Product Description: AutoCAD Mechanical|Company: Autodesk, Inc."
 90
     1024
280
     0
281
     0
  0
CLASS
  1
ACMBOMROW
  2
AcmBomRow
  3
"AcmSymBB|Product Description: AutoCAD Mechanical|Company: Autodesk, Inc."
 90
    33792
280
     0
281
     0
  0
CLASS
  1
ACMBALLOON
  2
AcmBalloon
  3
"AcmSymBB|Product Description: AutoCAD Mechanical|Company: Autodesk, Inc."
 90
    36863
280
     0
281
     1
  0
CLASS
  1
ACMPARTLIST
  2
AcmPartList
  3
"AcmSymBB|Product Description: AutoCAD Mechanical|Company: Autodesk, Inc."
 90
    36863
280
     0
281
     1
  0
CLASS
  1
MATERIAL
  2
AcDbMaterial
  3
ObjectDBX Classes
 90
     1153
280
     0
281
     0
  0
CLASS
  1
VISUALSTYLE
  2
AcDbVisualStyle
  3
ObjectDBX Classes
 90
     4095
280
     0
281
     0
  0
CLASS
  1
TABLESTYLE
  2
AcDbTableStyle
  3
ObjectDBX Classes
 90
     4095
280
     0
281
     0
  0
CLASS
  1
ACGREFMASTER
  2
AcGrefMaster
  3
AcAttribServices
 90
     1024
280
     0
281
     0
  0
CLASS
  1
AM_DRAWING_MGR
  2
AcDmDwgMgr
  3
AcMechDwgViewMgmt
 90
     1024
280
     0
281
     0
  0
CLASS
  1
AM_DWG_DOCUMENT
  2
AcDmDwgDocument
  3
AcMechDwgViewMgmt
 90
     1024
280
     0
281
     0
  0
CLASS
  1
AM_DWG_SHEET
  2
AcDmSheet
  3
AcMechDwgViewMgmt
 90
     1024
280
     0
281
     0
  0
CLASS
  1
AM_VIEWDIMPARMAP
  2
AcDmViewDimParMap
  3
AcMechDwgViewMgmt
 90
     1024
280
     0
281
     0
  0
CLASS
  1
AM_DWGMGR_NAME
  2
AcDmDwgMgrName
  3
AcMechDwgViewMgmt
 90
     1024
280
     0
281
     0
  0
CLASS
  1
ACGREFACADMASTER
  2
AcGrefacadMaster
  3
AcGrefServices
 90
     1024
280
     0
281
     0
  0
CLASS
  1
AMDTMENUSTATEMGR
  2
AmdtMenuStateMgr
  3
McadcomServices
 90
     1024
280
     0
281
     0
  0
CLASS
  1
AMDTMCOMMENUSTATE
  2
AmdtMcomMenuState
  3
McadcomServices
 90
     1024
280
     0
281
     0
  0
CLASS
  1
AMIMASTER
  2
AmiMaster
  3
AmiServices
 90
     1024
280
     0
281
     0
  0
CLASS
  1
MAPIAMMOUDLE
  2
MApiAmModule
  3
MApiAmServices
 90
     1024
280
     0
281
     0
  0
CLASS
  1
AMDTADMENUSTATE
  2
AmdtAdMenuState
  3
DesignerServices
 90
    32768
280
     0
281
     0
  0
CLASS
  1
ADAPPL
  2
AcAdAppl
  3
DesignerAssemblies
 90
    33792
280
     0
281
     0
  0
CLASS
  1
DEPMGR
  2
AcAdDepMgr
  3
DesignerAssemblies
 90
    33792
280
     0
281
     0
  0
CLASS
  1
PARAMMGR
  2
AcAdParamMgr
  3
DesignerAssemblies
 90
    33792
280
     0
281
     0
  0
CLASS
  1
PARAMSCOPE
  2
AcAdParamScope
  3
DesignerAssemblies
 90
    33792
280
     0
281
     0
  0
CLASS
  1
NAMEDAPPL
  2
AcAdNamedAppl
  3
DesignerAssemblies
 90
    33792
280
     0
281
     0
  0
CLASS
  1
AMDTDMMENUSTATE
  2
AmdtDmMenuState
  3
AcMechDwgViewMgmt
 90
     1024
280
     0
281
     0
  0
CLASS
  1
AMDTAMMENUSTATE
  2
AmdtAmMenuState
  3
DesignerAssemblies
 90
     1024
280
     0
281
     0
  0
CLASS
  1
ACAMPROJECT
  2
AcAmProject
  3
DesignerAssemblies
 90
     1024
280
     0
281
     0
  0
CLASS
  1
ACAMGRCOMPDEF
  2
AcAmGrCompDef
  3
DesignerAssemblies
 90
     1024
280
     0
281
     0
  0
CLASS
  1
ACCMCONTEXT
  2
AcCmContext
  3
DesignerAssemblies
 90
     1024
280
     0
281
     0
  0
CLASS
  1
ACAMCOMPDEF
  2
AcAmCompDef
  3
DesignerAssemblies
 90
     1024
280
     0
281
     0
  0
CLASS
  1
ACAMCOMPDEFMGR
  2
AcAmCompDefMgr
  3
DesignerAssemblies
 90
     1024
280
     0
281
     0
  0
CLASS
  1
AMCONTEXTMGR
  2
AcAmContextMgr
  3
DesignerAssemblies
 90
     1024
280
     0
281
     0
  0
CLASS
  1
ACAMCONTEXTMODELER
  2
AcAmContextModeler
  3
DesignerAssemblies
 90
     1024
280
     0
281
     0
  0
CLASS
  1
AMDTFORMULAUPDATEDISPATCHER
  2
AmdtFormulaUpdateDispatcher
  3
AcMeServices
 90
     1024
280
     0
281
     0
  0
CLASS
  1
ACRFATTGENMGR
  2
AcRfAttGeneralMgr
  3
AcAttribServices
 90
     1024
280
     0
281
     0
  0
CLASS
  1
ACRFOBJATTMGR
  2
AcRfObjAttGroupMgr
  3
AcAttribServices
 90
     1024
280
     0
281
     0
  0
CLASS
  1
ACRFMCADAPIATTHOLDER
  2
AcRfMCADAPIAttHolder
  3
AcAttribServices
 90
     1024
280
     0
281
     0
  0
CLASS
  1
AMDTSYSATTR
  2
AmdtSystemAttribute
  3
AcAttribServices
 90
     1024
280
     0
281
     0
  0
CLASS
  1
ACAMGTITLESTD
  2
AcAmgTitleStd
  3
"AmgTitle|Product Description: AutoCAD Mechanical|Company: Autodesk, Inc."
 90
     4095
280
     0
281
     0
  0
CLASS
  1
ACMDETAILSTANDARDJIS
  2
AmdtDetailSymStdJIS
  3
"Amdt_StdImp|Product Description: AutoCAD Mechanical|Company: Autodesk, Inc."
 90
     1024
280
     0
281
     0
  0
CLASS
  1
ACMSECTIONSTANDARDJIS
  2
AmdtSectionSymStdJIS
  3
"Amdt_StdImp|Product Description: AutoCAD Mechanical|Company: Autodesk, Inc."
 90
     1024
280
     0
281
     0
  0
CLASS
  1
ACMCENTERLINESTANDARDJIS
  2
AmdtCenterLineStdJIS
  3
"Amdt_StdImp|Product Description: AutoCAD Mechanical|Company: Autodesk, Inc."
 90
     1024
280
     0
281
     0
  0
CLASS
  1
ACMTHREADLINESTANDARDJIS
  2
AmdtThreadLineStdJIS
  3
"Amdt_StdImp|Product Description: AutoCAD Mechanical|Company: Autodesk, Inc."
 90
     1024
280
     0
281
     0
  0
CLASS
  1
ACMNOTESTANDARDJIS
  2
AmdtNoteStdJIS
  3
"Amdt_StdImp|Product Description: AutoCAD Mechanical|Company: Autodesk, Inc."
 90
     1024
280
     0
281
     0
  0
CLASS
  1
AMDTNOTETEMPLATEDB
  2
AmdtNoteTemplateDB
  3
AcmSymBB|Product Description: AutoCAD Mechanical|Company: Autodesk, Inc.
 90
     1024
280
     0
281
     0
  0
CLASS
  1
ACMTAPERSTANDARDJIS
  2
AcmTaperStdJIS
  3
"Amdt_StdImp|Product Description: AutoCAD Mechanical|Company: Autodesk, Inc."
 90
     1024
280
     0
281
     0
  0
CLASS
  1
ACAMGLAYSTD
  2
AcAmgLayStd
  3
"AmgLay|Product Description: AutoCAD Mechanical|Company: Autodesk, Inc."
 90
     1024
280
     0
281
     0
  0
CLASS
  1
ACAMGDIMSTD
  2
AcAmgDimStd
  3
"AmgDim|Product Description: AutoCAD Mechanical|Company: Autodesk, Inc."
 90
     1024
280
     0
281
     0
  0
CLASS
  1
ACAMGHOLECHARTSTDJIS
  2
AcAmgHoleChartStdJIS
  3
AmgDim|Product Description: AutoCAD Mechanical|Company: Autodesk, Inc.
 90
     1024
280
     0
281
     0
  0
CLASS
  1
CATALOGSTATE
  2
AcAmCatalogState
  3
DesignerAssemblies
 90
    33792
280
     0
281
     0
  0
CLASS
  1
ACAMGRCOMPDEFSET
  2
AcAmGrCompDefSet
  3
DesignerAssemblies
 90
     1024
280
     0
281
     0
  0
CLASS
  1
AMDTBROWSERDBTAB
  2
AmdtBrowserDbTab
  3
McadcomServices
 90
     1024
280
     0
281
     0
  0
CLASS
  1
CBROWSERAPPOBJECT
  2
CBrowserAppObject
  3
McadcomServices
 90
     1024
280
     0
281
     0
  0
CLASS
  1
DM_PLACEHOLDER
  2
AcDmSelsetPlaceholder
  3
AcMechDwgViewMgmt
 90
     1024
280
     0
281
     0
  0
CLASS
  1
SORTENTSTABLE
  2
AcDbSortentsTable
  3
ObjectDBX Classes
 90
        0
280
     0
281
     0
  0
CLASS
  1
ACDBDIMENSIONRES
  2
AcDbDimensionRes
  3
AcmSymBB|Product Description: AutoCAD Mechanical|Company: Autodesk, Inc.
 90
    33792
280
     0
281
     0
  0
CLASS
  1
ACMSTANDARDISO
  2
AcmStandardISO
  3
"Amdt_StdImp|Product Description: AutoCAD Mechanical|Company: Autodesk, Inc."
 90
     1024
280
     0
281
     0
  0
CLASS
  1
ACMSURFSTANDARDISO
  2
AcmSurfTextStdISO
  3
"Amdt_StdImp|Product Description: AutoCAD Mechanical|Company: Autodesk, Inc."
 90
     1024
280
     0
281
     0
  0
CLASS
  1
ACMFCFSTANDARDISO
  2
AcmFCFStdISO
  3
"Amdt_StdImp|Product Description: AutoCAD Mechanical|Company: Autodesk, Inc."
 90
     1024
280
     0
281
     0
  0
CLASS
  1
ACMWELDSTANDARDISO
  2
AcmWeldingStdISO
  3
"Amdt_StdImp|Product Description: AutoCAD Mechanical|Company: Autodesk, Inc."
 90
     1024
280
     0
281
     0
  0
CLASS
  1
ACMIDSTANDARDISO
  2
AcmIdStdISO
  3
"Amdt_StdImp|Product Description: AutoCAD Mechanical|Company: Autodesk, Inc."
 90
     1024
280
     0
281
     0
  0
CLASS
  1
ACMDATUMSTANDARDISO
  2
AcmDatumStdISO
  3
"Amdt_StdImp|Product Description: AutoCAD Mechanical|Company: Autodesk, Inc."
 90
     1024
280
     0
281
     0
  0
CLASS
  1
ACMBOMSTANDARDISO
  2
AcmBOMStdISO
  3
"Amdt_StdImp|Product Description: AutoCAD Mechanical|Company: Autodesk, Inc."
 90
     1024
280
     0
281
     0
  0
CLASS
  1
ACMDETAILSTANDARDISO
  2
AmdtDetailSymStdISO
  3
"Amdt_StdImp|Product Description: AutoCAD Mechanical|Company: Autodesk, Inc."
 90
     1024
280
     0
281
     0
  0
CLASS
  1
ACMSECTIONSTANDARDISO
  2
AmdtSectionSymStdISO
  3
"Amdt_StdImp|Product Description: AutoCAD Mechanical|Company: Autodesk, Inc."
 90
     1024
280
     0
281
     0
  0
CLASS
  1
ACMCENTERLINESTANDARDISO
  2
AmdtCenterLineStdISO
  3
"Amdt_StdImp|Product Description: AutoCAD Mechanical|Company: Autodesk, Inc."
 90
     1024
280
     0
281
     0
  0
CLASS
  1
ACMTHREADLINESTANDARDISO
  2
AmdtThreadLineStdISO
  3
"Amdt_StdImp|Product Description: AutoCAD Mechanical|Company: Autodesk, Inc."
 90
     1024
280
     0
281
     0
  0
CLASS
  1
ACMNOTESTANDARDISO
  2
AmdtNoteStdISO
  3
"Amdt_StdImp|Product Description: AutoCAD Mechanical|Company: Autodesk, Inc."
 90
     1024
280
     0
281
     0
  0
CLASS
  1
ACAMGHOLECHARTSTDISO
  2
AcAmgHoleChartStdISO
  3
AmgDim|Product Description: AutoCAD Mechanical|Company: Autodesk, Inc.
 90
     1024
280
     0
281
     0
  0
CLASS
  1
AMDTEDGESTANDARDISO13715
  2
AmdtEdgeStdISO13715
  3
"Amdt_StdImp|Product Description: AutoCAD Mechanical|Company: Autodesk, Inc."
 90
     1024
280
     0
281
     0
  0
CLASS
  1
ACMTAPERSTANDARDISO
  2
AcmTaperStdISO
  3
"Amdt_StdImp|Product Description: AutoCAD Mechanical|Company: Autodesk, Inc."
 90
     1024
280
     0
281
     0
  0
CLASS
  1
DIMASSOC
  2
AcDbDimAssoc
  3
"AcDbDimAssoc|Product Desc:     AcDim ARX App For Dimension|Company:          Autodesk, Inc.|WEB Address:      www.autodesk.com"
 90
    32768
280
     0
281
     0
  0
CLASS
  1
CAMSSTRUCTBTNSTATE
  2
StructBtnState
  3
DesignerAssemblies
 90
    33792
280
     0
281
     0
  0
CLASS
  1
ACMSURFSYM
  2
AcmSurfaceTexture
  3
"AcmSymBB|Product Description: AutoCAD Mechanical|Company: Autodesk, Inc."
 90
    36863
280
     0
281
     1
  0
CLASS
  1
ACDBLINERES
  2
AcDbLineRes
  3
AcGrefServices
 90
     1024
280
     0
281
     0
  0
CLASS
  1
SCALE
  2
AcDbScale
  3
ObjectDBX Classes
 90
     1153
280
     0
281
     0
  0
CLASS
  1
MLEADERSTYLE
  2
AcDbMLeaderStyle
  3
ACDB_MLEADERSTYLE_CLASS
 90
     4095
280
     0
281
     0
  0
CLASS
  1
ACMANOOTATIONVIEWSTANDARDJIS
  2
AmdtAnViewStdJIS
  3
"Amdt_StdImp|Product Description: AutoCAD Mechanical|Company: Autodesk, Inc."
 90
     1024
280
     0
281
     0
  0
CLASS
  1
AMDTEDGESTANDARDJIS
  2
AmdtEdgeStdJIS
  3
"Amdt_StdImp|Product Description: AutoCAD Mechanical|Company: Autodesk, Inc."
 90
     1024
280
     0
281
     0
  0
CLASS
  1
ACMANOOTATIONVIEWSTANDARDISO
  2
AmdtAnViewStdISO
  3
"Amdt_StdImp|Product Description: AutoCAD Mechanical|Company: Autodesk, Inc."
 90
     1024
280
     0
281
     0
  0
CLASS
  1
CELLSTYLEMAP
  2
AcDbCellStyleMap
  3
ObjectDBX Classes
 90
     1152
280
     0
281
     0
  0
ENDSEC
  0
SECTION
  2
TABLES
  0
TABLE
  2
VPORT
  5
8
102
{ACAD_XDICTIONARY
360
1D17
102
}
330
0
100
AcDbSymbolTable
 70
     1
  0
VPORT
  5
1E18
330
8
100
AcDbSymbolTableRecord
100
AcDbViewportTableRecord
  2
*Active
 70
     0
 10
0.0
 20
0.0
 11
1.0
 21
1.0
 12
188.7383461355281
 22
328.0576854508125
 13
0.0
 23
0.0
 14
2.5
 24
2.5
 15
10.0
 25
10.0
 16
0.0
 26
0.0
 36
1.0
 17
0.0
 27
0.0
 37
0.0
 40
91.74923485706438
 41
2.070938215102974
 42
50.0
 43
0.0
 44
0.0
 50
0.0
 51
0.0
 71
     0
 72
   100
 73
     1
 74
     3
 75
     0
 76
     0
 77
     0
 78
     0
281
     0
 65
     1
110
0.0
120
0.0
130
0.0
111
1.0
121
0.0
131
0.0
112
0.0
122
1.0
132
0.0
 79
     0
146
0.0
  0
ENDTAB
  0
TABLE
  2
LTYPE
  5
5
330
0
100
AcDbSymbolTable
 70
    17
  0
LTYPE
  5
14
330
5
100
AcDbSymbolTableRecord
100
AcDbLinetypeTableRecord
  2
ByBlock
 70
     0
  3

 72
    65
 73
     0
 40
0.0
  0
LTYPE
  5
15
330
5
100
AcDbSymbolTableRecord
100
AcDbLinetypeTableRecord
  2
ByLayer
 70
     0
  3

 72
    65
 73
     0
 40
0.0
  0
LTYPE
  5
16
330
5
100
AcDbSymbolTableRecord
100
AcDbLinetypeTableRecord
  2
Continuous
 70
     0
  3
Solid line
 72
    65
 73
     0
 40
0.0
  0
LTYPE
  5
4B
330
5
100
AcDbSymbolTableRecord
100
AcDbLinetypeTableRecord
  2
AM_ISO02W050
 70
     0
  3
__ __ __ __ __ __ __ __ __ __ __ __ __ __ __
 72
    65
 73
     2
 40
7.5
 49
6.0
 74
     0
 49
-1.5
 74
     0
  0
LTYPE
  5
4C
330
5
100
AcDbSymbolTableRecord
100
AcDbLinetypeTableRecord
  2
AM_ISO08W050
 70
     0
  3
____ . ____ . ____ . ____ . ____ . ____ . ____
 72
    65
 73
     4
 40
18.0
 49
12.0
 74
     0
 49
-1.5
 74
     0
 49
3.0
 74
     0
 49
-1.5
 74
     0
  0
LTYPE
  5
4D
330
5
100
AcDbSymbolTableRecord
100
AcDbLinetypeTableRecord
  2
AM_ISO09W050
 70
     0
  3
_____ . . _____ . . _____ . . ____ .. ____
 72
    65
 73
     6
 40
22.5
 49
12.0
 74
     0
 49
-1.5
 74
     0
 49
3.0
 74
     0
 49
-1.5
 74
     0
 49
3.0
 74
     0
 49
-1.5
 74
     0
  0
LTYPE
  5
4E
330
5
100
AcDbSymbolTableRecord
100
AcDbLinetypeTableRecord
  2
Amconstr
 70
     0
  3
_______________________
 72
    65
 73
     2
 40
9999.0
 49
9999.0
 74
     0
 49
0.0
 74
     0
  0
LTYPE
  5
4F
330
5
100
AcDbSymbolTableRecord
100
AcDbLinetypeTableRecord
  2
AM_ISO02W050x2
 70
     0
  3
 _ _ _ _ _ _ _ _ _ _ _ _
 72
    65
 73
     2
 40
3.75
 49
3.0
 74
     0
 49
-0.75
 74
     0
  0
LTYPE
  5
50
330
5
100
AcDbSymbolTableRecord
100
AcDbLinetypeTableRecord
  2
AM_ISO08W050x2
 70
     0
  3
__ . __ . __ . __ . __ . __
 72
    65
 73
     4
 40
9.0
 49
6.0
 74
     0
 49
-0.75
 74
     0
 49
1.5
 74
     0
 49
-0.75
 74
     0
  0
LTYPE
  5
53
330
5
100
AcDbSymbolTableRecord
100
AcDbLinetypeTableRecord
  2
Amzigzag
 70
     0
  3
/\/-/\/-/\/-/\/-/\/-/\/
 72
    65
 73
     2
 40
11.0001
 49
0.0001
 74
     4
 75
   135
340
52
 46
0.04
 50
0.0
 44
0.0
 45
0.0
 49
-11.0
 74
     0
  0
LTYPE
  5
169
330
5
100
AcDbSymbolTableRecord
100
AcDbLinetypeTableRecord
  2
ACJISTGB
 70
     0
  3
__ . . __ . .
 72
    65
 73
     6
 40
9.0
 49
4.0
 74
     0
 49
-1.0
 74
     0
 49
1.0
 74
     0
 49
-1.0
 74
     0
 49
1.0
 74
     0
 49
-1.0
 74
     0
  0
LTYPE
  5
16A
330
5
100
AcDbSymbolTableRecord
100
AcDbLinetypeTableRecord
  2
ACJISTGL
 70
     0
  3
_ _ _ _ _
 72
    65
 73
     2
 40
3.0
 49
2.0
 74
     0
 49
-1.0
 74
     0
  0
LTYPE
  5
1B0C
330
5
100
AcDbSymbolTableRecord
100
AcDbLinetypeTableRecord
  2
HIDDEN
 70
     0
  3
Hidden __ __ __ __ __ __ __ __ __ __ __ __ __ _
 72
    65
 73
     2
 40
9.524999999999998
 49
6.349999999999999
 74
     0
 49
-3.174999999999999
 74
     0
  0
LTYPE
  5
1B0D
330
5
100
AcDbSymbolTableRecord
100
AcDbLinetypeTableRecord
  2
PHANTOM2
 70
     0
  3
Phantom (.5x) ___ _ _ ___ _ _ ___ _ _ ___ _ _
 72
    65
 73
     6
 40
31.75
 49
15.875
 74
     0
 49
-3.174999999999999
 74
     0
 49
3.174999999999999
 74
     0
 49
-3.174999999999999
 74
     0
 49
3.174999999999999
 74
     0
 49
-3.174999999999999
 74
     0
  0
LTYPE
  5
1B0E
330
5
100
AcDbSymbolTableRecord
100
AcDbLinetypeTableRecord
  2
CENTER
 70
     0
  3
Center ____ _ ____ _ ____ _ ____ _ ____ _ ____
 72
    65
 73
     4
 40
50.8
 49
31.75
 74
     0
 49
-6.349999999999999
 74
     0
 49
6.349999999999999
 74
     0
 49
-6.349999999999999
 74
     0
  0
LTYPE
  5
1C85
330
5
100
AcDbSymbolTableRecord
100
AcDbLinetypeTableRecord
  2
ACISOWELD
 70
     0
  3
_ _ _ _ _
 72
    65
 73
     2
 40
2.0
 49
2.0
 74
     0
 49
-1.0
 74
     0
  0
LTYPE
  5
1C86
330
5
100
AcDbSymbolTableRecord
100
AcDbLinetypeTableRecord
  2
ACISOTGB
 70
     0
  3
__ . . __ . .
 72
    65
 73
     6
 40
9.0
 49
4.0
 74
     0
 49
-1.0
 74
     0
 49
1.0
 74
     0
 49
-1.0
 74
     0
 49
1.0
 74
     0
 49
-1.0
 74
     0
  0
LTYPE
  5
1C87
330
5
100
AcDbSymbolTableRecord
100
AcDbLinetypeTableRecord
  2
ACISOTGL
 70
     0
  3
_ _ _ _ _
 72
    65
 73
     2
 40
3.0
 49
2.0
 74
     0
 49
-1.0
 74
     0
  0
LTYPE
  5
2199
330
5
100
AcDbSymbolTableRecord
100
AcDbLinetypeTableRecord
  2
CENTER2
 70
     0
  3
Center (.5x) ___ _ ___ _ ___ _ ___ _ ___ _ ___
 72
    65
 73
     4
 40
28.575
 49
19.05
 74
     0
 49
-3.174999999999999
 74
     0
 49
3.174999999999999
 74
     0
 49
-3.174999999999999
 74
     0
  0
ENDTAB
  0
TABLE
  2
LAYER
  5
2
102
{ACAD_XDICTIONARY
360
242B
102
}
330
0
100
AcDbSymbolTable
 70
    14
  0
LAYER
  5
10
102
{ACAD_XDICTIONARY
360
2A29
102
}
330
2
100
AcDbSymbolTableRecord
100
AcDbLayerTableRecord
  2
0
 70
     0
 62
     7
  6
Continuous
370
    -3
390
F
  0
LAYER
  5
59
102
{ACAD_XDICTIONARY
360
2A2B
102
}
330
2
100
AcDbSymbolTableRecord
100
AcDbLayerTableRecord
  2
AM_0
 70
     0
 62
     7
  6
Continuous
370
    50
390
F
  0
LAYER
  5
5A
102
{ACAD_XDICTIONARY
360
2A2D
102
}
330
2
100
AcDbSymbolTableRecord
100
AcDbLayerTableRecord
  2
AM_BOR
 70
     0
 62
     7
  6
Continuous
370
    50
390
F
  0
LAYER
  5
24D
102
{ACAD_XDICTIONARY
360
2A2F
102
}
330
2
100
AcDbSymbolTableRecord
100
AcDbLayerTableRecord
  2
AM_CL
 70
     0
 62
     1
  6
Amconstr
370
    25
390
F
  0
LAYER
  5
280
102
{ACAD_XDICTIONARY
360
2A31
102
}
330
2
100
AcDbSymbolTableRecord
100
AcDbLayerTableRecord
  2
AM_7
 70
     0
 62
     4
  6
AM_ISO08W050
370
    25
390
F
  0
LAYER
  5
2C6
102
{ACAD_XDICTIONARY
360
2A33
102
}
330
2
100
AcDbSymbolTableRecord
100
AcDbLayerTableRecord
  2
AM_4
 70
     0
 62
     3
  6
Continuous
370
    25
390
F
  0
LAYER
  5
2C7
102
{ACAD_XDICTIONARY
360
2A35
102
}
330
2
100
AcDbSymbolTableRecord
100
AcDbLayerTableRecord
  2
AM_0N
 70
     0
 62
     7
  6
Continuous
370
    50
390
F
  0
LAYER
  5
2C8
102
{ACAD_XDICTIONARY
360
2A37
102
}
330
2
100
AcDbSymbolTableRecord
100
AcDbLayerTableRecord
  2
AM_PAREF
 70
     0
 62
     4
  6
Continuous
290
     0
370
    25
390
F
  0
LAYER
  5
2C9
102
{ACAD_XDICTIONARY
360
2A39
102
}
330
2
100
AcDbSymbolTableRecord
100
AcDbLayerTableRecord
  2
AM_12N
 70
     0
 62
     7
  6
Continuous
290
     0
370
    50
390
F
  0
LAYER
  5
5A5
102
{ACAD_XDICTIONARY
360
2A3B
102
}
330
2
100
AcDbSymbolTableRecord
100
AcDbLayerTableRecord
  2
AM_11
 70
     0
 62
     3
  6
AM_ISO09W050
370
    25
390
F
  0
LAYER
  5
782
102
{ACAD_XDICTIONARY
360
2A3D
102
}
330
2
100
AcDbSymbolTableRecord
100
AcDbLayerTableRecord
  2
AM_8
 70
     0
 62
     1
  6
Continuous
370
    25
390
F
  0
LAYER
  5
BFA
102
{ACAD_XDICTIONARY
360
2A3F
102
}
330
2
100
AcDbSymbolTableRecord
100
AcDbLayerTableRecord
  2
AM_12
 70
     0
 62
     7
  6
Continuous
290
     0
370
    50
390
F
  0
LAYER
  5
C47
102
{ACAD_XDICTIONARY
360
2A41
102
}
330
2
100
AcDbSymbolTableRecord
100
AcDbLayerTableRecord
  2
AM_5
 70
     0
 62
     3
  6
Continuous
370
    25
390
F
  0
LAYER
  5
C49
330
2
100
AcDbSymbolTableRecord
100
AcDbLayerTableRecord
  2
Defpoints
 70
     0
 62
     7
  6
Continuous
290
     0
370
    -3
390
F
  0
ENDTAB
  0
TABLE
  2
STYLE
  5
3
330
0
100
AcDbSymbolTable
 70
    10
  0
STYLE
  5
11
330
3
100
AcDbSymbolTableRecord
100
AcDbTextStyleTableRecord
  2
STANDARD
 70
     0
 40
0.0
 41
1.0
 50
0.0
 71
     0
 42
1.5
  3
ISOCP.SHX
  4
EXTFONT.SHX
  0
STYLE
  5
47
330
3
100
AcDbSymbolTableRecord
100
AcDbTextStyleTableRecord
  2
USER1
 70
     0
 40
0.0
 41
1.0
 50
0.0
 71
     0
 42
2.5
  3
TXT.SHX
  4

  0
STYLE
  5
48
330
3
100
AcDbSymbolTableRecord
100
AcDbTextStyleTableRecord
  2
USER2
 70
     0
 40
0.0
 41
1.0
 50
0.0
 71
     0
 42
2.5
  3
SIMPLEX.SHX
  4

  0
STYLE
  5
49
330
3
100
AcDbSymbolTableRecord
100
AcDbTextStyleTableRecord
  2
USER3
 70
     0
 40
0.0
 41
1.0
 50
0.0
 71
     0
 42
2.5
  3
ITALIC.SHX
  4

  0
STYLE
  5
52
330
3
100
AcDbSymbolTableRecord
100
AcDbTextStyleTableRecord
  2

 70
     1
 40
0.0
 41
1.0
 50
0.0
 71
     0
 42
2.5
  3
ltypeshp.shx
  4

  0
STYLE
  5
161
330
3
100
AcDbSymbolTableRecord
100
AcDbTextStyleTableRecord
  2
ACJISTS
 70
     0
 40
1.0
 41
1.0
 50
0.0
 71
     0
 42
2.5
  3
isocp.shx
  4
bigfont.shx
  0
STYLE
  5
168
330
3
100
AcDbSymbolTableRecord
100
AcDbTextStyleTableRecord
  2
ACJISGDT
 70
     0
 40
0.0
 41
1.0
 50
0.0
 71
     0
 42
2.5
  3
amgdt.shx
  4

  0
STYLE
  5
1388
330
3
100
AcDbSymbolTableRecord
100
AcDbTextStyleTableRecord
  2
ｽﾀｲﾙ1
 70
     0
 40
0.0
 41
1.0
 50
0.0
 71
     0
 42
44.62462130138407
  3

  4

1001
ACAD
1000
HGPSoeiKakugothicUB
1071
    32818
  0
STYLE
  5
1C88
330
3
100
AcDbSymbolTableRecord
100
AcDbTextStyleTableRecord
  2
ACISOTS
 70
     0
 40
1.0
 41
1.0
 50
0.0
 71
     0
 42
3.0
  3
isocp.shx
  4
extfont.shx
  0
STYLE
  5
1C89
330
3
100
AcDbSymbolTableRecord
100
AcDbTextStyleTableRecord
  2
ACISOGDT
 70
     0
 40
0.0
 41
1.0
 50
0.0
 71
     0
 42
3.0
  3
amgdt.shx
  4

  0
ENDTAB
  0
TABLE
  2
VIEW
  5
6
330
0
100
AcDbSymbolTable
 70
     6
  0
VIEW
  5
7C
330
6
100
AcDbSymbolTableRecord
100
AcDbViewTableRecord
  2
AM_VIEW1
 70
     0
 40
74.25
 10
171.352069031158
 20
358.4925262532765
 41
112.1648936170213
 11
0.0
 21
0.0
 31
1.0
 12
0.0
 22
0.0
 32
0.0
 42
50.0
 43
0.0
 44
0.0
 50
0.0
 71
     0
281
     0
 72
     0
  0
VIEW
  5
7D
330
6
100
AcDbSymbolTableRecord
100
AcDbViewTableRecord
  2
AM_VIEW2
 70
     0
 40
74.25
 10
269.2086039855653
 20
358.4925262532765
 41
112.1648936170213
 11
0.0
 21
0.0
 31
1.0
 12
0.0
 22
0.0
 32
0.0
 42
50.0
 43
0.0
 44
0.0
 50
0.0
 71
     0
281
     0
 72
     0
  0
VIEW
  5
7E
330
6
100
AcDbSymbolTableRecord
100
AcDbViewTableRecord
  2
AM_VIEW3
 70
     0
 40
74.25000000000006
 10
171.352069031158
 20
284.2425262532765
 41
112.1648936170213
 11
0.0
 21
0.0
 31
1.0
 12
0.0
 22
0.0
 32
0.0
 42
50.0
 43
0.0
 44
0.0
 50
0.0
 71
     0
281
     0
 72
     0
  0
VIEW
  5
7F
330
6
100
AcDbSymbolTableRecord
100
AcDbViewTableRecord
  2
AM_VIEW4
 70
     0
 40
74.25000000000006
 10
269.2086039855653
 20
284.2425262532765
 41
112.1648936170213
 11
0.0
 21
0.0
 31
1.0
 12
0.0
 22
0.0
 32
0.0
 42
50.0
 43
0.0
 44
0.0
 50
0.0
 71
     0
281
     0
 72
     0
  0
VIEW
  5
80
330
6
100
AcDbSymbolTableRecord
100
AcDbViewTableRecord
  2
AM_VIEW5
 70
     0
 40
74.25
 10
220.2803365083617
 20
321.3675262532766
 41
112.1648936170213
 11
0.0
 21
0.0
 31
1.0
 12
0.0
 22
0.0
 32
0.0
 42
50.0
 43
0.0
 44
0.0
 50
0.0
 71
     0
281
     0
 72
     0
  0
VIEW
  5
81
330
6
100
AcDbSymbolTableRecord
100
AcDbViewTableRecord
  2
AM_VIEW6
 70
     0
 40
148.498515
 10
220.2803365083617
 20
321.3675262532766
 41
224.3275439361703
 11
0.0
 21
0.0
 31
1.0
 12
0.0
 22
0.0
 32
0.0
 42
50.0
 43
0.0
 44
0.0
 50
0.0
 71
     0
281
     0
 72
     0
  0
ENDTAB
  0
TABLE
  2
UCS
  5
7
330
0
100
AcDbSymbolTable
 70
     0
  0
ENDTAB
  0
TABLE
  2
APPID
  5
9
330
0
100
AcDbSymbolTable
 70
    35
  0
APPID
  5
12
330
9
100
AcDbSymbolTableRecord
100
AcDbRegAppTableRecord
  2
ACAD
 70
     0
  0
APPID
  5
30
330
9
100
AcDbSymbolTableRecord
100
AcDbRegAppTableRecord
  2
MCAD_NO_VIS
 70
     0
  0
APPID
  5
31
330
9
100
AcDbSymbolTableRecord
100
AcDbRegAppTableRecord
  2
ACAD_TEMP_GRAPHIC
 70
     0
  0
APPID
  5
5B
330
9
100
AcDbSymbolTableRecord
100
AcDbRegAppTableRecord
  2
GENIUS_GENREC_14
 70
     0
  0
APPID
  5
5C
330
9
100
AcDbSymbolTableRecord
100
AcDbRegAppTableRecord
  2
GENIUS_GENODEF_13
 70
     0
  0
APPID
  5
5D
330
9
100
AcDbSymbolTableRecord
100
AcDbRegAppTableRecord
  2
GENIUS_GENOBJ-N-REC_13
 70
     0
  0
APPID
  5
96
330
9
100
AcDbSymbolTableRecord
100
AcDbRegAppTableRecord
  2
GENIUS_GENOBJ-N-CEN_13
 70
     0
  0
APPID
  5
C1
330
9
100
AcDbSymbolTableRecord
100
AcDbRegAppTableRecord
  2
GENIUS_GENOBJ-N-TIT_13
 70
     0
  0
APPID
  5
C2
330
9
100
AcDbSymbolTableRecord
100
AcDbRegAppTableRecord
  2
GENIUS_GENTITLE_13
 70
     0
  0
APPID
  5
C3
330
9
100
AcDbSymbolTableRecord
100
AcDbRegAppTableRecord
  2
GENIUS_GENOENT_13
 70
     0
  0
APPID
  5
C4
330
9
100
AcDbSymbolTableRecord
100
AcDbRegAppTableRecord
  2
GENIUS_GENOREF_13
 70
     0
  0
APPID
  5
C5
330
9
100
AcDbSymbolTableRecord
100
AcDbRegAppTableRecord
  2
GENIUS_GENOLIS_13
 70
     0
  0
APPID
  5
C6
330
9
100
AcDbSymbolTableRecord
100
AcDbRegAppTableRecord
  2
GENIUS_GENZVEED_13
 70
     0
  0
APPID
  5
C7
330
9
100
AcDbSymbolTableRecord
100
AcDbRegAppTableRecord
  2
GENIUS_GENSCREG_15
 70
     0
  0
APPID
  5
C8
330
9
100
AcDbSymbolTableRecord
100
AcDbRegAppTableRecord
  2
GENIUS_GENOBJ-N-SDF_13
 70
     0
  0
APPID
  5
297
330
9
100
AcDbSymbolTableRecord
100
AcDbRegAppTableRecord
  2
GENIUS_GENOBJ-N-FIL_13
 70
     0
  0
APPID
  5
2CA
330
9
100
AcDbSymbolTableRecord
100
AcDbRegAppTableRecord
  2
GENIUS_GEFSH_13
 70
     0
  0
APPID
  5
2CB
330
9
100
AcDbSymbolTableRecord
100
AcDbRegAppTableRecord
  2
GENIUS_GENOBJ-F-SHS_13
 70
     0
  0
APPID
  5
2CC
330
9
100
AcDbSymbolTableRecord
100
AcDbRegAppTableRecord
  2
GENIUS_GENFIL_13
 70
     0
  0
APPID
  5
2CD
330
9
100
AcDbSymbolTableRecord
100
AcDbRegAppTableRecord
  2
GENIUS_GENOBJ-N-CHA_13
 70
     0
  0
APPID
  5
783
330
9
100
AcDbSymbolTableRecord
100
AcDbRegAppTableRecord
  2
GENIUS_GENOBJ-N-HTC_13
 70
     0
  0
APPID
  5
784
330
9
100
AcDbSymbolTableRecord
100
AcDbRegAppTableRecord
  2
GENIUS_GENHATCH_13
 70
     0
  0
APPID
  5
C83
330
9
100
AcDbSymbolTableRecord
100
AcDbRegAppTableRecord
  2
GENIUS_GENDTOL_13
 70
     0
  0
APPID
  5
CFA
330
9
100
AcDbSymbolTableRecord
100
AcDbRegAppTableRecord
  2
GENIUS_GENDIMSH_14
 70
     0
  0
APPID
  5
16C5
330
9
100
AcDbSymbolTableRecord
100
AcDbRegAppTableRecord
  2
GENIUS_GENOBJ-N-CRS_13
 70
     0
  0
APPID
  5
1B10
330
9
100
AcDbSymbolTableRecord
100
AcDbRegAppTableRecord
  2
AD_DRAW
 70
     0
  0
APPID
  5
1B13
330
9
100
AcDbSymbolTableRecord
100
AcDbRegAppTableRecord
  2
ACATTRIBSERVICES
 70
     0
  0
APPID
  5
1B32
330
9
100
AcDbSymbolTableRecord
100
AcDbRegAppTableRecord
  2
DESIGNERASSEMBLIES
 70
     0
  0
APPID
  5
1B4C
330
9
100
AcDbSymbolTableRecord
100
AcDbRegAppTableRecord
  2
ACADM_DIM_EDIT
 70
     0
  0
APPID
  5
1B4D
330
9
100
AcDbSymbolTableRecord
100
AcDbRegAppTableRecord
  2
AMDT_DM_ADJ
 70
     0
  0
APPID
  5
1C10
330
9
100
AcDbSymbolTableRecord
100
AcDbRegAppTableRecord
  2
GENIUS_GENCEN_19
 70
     0
  0
APPID
  5
1C23
330
9
100
AcDbSymbolTableRecord
100
AcDbRegAppTableRecord
  2
ACAD_PSEXT
 70
     0
  0
APPID
  5
1C5A
330
9
100
AcDbSymbolTableRecord
100
AcDbRegAppTableRecord
  2
ACAD_EXEMPT_FROM_CAD_STANDARDS
 70
     0
  0
APPID
  5
27C5
330
9
100
AcDbSymbolTableRecord
100
AcDbRegAppTableRecord
  2
ACAD_DSTYLE_DIMINSPECT
 70
     0
  0
APPID
  5
2A97
330
9
100
AcDbSymbolTableRecord
100
AcDbRegAppTableRecord
  2
ACAD_MLEADERVER
 70
     0
  0
ENDTAB
  0
TABLE
  2
DIMSTYLE
  5
A
330
0
100
AcDbSymbolTable
 70
    12
100
AcDbDimStyleTable
 71
     2
340
8F
340
27
  0
DIMSTYLE
105
27
330
A
100
AcDbSymbolTableRecord
100
AcDbDimStyleTableRecord
  2
ISO-25
 70
     0
 41
2.5
 42
0.625
 43
3.75
 44
1.25
 73
     0
 74
     0
 77
     1
 78
     8
140
2.5
141
2.5
143
0.03937007874016
147
0.625
171
     3
172
     1
271
     2
272
     2
274
     3
283
     0
284
     8
340
11
  0
DIMSTYLE
105
8F
330
A
100
AcDbSymbolTableRecord
100
AcDbDimStyleTableRecord
  2
AM_JIS
 70
     0
  4
"
 40
0.5
 41
2.5
 42
1.0
 43
10.0
 44
1.0
 47
0.1
 48
0.1
 73
     0
 74
     0
 77
     3
 78
     8
 79
     2
140
3.5
141
0.0
143
0.0393701
146
0.71
147
1.5
172
     1
176
   256
177
   256
178
     2
271
     2
272
     3
274
     4
283
     0
340
11
341
84
342
84
343
84
344
84
371
    -1
372
    -1
  0
DIMSTYLE
105
90
330
A
100
AcDbSymbolTableRecord
100
AcDbDimStyleTableRecord
  2
AM_JIS$3
 70
     0
  4
"
 40
0.5
 41
2.5
 42
1.0
 43
10.0
 44
1.0
 47
0.1
 48
0.1
 73
     0
 77
     3
 78
     8
 79
     2
140
3.5
141
0.0
143
0.0393701
146
0.71
147
1.5
176
   256
177
   256
178
     2
271
     2
272
     3
274
     4
283
     0
288
     1
289
     0
340
11
341
84
342
84
343
84
344
84
371
    -1
372
    -1
  0
DIMSTYLE
105
91
330
A
100
AcDbSymbolTableRecord
100
AcDbDimStyleTableRecord
  2
AM_JIS$4
 70
     0
  4
"
 40
0.5
 41
2.5
 42
1.0
 43
10.0
 44
1.0
 47
0.1
 48
0.1
 73
     0
 77
     3
 78
     8
 79
     2
140
3.5
141
0.0
143
0.0393701
146
0.71
147
1.5
176
   256
177
   256
178
     2
271
     2
272
     3
274
     4
283
     0
288
     1
289
     0
340
11
341
84
342
84
343
84
344
84
371
    -1
372
    -1
  0
DIMSTYLE
105
92
330
A
100
AcDbSymbolTableRecord
100
AcDbDimStyleTableRecord
  2
AM_JIS$6
 70
     0
  4
"
 40
0.5
 41
2.5
 42
1.0
 43
10.0
 44
1.0
 47
0.1
 48
0.1
 73
     0
 74
     0
 78
     8
 79
     2
140
3.5
141
0.0
143
0.0393701
146
0.71
147
1.5
172
     1
176
   256
177
   256
178
     2
271
     2
272
     3
274
     4
283
     0
340
11
341
84
342
84
343
84
344
84
371
    -1
372
    -1
  0
DIMSTYLE
105
93
330
A
100
AcDbSymbolTableRecord
100
AcDbDimStyleTableRecord
  2
AM_JIS$7
 70
     0
  4
"
 40
0.5
 41
2.5
 42
1.0
 43
10.0
 44
1.0
 47
0.1
 48
0.1
 73
     0
 74
     0
 77
     3
 78
     8
 79
     2
140
5.0
141
0.0
143
0.0393701
146
0.71
147
1.5
172
     1
176
   256
177
   256
178
     2
271
     2
272
     3
274
     4
283
     0
340
11
341
84
342
84
343
84
344
84
371
    -1
372
    -1
  0
DIMSTYLE
105
94
330
A
100
AcDbSymbolTableRecord
100
AcDbDimStyleTableRecord
  2
AM_JIS$SF
 70
     0
  4
"
 40
0.5
 41
2.5
 42
1.0
 43
10.0
 44
1.0
 47
0.1
 48
0.1
 73
     0
 74
     0
 75
     1
 76
     1
 77
     3
 78
     8
 79
     2
140
3.5
141
0.0
143
0.0393701
146
0.71
147
1.5
172
     1
176
   256
177
   256
178
     2
271
     2
272
     3
274
     4
283
     0
340
11
341
84
342
84
343
84
344
84
371
    -1
372
    -1
  0
DIMSTYLE
105
95
330
A
100
AcDbSymbolTableRecord
100
AcDbDimStyleTableRecord
  2
AM_JIS$SH
 70
     0
  4
"
 40
0.5
 41
2.5
 42
1.0
 43
10.0
 44
1.0
 47
0.1
 48
0.1
 73
     0
 74
     0
 75
     1
 76
     1
 77
     3
 78
     8
 79
     2
140
3.5
141
0.0
143
0.0393701
144
2.0
146
0.71
147
1.5
172
     1
173
     1
176
   256
177
   256
178
     2
271
     2
272
     3
274
     4
283
     0
340
11
341
84
342
84
343
8A
344
84
371
    -1
372
    -1
  0
DIMSTYLE
105
1BE1
330
A
100
AcDbSymbolTableRecord
100
AcDbDimStyleTableRecord
  2
AM_JIS$0
 70
     0
  4
"
 40
0.5
 41
2.5
 42
1.0
 43
10.0
 44
1.0
 47
0.1
 48
0.1
 73
     0
 74
     0
 77
     3
 78
     8
 79
     2
140
3.5
141
0.0
143
0.0393701
146
0.71
147
1.5
172
     1
176
   256
177
   256
178
     2
271
     2
272
     3
274
     4
283
     0
340
11
341
84
342
84
343
84
344
84
371
    -1
372
    -1
  0
DIMSTYLE
105
241C
330
A
100
AcDbSymbolTableRecord
100
AcDbDimStyleTableRecord
  2
ISO-25$0
 70
     0
 41
3.0
 42
0.625
 43
3.0
 44
1.25
 45
0.001
 73
     0
 74
     0
 77
     1
 78
     8
140
3.0
141
3.0
143
0.03937007874016
147
0.625
171
     3
172
     1
176
     1
177
     1
271
     2
272
     2
274
     3
283
     0
284
     8
340
11
371
     5
372
     5
  0
DIMSTYLE
105
250A
330
A
100
AcDbSymbolTableRecord
100
AcDbDimStyleTableRecord
  2
AM_ANSI
 70
     0
  4
mm
 40
0.5
 41
0.1
 42
0.05
 43
0.5
 44
0.1
 47
0.1
 48
0.1
 78
     7
 79
     2
140
0.12
141
0.0
146
0.71
147
0.06
176
   256
177
   256
178
     2
274
     4
284
     7
340
11
371
    -1
372
    -1
  0
DIMSTYLE
105
250B
330
A
100
AcDbSymbolTableRecord
100
AcDbDimStyleTableRecord
  2
AM_JIS$2
 70
     0
  4
"
 40
0.5
 41
2.5
 42
1.0
 43
10.0
 44
1.0
 47
0.1
 48
0.1
 73
     0
 74
     0
 77
     3
 78
     8
 79
     2
140
3.5
141
0.0
143
0.0393701
146
0.71
147
1.5
172
     1
176
   256
177
   256
178
     2
271
     2
272
     3
274
     4
283
     0
284
     8
340
11
341
84
342
84
343
84
344
84
371
    -1
372
    -1
  0
ENDTAB
  0
TABLE
  2
BLOCK_RECORD
  5
1
330
0
100
AcDbSymbolTable
 70
    14
  0
BLOCK_RECORD
  5
1F
102
{ACAD_XDICTIONARY
360
C9
102
}
330
1
100
AcDbSymbolTableRecord
100
AcDbBlockTableRecord
  2
*Model_Space
340
22
  0
BLOCK_RECORD
  5
1B
330
1
100
AcDbSymbolTableRecord
100
AcDbBlockTableRecord
  2
*Paper_Space
340
1E
  0
BLOCK_RECORD
  5
23
330
1
100
AcDbSymbolTableRecord
100
AcDbBlockTableRecord
  2
*Paper_Space0
340
26
  0
BLOCK_RECORD
  5
84
330
1
100
AcDbSymbolTableRecord
100
AcDbBlockTableRecord
  2
_Open30
340
0
  0
BLOCK_RECORD
  5
8A
330
1
100
AcDbSymbolTableRecord
100
AcDbBlockTableRecord
  2
GENAXEH
340
0
  0
BLOCK_RECORD
  5
1217
330
1
100
AcDbSymbolTableRecord
100
AcDbBlockTableRecord
  2
GENDOT
340
0
  0
BLOCK_RECORD
  5
1354
330
1
100
AcDbSymbolTableRecord
100
AcDbBlockTableRecord
  2
AA-3-BW
340
0
  0
BLOCK_RECORD
  5
136C
330
1
100
AcDbSymbolTableRecord
100
AcDbBlockTableRecord
  2
A$C2D292097
340
0
  0
BLOCK_RECORD
  5
1389
330
1
100
AcDbSymbolTableRecord
100
AcDbBlockTableRecord
  2
ASO
340
0
  0
BLOCK_RECORD
  5
1C8A
102
{ACAD_XDICTIONARY
360
1CBB
102
}
330
1
100
AcDbSymbolTableRecord
100
AcDbBlockTableRecord
  2
ASO-A
340
0
  0
BLOCK_RECORD
  5
2217
330
1
100
AcDbSymbolTableRecord
100
AcDbBlockTableRecord
  2
*D9
340
0
  0
BLOCK_RECORD
  5
2223
330
1
100
AcDbSymbolTableRecord
100
AcDbBlockTableRecord
  2
A$C75206A3A
340
0
1001
ACAD
1000
DesignCenter Data
1002
{
1070
     1
1070
     4
1002
}
  0
BLOCK_RECORD
  5
2896
102
{ACAD_XDICTIONARY
360
28E2
102
}
330
1
100
AcDbSymbolTableRecord
100
AcDbBlockTableRecord
  2
A$C0B1C3336
340
0
1001
ACAD
1000
DesignCenter Data
1002
{
1070
     1
1070
     4
1002
}
  0
BLOCK_RECORD
  5
306C
102
{ACAD_XDICTIONARY
360
307A
102
}
330
1
100
AcDbSymbolTableRecord
100
AcDbBlockTableRecord
  2
A$C7A7C7714
340
0
1001
ACAD
1000
DesignCenter Data
1002
{
1070
     1
1070
     4
1002
}
  0
ENDTAB
  0
ENDSEC
  0
SECTION
  2
BLOCKS
  0
BLOCK
  5
20
330
1F
100
AcDbEntity
  8
0
100
AcDbBlockBegin
  2
*Model_Space
 70
     0
 10
0.0
 20
0.0
 30
0.0
  3
*Model_Space
  1

  0
ENDBLK
  5
21
330
1F
100
AcDbEntity
  8
0
100
AcDbBlockEnd
  0
BLOCK
  5
1C
330
1B
100
AcDbEntity
 67
     1
  8
0
100
AcDbBlockBegin
  2
*Paper_Space
 70
     0
 10
0.0
 20
0.0
 30
0.0
  3
*Paper_Space
  1

  0
ENDBLK
  5
1D
330
1B
100
AcDbEntity
 67
     1
  8
0
100
AcDbBlockEnd
  0
BLOCK
  5
24
330
23
100
AcDbEntity
 67
     1
  8
0
100
AcDbBlockBegin
  2
*Paper_Space0
 70
     0
 10
0.0
 20
0.0
 30
0.0
  3
*Paper_Space0
  1

  0
ENDBLK
  5
25
330
23
100
AcDbEntity
 67
     1
  8
0
100
AcDbBlockEnd
  0
BLOCK
  5
88
330
84
100
AcDbEntity
  8
0
100
AcDbBlockBegin
  2
_Open30
 70
     0
 10
0.0
 20
0.0
 30
0.0
  3
_Open30
  1

  0
LINE
  5
85
330
84
100
AcDbEntity
  8
0
 62
     0
370
    -2
100
AcDbLine
 10
-1.0
 20
0.26794919
 30
0.0
 11
0.0
 21
0.0
 31
0.0
  0
LINE
  5
86
330
84
100
AcDbEntity
  8
0
 62
     0
370
    -2
100
AcDbLine
 10
0.0
 20
0.0
 30
0.0
 11
-1.0
 21
-0.26794919
 31
0.0
  0
LINE
  5
87
330
84
100
AcDbEntity
  8
0
 62
     0
370
    -2
100
AcDbLine
 10
0.0
 20
0.0
 30
0.0
 11
-1.0
 21
0.0
 31
0.0
  0
ENDBLK
  5
89
330
84
100
AcDbEntity
  8
0
100
AcDbBlockEnd
  0
BLOCK
  5
8C
330
8A
100
AcDbEntity
  8
0
100
AcDbBlockBegin
  2
GENAXEH
 70
     0
 10
0.0
 20
0.0
 30
0.0
  3
GENAXEH
  1

  0
LINE
  5
8B
330
8A
100
AcDbEntity
  8
0
100
AcDbLine
 10
-1.0
 20
0.0
 30
0.0
 11
1.0
 21
0.0
 31
0.0
  0
ENDBLK
  5
8D
330
8A
100
AcDbEntity
  8
0
100
AcDbBlockEnd
  0
BLOCK
  5
121A
330
1217
100
AcDbEntity
  8
0
100
AcDbBlockBegin
  2
GENDOT
 70
     0
 10
0.0
 20
0.0
 30
0.0
  3
GENDOT
  1

  0
LINE
  5
1218
330
1217
100
AcDbEntity
  8
0
100
AcDbLine
 10
0.0
 20
0.0
 30
0.0
 11
-1.0
 21
0.0
 31
0.0
  0
LWPOLYLINE
  5
1219
330
1217
100
AcDbEntity
  8
0
100
AcDbPolyline
 90
        2
 70
     1
 43
0.25
 10
-0.125
 20
0.0
 42
1.0
 10
0.125
 20
0.0
 42
1.0
  0
ENDBLK
  5
121B
330
1217
100
AcDbEntity
  8
0
100
AcDbBlockEnd
  0
BLOCK
  5
1362
330
1354
100
AcDbEntity
  8
0
100
AcDbBlockBegin
  2
AA-3-BW
 70
     0
 10
0.0
 20
0.0
 30
0.0
  3
AA-3-BW
  1

  0
LWPOLYLINE
  5
1355
330
1354
100
AcDbEntity
  8
AM_BOR
 62
   231
100
AcDbPolyline
 90
        4
 70
     1
 43
0.0
 10
11.31798825946299
 20
285.680442839147
 10
11.31798825946292
 20
11.31955716085312
 10
408.7322739737486
 20
11.31955716085296
 10
408.7322739737486
 20
285.680442839147
1001
GENIUS_GENREC_14
1002
{
1000
PYDIR
1011
408.7322739737486
1021
285.680442839147
1031
0.0
1002
}
1002
{
1000
PXDIR
1011
11.31798825946292
1021
11.31955716085312
1031
0.0
1002
}
1002
{
1000
PORI
1011
11.31798825946299
1021
285.680442839147
1031
0.0
1002
}
1002
{
1000
PINS
1011
11.31798825946299
1021
285.680442839147
1031
0.0
1002
}
1002
{
1000
HVAL
1000
281
1002
}
1002
{
1000
H
1070
     2
1002
}
1002
{
1000
WVAL
1000
183
1002
}
1002
{
1000
W
1070
     2
1002
}
1002
{
1000
C
1070
     1
1002
}
1001
GENIUS_GENODEF_13
1002
{
1000
HIER
1070
     0
1002
}
1002
{
1000
MANEDIT
1070
     0
1002
}
1002
{
1000
NOSEL
1070
     0
1002
}
1002
{
1000
BEHIND
1070
     0
1002
}
1002
{
1000
REACTOR
1002
}
1001
GENIUS_GENOBJ-N-REC_13
1002
{
1000
OWNER
1000
GEN
1002
}
  0
TEXT
  5
1356
330
1354
100
AcDbEntity
  8
AM_BOR
 60
     1
100
AcDbText
 10
420.0428571428571
 20
296.9999999999998
 30
0.0
 40
5.0
  1
!GENTITLE-MAX
100
AcDbText
  0
LINE
  5
1357
330
1354
100
AcDbEntity
  8
AM_BOR
100
AcDbLine
 10
0.0000000000000799
 20
297.0
 30
0.0
 11
0.0000000000000799
 21
275.7857142857142
 31
0.0
1001
GENIUS_GENREC_14
1002
{
1000
PYDIR
1011
420.0428571428571
1021
296.9999999999998
1031
0.0
1002
}
1002
{
1000
PXDIR
1011
0.0
1021
0.0
1031
0.0
1002
}
1002
{
1000
PORI
1011
0.0000000000000799
1021
297.0
1031
0.0
1002
}
1002
{
1000
PINS
1011
0.0000000000000799
1021
297.0
1031
0.0
1002
}
1002
{
1000
HVAL
1000
297
1002
}
1002
{
1000
H
1070
     2
1002
}
1002
{
1000
WVAL
1000
210
1002
}
1002
{
1000
W
1070
     2
1002
}
1002
{
1000
C
1070
     1
1002
}
1001
GENIUS_GENODEF_13
1002
{
1000
HIER
1070
     0
1002
}
1002
{
1000
MANEDIT
1070
     0
1002
}
1002
{
1000
NOSEL
1070
     0
1002
}
1002
{
1000
BEHIND
1070
     0
1002
}
1002
{
1000
REACTOR
1002
}
1001
GENIUS_GENOBJ-N-REC_13
1002
{
1000
OWNER
1000
GEN
1002
}
  0
LINE
  5
1358
330
1354
100
AcDbEntity
  8
AM_BOR
100
AcDbLine
 10
0.0
 20
0.0
 30
0.0
 11
21.21428571428571
 21
0.0
 31
0.0
1001
GENIUS_GENREC_14
1002
{
1000
PYDIR
1011
420.0428571428571
1021
296.9999999999998
1031
0.0
1002
}
1002
{
1000
PXDIR
1011
0.0
1021
0.0
1031
0.0
1002
}
1002
{
1000
PORI
1011
0.0000000000000799
1021
297.0
1031
0.0
1002
}
1002
{
1000
PINS
1011
0.0000000000000799
1021
297.0
1031
0.0
1002
}
1002
{
1000
HVAL
1000
297
1002
}
1002
{
1000
H
1070
     2
1002
}
1002
{
1000
WVAL
1000
210
1002
}
1002
{
1000
W
1070
     2
1002
}
1002
{
1000
C
1070
     1
1002
}
1001
GENIUS_GENODEF_13
1002
{
1000
HIER
1070
     0
1002
}
1002
{
1000
MANEDIT
1070
     0
1002
}
1002
{
1000
NOSEL
1070
     0
1002
}
1002
{
1000
BEHIND
1070
     0
1002
}
1002
{
1000
REACTOR
1002
}
1001
GENIUS_GENOBJ-N-REC_13
1002
{
1000
OWNER
1000
GEN
1002
}
  0
LINE
  5
1359
330
1354
100
AcDbEntity
  8
AM_BOR
100
AcDbLine
 10
420.0428571428571
 20
-0.0000000000000799
 30
0.0
 11
420.0428571428571
 21
21.21428571428563
 31
0.0
1001
GENIUS_GENREC_14
1002
{
1000
PYDIR
1011
420.0428571428571
1021
296.9999999999998
1031
0.0
1002
}
1002
{
1000
PXDIR
1011
0.0
1021
0.0
1031
0.0
1002
}
1002
{
1000
PORI
1011
0.0000000000000799
1021
297.0
1031
0.0
1002
}
1002
{
1000
PINS
1011
0.0000000000000799
1021
297.0
1031
0.0
1002
}
1002
{
1000
HVAL
1000
297
1002
}
1002
{
1000
H
1070
     2
1002
}
1002
{
1000
WVAL
1000
210
1002
}
1002
{
1000
W
1070
     2
1002
}
1002
{
1000
C
1070
     1
1002
}
1001
GENIUS_GENODEF_13
1002
{
1000
HIER
1070
     0
1002
}
1002
{
1000
MANEDIT
1070
     0
1002
}
1002
{
1000
NOSEL
1070
     0
1002
}
1002
{
1000
BEHIND
1070
     0
1002
}
1002
{
1000
REACTOR
1002
}
1001
GENIUS_GENOBJ-N-REC_13
1002
{
1000
OWNER
1000
GEN
1002
}
  0
LINE
  5
135A
330
1354
100
AcDbEntity
  8
AM_BOR
100
AcDbLine
 10
420.0428571428571
 20
296.9999999999998
 30
0.0
 11
398.8285714285715
 21
296.9999999999998
 31
0.0
1001
GENIUS_GENREC_14
1002
{
1000
PYDIR
1011
420.0428571428571
1021
296.9999999999998
1031
0.0
1002
}
1002
{
1000
PXDIR
1011
0.0
1021
0.0
1031
0.0
1002
}
1002
{
1000
PORI
1011
0.0000000000000799
1021
297.0
1031
0.0
1002
}
1002
{
1000
PINS
1011
0.0000000000000799
1021
297.0
1031
0.0
1002
}
1002
{
1000
HVAL
1000
297
1002
}
1002
{
1000
H
1070
     2
1002
}
1002
{
1000
WVAL
1000
210
1002
}
1002
{
1000
W
1070
     2
1002
}
1002
{
1000
C
1070
     1
1002
}
1001
GENIUS_GENODEF_13
1002
{
1000
HIER
1070
     0
1002
}
1002
{
1000
MANEDIT
1070
     0
1002
}
1002
{
1000
NOSEL
1070
     0
1002
}
1002
{
1000
BEHIND
1070
     0
1002
}
1002
{
1000
REACTOR
1002
}
1001
GENIUS_GENOBJ-N-REC_13
1002
{
1000
OWNER
1000
GEN
1002
}
  0
LINE
  5
135B
330
1354
100
AcDbEntity
  8
AM_BOR
100
AcDbLine
 10
21.2142857142858
 20
297.0
 30
0.0
 11
0.0000000000000799
 21
297.0
 31
0.0
1001
GENIUS_GENREC_14
1002
{
1000
PYDIR
1011
420.0428571428571
1021
296.9999999999998
1031
0.0
1002
}
1002
{
1000
PXDIR
1011
0.0
1021
0.0
1031
0.0
1002
}
1002
{
1000
PORI
1011
0.0000000000000799
1021
297.0
1031
0.0
1002
}
1002
{
1000
PINS
1011
0.0000000000000799
1021
297.0
1031
0.0
1002
}
1002
{
1000
HVAL
1000
297
1002
}
1002
{
1000
H
1070
     2
1002
}
1002
{
1000
WVAL
1000
210
1002
}
1002
{
1000
W
1070
     2
1002
}
1002
{
1000
C
1070
     1
1002
}
1001
GENIUS_GENODEF_13
1002
{
1000
HIER
1070
     0
1002
}
1002
{
1000
MANEDIT
1070
     0
1002
}
1002
{
1000
NOSEL
1070
     0
1002
}
1002
{
1000
BEHIND
1070
     0
1002
}
1002
{
1000
REACTOR
1002
}
1001
GENIUS_GENOBJ-N-REC_13
1002
{
1000
OWNER
1000
GEN
1002
}
  0
LINE
  5
135C
330
1354
100
AcDbEntity
  8
AM_BOR
100
AcDbLine
 10
420.0428571428571
 20
275.7857142857141
 30
0.0
 11
420.0428571428571
 21
296.9999999999998
 31
0.0
1001
GENIUS_GENREC_14
1002
{
1000
PYDIR
1011
420.0428571428571
1021
296.9999999999998
1031
0.0
1002
}
1002
{
1000
PXDIR
1011
0.0
1021
0.0
1031
0.0
1002
}
1002
{
1000
PORI
1011
0.0000000000000799
1021
297.0
1031
0.0
1002
}
1002
{
1000
PINS
1011
0.0000000000000799
1021
297.0
1031
0.0
1002
}
1002
{
1000
HVAL
1000
297
1002
}
1002
{
1000
H
1070
     2
1002
}
1002
{
1000
WVAL
1000
210
1002
}
1002
{
1000
W
1070
     2
1002
}
1002
{
1000
C
1070
     1
1002
}
1001
GENIUS_GENODEF_13
1002
{
1000
HIER
1070
     0
1002
}
1002
{
1000
MANEDIT
1070
     0
1002
}
1002
{
1000
NOSEL
1070
     0
1002
}
1002
{
1000
BEHIND
1070
     0
1002
}
1002
{
1000
REACTOR
1002
}
1001
GENIUS_GENOBJ-N-REC_13
1002
{
1000
OWNER
1000
GEN
1002
}
  0
LINE
  5
135D
330
1354
100
AcDbEntity
  8
AM_BOR
100
AcDbLine
 10
398.8285714285715
 20
-0.0000000000000799
 30
0.0
 11
420.0428571428571
 21
-0.0000000000000799
 31
0.0
1001
GENIUS_GENREC_14
1002
{
1000
PYDIR
1011
420.0428571428571
1021
296.9999999999998
1031
0.0
1002
}
1002
{
1000
PXDIR
1011
0.0
1021
0.0
1031
0.0
1002
}
1002
{
1000
PORI
1011
0.0000000000000799
1021
297.0
1031
0.0
1002
}
1002
{
1000
PINS
1011
0.0000000000000799
1021
297.0
1031
0.0
1002
}
1002
{
1000
HVAL
1000
297
1002
}
1002
{
1000
H
1070
     2
1002
}
1002
{
1000
WVAL
1000
210
1002
}
1002
{
1000
W
1070
     2
1002
}
1002
{
1000
C
1070
     1
1002
}
1001
GENIUS_GENODEF_13
1002
{
1000
HIER
1070
     0
1002
}
1002
{
1000
MANEDIT
1070
     0
1002
}
1002
{
1000
NOSEL
1070
     0
1002
}
1002
{
1000
BEHIND
1070
     0
1002
}
1002
{
1000
REACTOR
1002
}
1001
GENIUS_GENOBJ-N-REC_13
1002
{
1000
OWNER
1000
GEN
1002
}
  0
LINE
  5
135E
330
1354
100
AcDbEntity
  8
AM_BOR
100
AcDbLine
 10
0.0
 20
21.21428571428571
 30
0.0
 11
0.0
 21
0.0
 31
0.0
1001
GENIUS_GENREC_14
1002
{
1000
PYDIR
1011
420.0428571428571
1021
296.9999999999998
1031
0.0
1002
}
1002
{
1000
PXDIR
1011
0.0
1021
0.0
1031
0.0
1002
}
1002
{
1000
PORI
1011
0.0000000000000799
1021
297.0
1031
0.0
1002
}
1002
{
1000
PINS
1011
0.0000000000000799
1021
297.0
1031
0.0
1002
}
1002
{
1000
HVAL
1000
297
1002
}
1002
{
1000
H
1070
     2
1002
}
1002
{
1000
WVAL
1000
210
1002
}
1002
{
1000
W
1070
     2
1002
}
1002
{
1000
C
1070
     1
1002
}
1001
GENIUS_GENODEF_13
1002
{
1000
HIER
1070
     0
1002
}
1002
{
1000
MANEDIT
1070
     0
1002
}
1002
{
1000
NOSEL
1070
     0
1002
}
1002
{
1000
BEHIND
1070
     0
1002
}
1002
{
1000
REACTOR
1002
}
1001
GENIUS_GENOBJ-N-REC_13
1002
{
1000
OWNER
1000
GEN
1002
}
  0
TEXT
  5
135F
330
1354
100
AcDbEntity
  8
AM_0
 60
     1
100
AcDbText
 10
408.7322739737486
 20
285.680442839147
 30
0.0
 40
5.0
  1
!GENTITLE-RU
100
AcDbText
  0
TEXT
  5
1360
330
1354
100
AcDbEntity
  8
AM_0
 60
     1
100
AcDbText
 10
16.00523592247285
 20
16.0074545709034
 30
0.0
 40
5.0
  1
!GENTITLE-LL
100
AcDbText
  0
TEXT
  5
1361
330
1354
100
AcDbEntity
  8
AM_0
 60
     1
100
AcDbText
 10
408.7322739737486
 20
11.31955716085296
 30
0.0
 40
5.0
  1
!GENTITLE-INSERT
100
AcDbText
  0
ENDBLK
  5
1363
330
1354
100
AcDbEntity
  8
0
100
AcDbBlockEnd
  0
BLOCK
  5
137C
330
136C
100
AcDbEntity
  8
0
100
AcDbBlockBegin
  2
A$C2D292097
 70
     0
 10
0.0
 20
0.0
 30
0.0
  3
A$C2D292097
  1

  0
TEXT
  5
136D
330
136C
100
AcDbEntity
  8
0
100
AcDbText
 10
197.1044423511698
 20
31.0035981017752
 30
0.0
 40
10.0
  1
ASOH   CO.LTD
 41
5.0
  7
ｽﾀｲﾙ1
100
AcDbText
  0
TEXT
  5
136E
330
136C
100
AcDbEntity
  8
0
100
AcDbText
 10
127.3589261501835
 20
61.98001452360745
 30
0.0
 40
66.93693195207612
  1
アソー株式会社
  7
ｽﾀｲﾙ1
100
AcDbText
  0
HATCH
  5
136F
330
136C
100
AcDbEntity
  8
AM_8
100
AcDbHatch
 10
0.0
 20
0.0
 30
0.0
210
0.0
220
0.0
230
1.0
  2
SOLID
 70
     1
 71
     0
 91
        1
 92
        1
 93
       10
 72
     1
 10
26.27998696211468
 20
119.622038302041
 11
19.72254667781421
 21
94.20654351522143
 72
     1
 10
19.72254667781422
 20
94.20654351522143
 11
20.10217910550261
 21
94.65251979790156
 72
     3
 10
29.97494128357687
 20
79.68778553387966
 11
0.2402016329913209
 21
19.99855752736964
 40
0.7499999999999996
 50
-34.10238568201522
 51
52.41091053102508
 73
     0
 72
     1
 10
43.0844862433824
 20
89.53104876041368
 11
63.55518980891033
 21
40.6543652059048
 72
     3
 10
76.66473476871587
 20
50.49762843243886
 11
0.2402016329913137
 21
19.99855752736964
 40
0.7499999999999999
 50
127.589089468975
 51
243.9002512902304
 73
     1
 72
     1
 10
90.66060611817196
 20
43.43151697692579
 11
98.94218718925374
 21
72.13430932636422
 72
     1
 10
98.94218718925376
 20
72.13430932636422
 11
97.4258024259505
 21
70.16225780455534
 72
     3
 10
86.98981389832653
 20
84.43075959876276
 11
-0.2402016329912594
 21
-19.99855752736953
 40
0.7499999999999996
 50
-36.86989764584386
 51
52.41091053102518
 73
     0
 72
     1
 10
73.88026893852099
 20
74.58749637222874
 11
53.57102076277776
 21
123.0786824781806
 72
     3
 10
40.46147580297221
 20
113.2354192516466
 11
-0.2402016329912803
 21
-19.99855752736963
 40
0.7500000000000002
 50
127.5890894689749
 51
246.4437724078177
 73
     1
 97
        0
 75
     0
 76
     1
 98
        1
 10
-11.02788873631791
 20
-99.90118815091953
1001
GENIUS_GENODEF_13
1002
{
1000
HIER
1070
     0
1002
}
1002
{
1000
MANEDIT
1070
     0
1002
}
1002
{
1000
NOSEL
1070
     0
1002
}
1002
{
1000
BEHIND
1070
     0
1002
}
1002
{
1000
REACTOR
1002
}
1001
GENIUS_GENOBJ-N-HTC_13
1002
{
1000
OWNER
1000
GEN
1002
}
1001
GENIUS_GENHATCH_13
1002
{
1000
DATA
1040
0.0
1042
0.9999999999999998
1000
SOLID
1070
     0
1011
65.16661907668134
1021
74.10910423558471
1031
0.0
1002
}
1002
{
1000
UCS
1010
0.0
1020
0.0
1030
0.0
1010
1.0
1020
0.0
1030
0.0
1010
0.0
1020
1.0
1030
0.0
1002
}
  0
HATCH
  5
1370
330
136C
100
AcDbEntity
  8
AM_8
100
AcDbHatch
 10
0.0
 20
0.0
 30
0.0
210
0.0
220
0.0
230
1.0
  2
SOLID
 70
     1
 71
     0
 91
        1
 92
        1
 93
        2
 72
     2
 10
27.87973327687144
 20
49.81037059826576
 40
18.33631541869489
 50
10.7710123686058
 51
355.3294096482469
 73
     1
 72
     2
 10
27.87973327687144
 20
49.81037059826576
 40
18.33631541869488
 50
355.3294096482469
 51
370.7710123686058
 73
     1
 97
        0
 75
     0
 76
     1
 98
        1
 10
-11.02788873631791
 20
-99.90118815091953
1001
GENIUS_GENODEF_13
1002
{
1000
HIER
1070
     0
1002
}
1002
{
1000
MANEDIT
1070
     0
1002
}
1002
{
1000
NOSEL
1070
     0
1002
}
1002
{
1000
BEHIND
1070
     0
1002
}
1002
{
1000
REACTOR
1002
}
1001
GENIUS_GENOBJ-N-HTC_13
1002
{
1000
OWNER
1000
GEN
1002
}
1001
GENIUS_GENHATCH_13
1002
{
1000
DATA
1040
0.0
1042
0.9999999999999998
1000
SOLID
1070
     0
1011
30.27624113759819
1021
49.61458016509695
1031
0.0
1002
}
1002
{
1000
UCS
1010
0.0
1020
0.0
1030
0.0
1010
1.0
1020
0.0
1030
0.0
1010
0.0
1020
1.0
1030
0.0
1002
}
  0
CIRCLE
  5
1371
330
136C
100
AcDbEntity
  8
0
100
AcDbCircle
 10
27.87973327687145
 20
49.81037059826573
 30
0.0
 40
18.33631541869488
  0
LINE
  5
1372
330
136C
100
AcDbEntity
  8
0
100
AcDbLine
 10
98.94218718925376
 20
72.13430932636422
 30
0.0
 11
90.66060611817196
 21
43.43151697692576
 31
0.0
  0
LINE
  5
1373
330
136C
100
AcDbEntity
  8
0
100
AcDbLine
 10
43.0844862433824
 20
89.5310487604137
 30
0.0
 11
63.55518980891034
 21
40.6543652059048
 31
0.0
  0
ELLIPSE
  5
1374
330
136C
100
AcDbEntity
  8
0
100
AcDbEllipse
 10
76.66473476871587
 20
50.49762843243886
 30
0.0
 11
0.2402016329913116
 21
19.99855752736953
 31
0.0
210
0.0
220
0.0
230
0.9999999999999998
 40
0.7499999999999999
 41
2.094395102393195
 42
4.360282821964076
1001
GENIUS_GENODEF_13
1002
{
1000
HIER
1070
     0
1002
}
1002
{
1000
MANEDIT
1070
     0
1002
}
1002
{
1000
NOSEL
1070
     0
1002
}
1002
{
1000
BEHIND
1070
     0
1002
}
1002
{
1000
REACTOR
1002
}
1001
GENIUS_GENOBJ-N-FIL_13
1002
{
1000
OWNER
1000
GEN
1002
}
  0
ELLIPSE
  5
1375
330
136C
100
AcDbEntity
  8
0
100
AcDbEllipse
 10
86.98981389832653
 20
84.43075959876276
 30
0.0
 11
0.2402016329912594
 21
19.99855752736953
 31
0.0
210
0.0
220
0.0
230
1.0
 40
0.7499999999999996
 41
2.094395102393192
 42
3.926990816987234
1001
GENIUS_GENODEF_13
1002
{
1000
HIER
1070
     0
1002
}
1002
{
1000
MANEDIT
1070
     0
1002
}
1002
{
1000
NOSEL
1070
     0
1002
}
1002
{
1000
BEHIND
1070
     0
1002
}
1002
{
1000
REACTOR
1002
}
1001
GENIUS_GENOBJ-N-FIL_13
1002
{
1000
OWNER
1000
GEN
1002
}
  0
ELLIPSE
  5
1376
330
136C
100
AcDbEntity
  8
0
100
AcDbEllipse
 10
29.97494128357687
 20
79.68778553387966
 30
0.0
 11
0.2402016329913188
 21
19.99855752736953
 31
0.0
210
0.0
220
0.0
230
0.9999999999999998
 40
0.7499999999999996
 41
-1.047197551196598
 42
0.7343684516294112
1001
GENIUS_GENODEF_13
1002
{
1000
HIER
1070
     0
1002
}
1002
{
1000
MANEDIT
1070
     0
1002
}
1002
{
1000
NOSEL
1070
     0
1002
}
1002
{
1000
BEHIND
1070
     0
1002
}
1002
{
1000
REACTOR
1002
}
1001
GENIUS_GENOBJ-N-FIL_13
1002
{
1000
OWNER
1000
GEN
1002
}
  0
ELLIPSE
  5
1377
330
136C
100
AcDbEntity
  8
0
100
AcDbEllipse
 10
40.46147580297221
 20
113.2354192516466
 30
0.0
 11
0.2402016329912781
 21
19.99855752736952
 31
0.0
210
0.0
220
0.0
230
0.9999999999999998
 40
0.75
 41
-1.047197551196599
 42
1.254770269777095
1001
GENIUS_GENODEF_13
1002
{
1000
HIER
1070
     0
1002
}
1002
{
1000
MANEDIT
1070
     0
1002
}
1002
{
1000
NOSEL
1070
     0
1002
}
1002
{
1000
BEHIND
1070
     0
1002
}
1002
{
1000
REACTOR
1002
}
1001
GENIUS_GENOBJ-N-FIL_13
1002
{
1000
OWNER
1000
GEN
1002
}
  0
LINE
  5
1378
330
136C
100
AcDbEntity
  8
0
100
AcDbLine
 10
73.88026893852099
 20
74.58749637222874
 30
0.0
 11
53.57102076277774
 21
123.0786824781806
 31
0.0
  0
LINE
  5
1379
330
136C
100
AcDbEntity
  8
0
100
AcDbLine
 10
26.27998696211472
 20
119.6220383020412
 30
0.0
 11
19.72254667781422
 21
94.20654351522143
 31
0.0
  0
LINE
  5
137A
330
136C
100
AcDbEntity
  8
0
100
AcDbLine
 10
19.72254667781422
 20
94.20654351522143
 30
0.0
 11
20.1021791055026
 21
94.65251979790158
 31
0.0
  0
LINE
  5
137B
330
136C
100
AcDbEntity
  8
0
100
AcDbLine
 10
98.94218718925372
 20
72.13430932636422
 30
0.0
 11
97.42580242595048
 21
70.16225780455531
 31
0.0
  0
ENDBLK
  5
137D
330
136C
100
AcDbEntity
  8
0
100
AcDbBlockEnd
  0
BLOCK
  5
13B7
330
1389
100
AcDbEntity
  8
0
100
AcDbBlockBegin
  2
ASO
 70
     2
 10
0.0
 20
0.0
 30
0.0
  3
ASO
  1

  0
LINE
  5
138A
330
1389
100
AcDbEntity
  8
AM_BOR
 62
   211
100
AcDbLine
 10
-110.0
 20
0.0
 30
0.0
 11
0.0
 21
0.0
 31
0.0
1001
GENIUS_GENREC_14
1002
{
1000
PYDIR
1011
-110.0
1021
40.0
1031
0.0
1002
}
1002
{
1000
PXDIR
1011
0.0
1021
0.0
1031
0.0
1002
}
1002
{
1000
PORI
1011
-110.0
1021
0.0
1031
0.0
1002
}
1002
{
1000
PINS
1011
-110.0
1021
0.0
1031
0.0
1002
}
1002
{
1000
HVAL
1000
40
1002
}
1002
{
1000
H
1070
     2
1002
}
1002
{
1000
WVAL
1000
110
1002
}
1002
{
1000
W
1070
     2
1002
}
1002
{
1000
C
1070
     1
1002
}
1001
GENIUS_GENODEF_13
1002
{
1000
HIER
1070
     0
1002
}
1002
{
1000
MANEDIT
1070
     0
1002
}
1002
{
1000
NOSEL
1070
     0
1002
}
1002
{
1000
BEHIND
1070
     0
1002
}
1002
{
1000
REACTOR
1002
}
1001
GENIUS_GENOBJ-N-REC_13
1002
{
1000
OWNER
1000
GEN
1002
}
  0
LINE
  5
138B
330
1389
100
AcDbEntity
  8
AM_BOR
 62
   211
100
AcDbLine
 10
0.0
 20
0.0
 30
0.0
 11
0.0
 21
40.0
 31
0.0
1001
GENIUS_GENREC_14
1002
{
1000
PYDIR
1011
-110.0
1021
40.0
1031
0.0
1002
}
1002
{
1000
PXDIR
1011
0.0
1021
0.0
1031
0.0
1002
}
1002
{
1000
PORI
1011
-110.0
1021
0.0
1031
0.0
1002
}
1002
{
1000
PINS
1011
-110.0
1021
0.0
1031
0.0
1002
}
1002
{
1000
HVAL
1000
40
1002
}
1002
{
1000
H
1070
     2
1002
}
1002
{
1000
WVAL
1000
110
1002
}
1002
{
1000
W
1070
     2
1002
}
1002
{
1000
C
1070
     1
1002
}
1001
GENIUS_GENODEF_13
1002
{
1000
HIER
1070
     0
1002
}
1002
{
1000
MANEDIT
1070
     0
1002
}
1002
{
1000
NOSEL
1070
     0
1002
}
1002
{
1000
BEHIND
1070
     0
1002
}
1002
{
1000
REACTOR
1002
}
1001
GENIUS_GENOBJ-N-REC_13
1002
{
1000
OWNER
1000
GEN
1002
}
  0
LINE
  5
138C
330
1389
100
AcDbEntity
  8
AM_BOR
 62
   211
100
AcDbLine
 10
0.0
 20
40.0
 30
0.0
 11
-110.0
 21
40.00000000000001
 31
0.0
1001
GENIUS_GENREC_14
1002
{
1000
PYDIR
1011
-110.0
1021
40.0
1031
0.0
1002
}
1002
{
1000
PXDIR
1011
0.0
1021
0.0
1031
0.0
1002
}
1002
{
1000
PORI
1011
-110.0
1021
0.0
1031
0.0
1002
}
1002
{
1000
PINS
1011
-110.0
1021
0.0
1031
0.0
1002
}
1002
{
1000
HVAL
1000
40
1002
}
1002
{
1000
H
1070
     2
1002
}
1002
{
1000
WVAL
1000
110
1002
}
1002
{
1000
W
1070
     2
1002
}
1002
{
1000
C
1070
     1
1002
}
1001
GENIUS_GENODEF_13
1002
{
1000
HIER
1070
     0
1002
}
1002
{
1000
MANEDIT
1070
     0
1002
}
1002
{
1000
NOSEL
1070
     0
1002
}
1002
{
1000
BEHIND
1070
     0
1002
}
1002
{
1000
REACTOR
1002
}
1001
GENIUS_GENOBJ-N-REC_13
1002
{
1000
OWNER
1000
GEN
1002
}
  0
LINE
  5
138D
330
1389
100
AcDbEntity
  8
AM_BOR
 62
   211
100
AcDbLine
 10
-110.0
 20
40.00000000000001
 30
0.0
 11
-110.0
 21
0.0
 31
0.0
1001
GENIUS_GENREC_14
1002
{
1000
PYDIR
1011
-110.0
1021
40.0
1031
0.0
1002
}
1002
{
1000
PXDIR
1011
0.0
1021
0.0
1031
0.0
1002
}
1002
{
1000
PORI
1011
-110.0
1021
0.0
1031
0.0
1002
}
1002
{
1000
PINS
1011
-110.0
1021
0.0
1031
0.0
1002
}
1002
{
1000
HVAL
1000
40
1002
}
1002
{
1000
H
1070
     2
1002
}
1002
{
1000
WVAL
1000
110
1002
}
1002
{
1000
W
1070
     2
1002
}
1002
{
1000
C
1070
     1
1002
}
1001
GENIUS_GENODEF_13
1002
{
1000
HIER
1070
     0
1002
}
1002
{
1000
MANEDIT
1070
     0
1002
}
1002
{
1000
NOSEL
1070
     0
1002
}
1002
{
1000
BEHIND
1070
     0
1002
}
1002
{
1000
REACTOR
1002
}
1001
GENIUS_GENOBJ-N-REC_13
1002
{
1000
OWNER
1000
GEN
1002
}
  0
LINE
  5
138E
330
1389
100
AcDbEntity
  8
AM_BOR
 62
     5
100
AcDbLine
 10
-60.0
 20
9.999999999999992
 30
0.0
 11
0.0
 21
10.0
 31
0.0
1001
GENIUS_GENREC_14
1002
{
1000
PYDIR
1011
-110.0
1021
40.0
1031
0.0
1002
}
1002
{
1000
PXDIR
1011
0.0
1021
0.0
1031
0.0
1002
}
1002
{
1000
PORI
1011
-110.0
1021
0.0
1031
0.0
1002
}
1002
{
1000
PINS
1011
-110.0
1021
0.0
1031
0.0
1002
}
1002
{
1000
HVAL
1000
40
1002
}
1002
{
1000
H
1070
     2
1002
}
1002
{
1000
WVAL
1000
110
1002
}
1002
{
1000
W
1070
     2
1002
}
1002
{
1000
C
1070
     1
1002
}
  0
LINE
  5
138F
330
1389
100
AcDbEntity
  8
AM_BOR
 62
     5
100
AcDbLine
 10
-110.0
 20
19.0
 30
0.0
 11
0.0
 21
19.0
 31
0.0
1001
GENIUS_GENREC_14
1002
{
1000
PYDIR
1011
-110.0
1021
40.0
1031
0.0
1002
}
1002
{
1000
PXDIR
1011
0.0
1021
0.0
1031
0.0
1002
}
1002
{
1000
PORI
1011
-110.0
1021
0.0
1031
0.0
1002
}
1002
{
1000
PINS
1011
-110.0
1021
0.0
1031
0.0
1002
}
1002
{
1000
HVAL
1000
40
1002
}
1002
{
1000
H
1070
     2
1002
}
1002
{
1000
WVAL
1000
110
1002
}
1002
{
1000
W
1070
     2
1002
}
1002
{
1000
C
1070
     1
1002
}
1001
GENIUS_GENODEF_13
1002
{
1000
HIER
1070
     0
1002
}
1002
{
1000
MANEDIT
1070
     0
1002
}
1002
{
1000
NOSEL
1070
     0
1002
}
1002
{
1000
BEHIND
1070
     0
1002
}
1002
{
1000
REACTOR
1002
}
1001
GENIUS_GENOBJ-N-REC_13
1002
{
1000
OWNER
1000
GEN
1002
}
  0
LINE
  5
1390
330
1389
100
AcDbEntity
  8
AM_BOR
 62
     5
100
AcDbLine
 10
-110.0
 20
26.0
 30
0.0
 11
0.0
 21
26.0
 31
0.0
1001
GENIUS_GENREC_14
1002
{
1000
PYDIR
1011
-110.0
1021
40.0
1031
0.0
1002
}
1002
{
1000
PXDIR
1011
0.0
1021
0.0
1031
0.0
1002
}
1002
{
1000
PORI
1011
-110.0
1021
0.0
1031
0.0
1002
}
1002
{
1000
PINS
1011
-110.0
1021
0.0
1031
0.0
1002
}
1002
{
1000
HVAL
1000
40
1002
}
1002
{
1000
H
1070
     2
1002
}
1002
{
1000
WVAL
1000
110
1002
}
1002
{
1000
W
1070
     2
1002
}
1002
{
1000
C
1070
     1
1002
}
1001
GENIUS_GENODEF_13
1002
{
1000
HIER
1070
     0
1002
}
1002
{
1000
MANEDIT
1070
     0
1002
}
1002
{
1000
NOSEL
1070
     0
1002
}
1002
{
1000
BEHIND
1070
     0
1002
}
1002
{
1000
REACTOR
1002
}
1001
GENIUS_GENOBJ-N-REC_13
1002
{
1000
OWNER
1000
GEN
1002
}
  0
LINE
  5
1391
330
1389
100
AcDbEntity
  8
AM_BOR
 62
     5
100
AcDbLine
 10
-110.0
 20
33.0
 30
0.0
 11
0.0
 21
33.0
 31
0.0
1001
GENIUS_GENREC_14
1002
{
1000
PYDIR
1011
-110.0
1021
40.0
1031
0.0
1002
}
1002
{
1000
PXDIR
1011
0.0
1021
0.0
1031
0.0
1002
}
1002
{
1000
PORI
1011
-110.0
1021
0.0
1031
0.0
1002
}
1002
{
1000
PINS
1011
-110.0
1021
0.0
1031
0.0
1002
}
1002
{
1000
HVAL
1000
40
1002
}
1002
{
1000
H
1070
     2
1002
}
1002
{
1000
WVAL
1000
110
1002
}
1002
{
1000
W
1070
     2
1002
}
1002
{
1000
C
1070
     1
1002
}
1001
GENIUS_GENODEF_13
1002
{
1000
HIER
1070
     0
1002
}
1002
{
1000
MANEDIT
1070
     0
1002
}
1002
{
1000
NOSEL
1070
     0
1002
}
1002
{
1000
BEHIND
1070
     0
1002
}
1002
{
1000
REACTOR
1002
}
1001
GENIUS_GENOBJ-N-REC_13
1002
{
1000
OWNER
1000
GEN
1002
}
  0
LINE
  5
1392
330
1389
100
AcDbEntity
  8
AM_BOR
 62
     5
100
AcDbLine
 10
-85.0
 20
33.0
 30
0.0
 11
-85.0
 21
18.99999999999998
 31
0.0
1001
GENIUS_GENREC_14
1002
{
1000
PYDIR
1011
-110.0
1021
40.0
1031
0.0
1002
}
1002
{
1000
PXDIR
1011
0.0
1021
0.0
1031
0.0
1002
}
1002
{
1000
PORI
1011
-110.0
1021
0.0
1031
0.0
1002
}
1002
{
1000
PINS
1011
-110.0
1021
0.0
1031
0.0
1002
}
1002
{
1000
HVAL
1000
40
1002
}
1002
{
1000
H
1070
     2
1002
}
1002
{
1000
WVAL
1000
110
1002
}
1002
{
1000
W
1070
     2
1002
}
1002
{
1000
C
1070
     1
1002
}
1001
GENIUS_GENODEF_13
1002
{
1000
HIER
1070
     0
1002
}
1002
{
1000
MANEDIT
1070
     0
1002
}
1002
{
1000
NOSEL
1070
     0
1002
}
1002
{
1000
BEHIND
1070
     0
1002
}
1002
{
1000
REACTOR
1002
}
1001
GENIUS_GENOBJ-N-REC_13
1002
{
1000
OWNER
1000
GEN
1002
}
  0
LINE
  5
1393
330
1389
100
AcDbEntity
  8
AM_BOR
 62
     5
100
AcDbLine
 10
-60.0
 20
40.00000000000001
 30
0.0
 11
-60.0
 21
0.0
 31
0.0
1001
GENIUS_GENREC_14
1002
{
1000
PYDIR
1011
-110.0
1021
40.0
1031
0.0
1002
}
1002
{
1000
PXDIR
1011
0.0
1021
0.0
1031
0.0
1002
}
1002
{
1000
PORI
1011
-110.0
1021
0.0
1031
0.0
1002
}
1002
{
1000
PINS
1011
-110.0
1021
0.0
1031
0.0
1002
}
1002
{
1000
HVAL
1000
40
1002
}
1002
{
1000
H
1070
     2
1002
}
1002
{
1000
WVAL
1000
110
1002
}
1002
{
1000
W
1070
     2
1002
}
1002
{
1000
C
1070
     1
1002
}
1001
GENIUS_GENODEF_13
1002
{
1000
HIER
1070
     0
1002
}
1002
{
1000
MANEDIT
1070
     0
1002
}
1002
{
1000
NOSEL
1070
     0
1002
}
1002
{
1000
BEHIND
1070
     0
1002
}
1002
{
1000
REACTOR
1002
}
1001
GENIUS_GENOBJ-N-REC_13
1002
{
1000
OWNER
1000
GEN
1002
}
  0
LINE
  5
1394
330
1389
100
AcDbEntity
  8
AM_BOR
 62
     5
100
AcDbLine
 10
-20.0
 20
33.0
 30
0.0
 11
-20.0
 21
40.0
 31
0.0
1001
GENIUS_GENREC_14
1002
{
1000
PYDIR
1011
-110.0
1021
40.0
1031
0.0
1002
}
1002
{
1000
PXDIR
1011
0.0
1021
0.0
1031
0.0
1002
}
1002
{
1000
PORI
1011
-110.0
1021
0.0
1031
0.0
1002
}
1002
{
1000
PINS
1011
-110.0
1021
0.0
1031
0.0
1002
}
1002
{
1000
HVAL
1000
40
1002
}
1002
{
1000
H
1070
     2
1002
}
1002
{
1000
WVAL
1000
110
1002
}
1002
{
1000
W
1070
     2
1002
}
1002
{
1000
C
1070
     1
1002
}
1001
GENIUS_GENODEF_13
1002
{
1000
HIER
1070
     0
1002
}
1002
{
1000
MANEDIT
1070
     0
1002
}
1002
{
1000
NOSEL
1070
     0
1002
}
1002
{
1000
BEHIND
1070
     0
1002
}
1002
{
1000
REACTOR
1002
}
1001
GENIUS_GENOBJ-N-REC_13
1002
{
1000
OWNER
1000
GEN
1002
}
  0
LINE
  5
1395
330
1389
100
AcDbEntity
  8
AM_BOR
 62
     5
100
AcDbLine
 10
-40.0
 20
33.0
 30
0.0
 11
-40.0
 21
40.0
 31
0.0
1001
GENIUS_GENREC_14
1002
{
1000
PYDIR
1011
-110.0
1021
40.0
1031
0.0
1002
}
1002
{
1000
PXDIR
1011
0.0
1021
0.0
1031
0.0
1002
}
1002
{
1000
PORI
1011
-110.0
1021
0.0
1031
0.0
1002
}
1002
{
1000
PINS
1011
-110.0
1021
0.0
1031
0.0
1002
}
1002
{
1000
HVAL
1000
40
1002
}
1002
{
1000
H
1070
     2
1002
}
1002
{
1000
WVAL
1000
110
1002
}
1002
{
1000
W
1070
     2
1002
}
1002
{
1000
C
1070
     1
1002
}
1001
GENIUS_GENODEF_13
1002
{
1000
HIER
1070
     0
1002
}
1002
{
1000
MANEDIT
1070
     0
1002
}
1002
{
1000
NOSEL
1070
     0
1002
}
1002
{
1000
BEHIND
1070
     0
1002
}
1002
{
1000
REACTOR
1002
}
1001
GENIUS_GENOBJ-N-REC_13
1002
{
1000
OWNER
1000
GEN
1002
}
  0
LINE
  5
1396
330
1389
100
AcDbEntity
  8
AM_BOR
 62
     5
100
AcDbLine
 10
-80.0
 20
33.0
 30
0.0
 11
-80.0
 21
40.0
 31
0.0
1001
GENIUS_GENREC_14
1002
{
1000
PYDIR
1011
-110.0
1021
40.0
1031
0.0
1002
}
1002
{
1000
PXDIR
1011
0.0
1021
0.0
1031
0.0
1002
}
1002
{
1000
PORI
1011
-110.0
1021
0.0
1031
0.0
1002
}
1002
{
1000
PINS
1011
-110.0
1021
0.0
1031
0.0
1002
}
1002
{
1000
HVAL
1000
40
1002
}
1002
{
1000
H
1070
     2
1002
}
1002
{
1000
WVAL
1000
110
1002
}
1002
{
1000
W
1070
     2
1002
}
1002
{
1000
C
1070
     1
1002
}
1001
GENIUS_GENODEF_13
1002
{
1000
HIER
1070
     0
1002
}
1002
{
1000
MANEDIT
1070
     0
1002
}
1002
{
1000
NOSEL
1070
     0
1002
}
1002
{
1000
BEHIND
1070
     0
1002
}
1002
{
1000
REACTOR
1002
}
1001
GENIUS_GENOBJ-N-REC_13
1002
{
1000
OWNER
1000
GEN
1002
}
  0
TEXT
  5
1397
330
1389
100
AcDbEntity
  8
AM_BOR
 62
     2
100
AcDbText
 10
-57.4
 20
35.0
 30
0.0
 40
3.0
  1
単位 ｍｍ
 72
     4
 11
-50.0
 21
36.5
 31
0.0
100
AcDbText
  0
TEXT
  5
1398
330
1389
100
AcDbEntity
  8
AM_BOR
 62
     2
100
AcDbText
 10
-39.0
 20
35.0
 30
0.0
 40
3.0
  1
尺度
 41
0.9
 11
-39.0
 21
36.5
 31
0.0
100
AcDbText
 73
     2
  0
TEXT
  5
1399
330
1389
100
AcDbEntity
  8
AM_BOR
 62
     2
100
AcDbText
 10
-19.0
 20
35.0
 30
0.0
 40
3.0
  1
日付
 41
0.9
 11
-19.0
 21
36.5
 31
0.0
100
AcDbText
 73
     2
  0
TEXT
  5
139A
330
1389
100
AcDbEntity
  8
AM_BOR
 62
     2
100
AcDbText
 10
-76.79999999999999
 20
34.99999999999999
 30
0.0
 40
3.0
  1
第３角法
 72
     4
 11
-70.0
 21
36.49999999999999
 31
0.0
100
AcDbText
  0
TEXT
  5
139B
330
1389
100
AcDbEntity
  8
AM_BOR
 62
     2
100
AcDbText
 10
-59.0
 20
29.5
 30
0.0
 40
3.0
  1
材 質
 11
-59.0
 21
31.0
 31
0.0
100
AcDbText
 73
     2
  0
TEXT
  5
139C
330
1389
100
AcDbEntity
  8
AM_BOR
 62
     2
100
AcDbText
 10
-59.0
 20
22.5
 30
0.0
 40
3.0
  1
備 考
 11
-59.0
 21
24.0
 31
0.0
100
AcDbText
 73
     2
  0
TEXT
  5
139D
330
1389
100
AcDbEntity
  8
AM_BOR
 62
     2
100
AcDbText
 10
-59.0
 20
15.5
 30
0.0
 40
3.0
  1
品 名
 11
-59.0
 21
17.0
 31
0.0
100
AcDbText
 73
     2
  0
TEXT
  5
139E
330
1389
100
AcDbEntity
  8
AM_BOR
 62
     2
100
AcDbText
 10
-59.0
 20
6.499999999999992
 30
0.0
 40
3.0
  1
図 番
 11
-59.0
 21
7.999999999999992
 31
0.0
100
AcDbText
 73
     2
  0
TEXT
  5
139F
330
1389
100
AcDbEntity
  8
AM_BOR
 62
     2
100
AcDbText
 10
-109.0
 20
29.5
 30
0.0
 40
3.0
  1
承認
 11
-109.0
 21
31.0
 31
0.0
100
AcDbText
 73
     2
  0
TEXT
  5
13A0
330
1389
100
AcDbEntity
  8
AM_BOR
 62
     2
100
AcDbText
 10
-109.0
 20
22.5
 30
0.0
 40
3.0
  1
設計
 11
-109.0
 21
24.0
 31
0.0
100
AcDbText
 73
     2
  0
TEXT
  5
13A1
330
1389
100
AcDbEntity
  8
AM_BOR
 62
     2
100
AcDbText
 10
-84.0
 20
22.5
 30
0.0
 40
3.0
  1
製図
 11
-84.0
 21
24.0
 31
0.0
100
AcDbText
 73
     2
  0
TEXT
  5
13A2
330
1389
100
AcDbEntity
  8
AM_BOR
 62
     2
100
AcDbText
 10
-84.0
 20
29.5
 30
0.0
 40
3.0
  1
検図
 11
-84.0
 21
31.0
 31
0.0
100
AcDbText
 73
     2
  0
ATTDEF
  5
13A3
330
1389
100
AcDbEntity
  8
AM_BOR
100
AcDbText
 10
-49.48020001333898
 20
12.75
 30
0.0
 40
3.5
  1

 11
-49.48020001333898
 21
14.5
 31
0.0
100
AcDbAttributeDefinition
  3
品名
  2
HINMEI{14}
 70
     0
 74
     2
  0
ATTDEF
  5
13A4
330
1389
100
AcDbEntity
  8
AM_BOR
100
AcDbText
 10
-49.48020001333898
 20
3.249999999999992
 30
0.0
 40
3.5
  1

 11
-49.48020001333898
 21
4.999999999999992
 31
0.0
100
AcDbAttributeDefinition
  3
図番
  2
ZUBAN{14}
 70
     0
 74
     2
  0
ATTDEF
  5
13A5
330
1389
100
AcDbEntity
  8
AM_BOR
 62
     2
100
AcDbText
 10
-11.91705654530994
 20
35.0
 30
0.0
 40
3.0
  1

 41
0.8
 11
-11.91705654530994
 21
36.5
 31
0.0
100
AcDbAttributeDefinition
  3
日付
  2
GEN-TITLE-DAT{3.5}
 70
     0
 74
     2
  0
ATTDEF
  5
13A6
330
1389
100
AcDbEntity
  8
AM_BOR
 62
     2
100
AcDbText
 10
-71.63012018472975
 20
20.00000000000001
 30
0.0
 40
3.0
  1
水 田
 72
     4
 11
-67.63012018472974
 21
21.50000000000002
 31
0.0
100
AcDbAttributeDefinition
  3
製図
  2
SEIZU
 70
     0
  0
ATTDEF
  5
13A7
330
1389
100
AcDbEntity
  8
AM_BOR
 62
     2
100
AcDbText
 10
-31.91705654530995
 20
35.0
 30
0.0
 40
3.0
  1

 11
-31.91705654530995
 21
36.5
 31
0.0
100
AcDbAttributeDefinition
  3
尺度
  2
GEN-TITLE-SCA
 70
     0
 74
     2
  0
LINE
  5
13A8
330
1389
100
AcDbEntity
  8
0
100
AcDbLine
 10
-106.9502221859465
 20
14.71456568209314
 30
0.0
 11
-107.7139711131768
 21
11.16237652835879
 31
0.0
  0
LINE
  5
13A9
330
1389
100
AcDbEntity
  8
0
100
AcDbLine
 10
-107.7139711131768
 20
11.16237652835879
 30
0.0
 11
-107.6697551010107
 21
11.22470827233807
 31
0.0
  0
ELLIPSE
  5
13AA
330
1389
100
AcDbEntity
  8
0
100
AcDbEllipse
 10
-106.5198686826232
 20
9.133166589319488
 30
0.0
 11
0.0200858413762701
 21
2.795177724472429
 31
0.0
210
0.0
220
0.0
230
0.9999999999999998
 40
0.6250197778053533
 41
-1.051714224928873
 42
0.7298517778971401
1001
GENIUS_GENODEF_13
1002
{
1000
HIER
1070
     0
1002
}
1002
{
1000
MANEDIT
1070
     0
1002
}
1002
{
1000
NOSEL
1070
     0
1002
}
1002
{
1000
BEHIND
1070
     0
1002
}
1002
{
1000
REACTOR
1002
}
1001
GENIUS_GENOBJ-N-FIL_13
1002
{
1000
OWNER
1000
GEN
1002
}
  0
ELLIPSE
  5
13AB
330
1389
100
AcDbEntity
  8
0
100
AcDbEllipse
 10
-105.2984958385996
 20
13.8219417489321
 30
0.0
 11
0.0200858413762916
 21
2.795177724472415
 31
0.0
210
0.0
220
0.0
230
1.0
 40
0.6250197778053527
 41
-1.051714224928867
 42
1.250253596044828
1001
GENIUS_GENODEF_13
1002
{
1000
HIER
1070
     0
1002
}
1002
{
1000
MANEDIT
1070
     0
1002
}
1002
{
1000
NOSEL
1070
     0
1002
}
1002
{
1000
BEHIND
1070
     0
1002
}
1002
{
1000
REACTOR
1002
}
1001
GENIUS_GENOBJ-N-FIL_13
1002
{
1000
OWNER
1000
GEN
1002
}
  0
LINE
  5
13AC
330
1389
100
AcDbEntity
  8
0
100
AcDbLine
 10
-98.48721298302093
 20
8.077457208786752
 30
0.0
 11
-99.45177360188811
 21
4.065819878065248
 31
0.0
  0
ELLIPSE
  5
13AD
330
1389
100
AcDbEntity
  8
0
100
AcDbEllipse
 10
-101.0818809708247
 20
5.053412867376919
 30
0.0
 11
0.0200858413762853
 21
2.795177724472413
 31
0.0
210
0.0
220
0.0
230
1.0
 40
0.6250197778053547
 41
2.089878428660925
 42
4.355766148231805
1001
GENIUS_GENODEF_13
1002
{
1000
HIER
1070
     0
1002
}
1002
{
1000
MANEDIT
1070
     0
1002
}
1002
{
1000
NOSEL
1070
     0
1002
}
1002
{
1000
BEHIND
1070
     0
1002
}
1002
{
1000
REACTOR
1002
}
1001
GENIUS_GENOBJ-N-FIL_13
1002
{
1000
OWNER
1000
GEN
1002
}
  0
LINE
  5
13AE
330
1389
100
AcDbEntity
  8
0
100
AcDbLine
 10
-98.48721298302093
 20
8.077457208786752
 30
0.0
 11
-98.66382720839389
 21
7.801834007856294
 31
0.0
  0
ELLIPSE
  5
13AF
330
1389
100
AcDbEntity
  8
0
100
AcDbEllipse
 10
-99.87931293102301
 20
9.796066964505511
 30
0.0
 11
0.0200858413762724
 21
2.795177724472415
 31
0.0
210
0.0
220
0.0
230
0.9999999999999998
 40
0.6250197778053552
 41
2.08987842866092
 42
3.922474143254961
1001
GENIUS_GENODEF_13
1002
{
1000
HIER
1070
     0
1002
}
1002
{
1000
MANEDIT
1070
     0
1002
}
1002
{
1000
NOSEL
1070
     0
1002
}
1002
{
1000
BEHIND
1070
     0
1002
}
1002
{
1000
REACTOR
1002
}
1001
GENIUS_GENOBJ-N-FIL_13
1002
{
1000
OWNER
1000
GEN
1002
}
  0
HATCH
  5
13B0
330
1389
100
AcDbEntity
  8
AM_8
100
AcDbHatch
 10
0.0
 20
0.0
 30
0.0
210
0.0
220
0.0
230
1.0
  2
SOLID
 70
     1
 71
     0
 91
        1
 92
        1
 93
        2
 72
     3
 10
-106.7638987916396
 20
4.957358478318376
 11
0.0000000000000547
 21
2.56276973145977
 40
0.8333333333333941
 50
-77.14069946214277
 51
264.4007371808275
 73
     1
 72
     3
 10
-106.7638987916396
 20
4.957358478318376
 11
-0.0000000000003928
 21
2.562769731461267
 40
0.8333333333328997
 50
264.4007371808174
 51
282.8593005378472
 73
     1
 97
        0
 75
     0
 76
     1
 98
        1
 10
65.20293740923941
 20
-32.16820874956388
1001
GENIUS_GENODEF_13
1002
{
1000
HIER
1070
     0
1002
}
1002
{
1000
MANEDIT
1070
     0
1002
}
1002
{
1000
NOSEL
1070
     0
1002
}
1002
{
1000
BEHIND
1070
     0
1002
}
1002
{
1000
REACTOR
1002
}
1001
GENIUS_GENOBJ-N-HTC_13
1002
{
1000
OWNER
1000
GEN
1002
}
1001
GENIUS_GENHATCH_13
1002
{
1000
DATA
1040
0.0
1042
0.0015799698758396
1000
SOLID
1070
     0
1011
70.0136537122014
1021
-14.7540192633455
1031
0.0
1002
}
1002
{
1000
UCS
1010
0.0
1020
0.0
1030
0.0
1010
1.0
1020
0.0
1030
0.0
1010
0.0
1020
1.0
1030
0.0
1002
}
  0
ELLIPSE
  5
13B1
330
1389
100
AcDbEntity
  8
0
100
AcDbEllipse
 10
-106.7638987916396
 20
4.957358478318417
 30
0.0
 11
0.0000000000000006
 21
2.562769731459943
 31
0.0
210
0.0
220
0.0
230
1.0
 40
0.8333333333333353
 41
-1.570796326794896
 42
4.712388980384689
  0
HATCH
  5
13B2
330
1389
100
AcDbEntity
  8
AM_8
100
AcDbHatch
 10
0.0
 20
0.0
 30
0.0
210
0.0
220
0.0
230
1.0
  2
SOLID
 70
     1
 71
     0
 91
        1
 92
        1
 93
       10
 72
     1
 10
-106.9502221859465
 20
14.71456568209311
 11
-107.7139711131768
 21
11.16237652835879
 72
     1
 10
-107.7139711131768
 20
11.16237652835879
 11
-107.6697551010108
 21
11.22470827233809
 72
     3
 10
-106.5198686826232
 20
9.133166589319488
 11
0.0200858413762859
 21
2.795177724472421
 40
0.6250197778053525
 50
-29.21280058452436
 51
47.56891328106517
 73
     0
 72
     1
 10
-104.9929922696577
 20
10.5089073790986
 11
-102.6087573837903
 21
3.677672077597827
 72
     3
 10
-101.0818809708247
 20
5.053412867376919
 11
0.0200858413762844
 21
2.79517772447242
 40
0.625019777805353
 50
132.4310867189347
 51
239.202331800838
 73
     1
 72
     1
 10
-99.45177360188809
 20
4.065819878065248
 11
-98.48721298302093
 21
8.077457208786761
 72
     1
 10
-98.48721298302095
 20
8.077457208786752
 11
-98.66382720839393
 21
7.801834007856288
 72
     3
 10
-99.87931293102301
 20
9.796066964505511
 11
0.0200858413762811
 21
2.795177724472416
 40
0.6250197778053536
 50
148.2259629226598
 51
227.5689132810653
 73
     0
 72
     1
 10
-101.4061893439886
 20
8.420326174726406
 11
-103.771619425634
 21
15.19768253871121
 72
     3
 10
-105.2984958385996
 20
13.8219417489321
 11
0.02008584137625
 21
2.795177724472417
 40
0.6250197778053583
 50
-47.56891328106589
 51
62.02409398278944
 73
     1
 97
        0
 75
     0
 76
     1
 98
        1
 10
65.20293740923941
 20
-32.16820874956388
1001
GENIUS_GENODEF_13
1002
{
1000
HIER
1070
     0
1002
}
1002
{
1000
MANEDIT
1070
     0
1002
}
1002
{
1000
NOSEL
1070
     0
1002
}
1002
{
1000
BEHIND
1070
     0
1002
}
1002
{
1000
REACTOR
1002
}
1001
GENIUS_GENOBJ-N-HTC_13
1002
{
1000
OWNER
1000
GEN
1002
}
1001
GENIUS_GENHATCH_13
1002
{
1000
DATA
1040
0.0
1042
0.0015799698758396
1000
SOLID
1070
     0
1011
74.07735655451816
1021
-11.90112763631223
1031
0.0
1002
}
1002
{
1000
UCS
1010
0.0
1020
0.0
1030
0.0
1010
1.0
1020
0.0
1030
0.0
1010
0.0
1020
1.0
1030
0.0
1002
}
  0
LINE
  5
13B3
330
1389
100
AcDbEntity
  8
0
100
AcDbLine
 10
-104.9929922696577
 20
10.5089073790986
 30
0.0
 11
-102.6087573837903
 21
3.677672077597847
 31
0.0
  0
LINE
  5
13B4
330
1389
100
AcDbEntity
  8
0
100
AcDbLine
 10
-101.4061893439886
 20
8.420326174726406
 30
0.0
 11
-103.771619425634
 21
15.1976825387112
 31
0.0
  0
TEXT
  5
13B5
330
1389
100
AcDbEntity
  8
0
100
AcDbText
 10
-92.04358977334541
 20
2.736280326823534
 30
0.0
 40
1.397647058823528
  1
ASOH   CO.LTD
 41
2.222222222222219
  7
ｽﾀｲﾙ1
100
AcDbText
  0
TEXT
  5
13B6
330
1389
100
AcDbEntity
  8
0
100
AcDbText
 10
-96.37601713265375
 20
7.065690057310197
 30
0.0
 40
9.355420606948992
  1
アソー株式会社
 41
0.4444444444444381
  7
ｽﾀｲﾙ1
100
AcDbText
  0
ENDBLK
  5
13B8
330
1389
100
AcDbEntity
  8
0
100
AcDbBlockEnd
  0
BLOCK
  5
1CBC
330
1C8A
100
AcDbEntity
  8
0
100
AcDbBlockBegin
  2
ASO-A
 70
     2
 10
0.0
 20
0.0
 30
0.0
  3
ASO-A
  1

  0
LINE
  5
1C8B
330
1C8A
100
AcDbEntity
  8
AM_BOR
 62
   211
100
AcDbLine
 10
-110.0
 20
0.0
 30
0.0
 11
0.0
 21
0.0
 31
0.0
1001
GENIUS_GENREC_14
1002
{
1000
PYDIR
1011
-110.0
1021
40.0
1031
0.0
1002
}
1002
{
1000
PXDIR
1011
0.0
1021
0.0
1031
0.0
1002
}
1002
{
1000
PORI
1011
-110.0
1021
0.0
1031
0.0
1002
}
1002
{
1000
PINS
1011
-110.0
1021
0.0
1031
0.0
1002
}
1002
{
1000
HVAL
1000
40
1002
}
1002
{
1000
H
1070
     2
1002
}
1002
{
1000
WVAL
1000
110
1002
}
1002
{
1000
W
1070
     2
1002
}
1002
{
1000
C
1070
     1
1002
}
1001
GENIUS_GENODEF_13
1002
{
1000
HIER
1070
     0
1002
}
1002
{
1000
MANEDIT
1070
     0
1002
}
1002
{
1000
NOSEL
1070
     0
1002
}
1002
{
1000
BEHIND
1070
     0
1002
}
1002
{
1000
REACTOR
1002
}
1001
GENIUS_GENOBJ-N-REC_13
1002
{
1000
OWNER
1000
GEN
1002
}
  0
LINE
  5
1C8C
330
1C8A
100
AcDbEntity
  8
AM_BOR
 62
   211
100
AcDbLine
 10
0.0
 20
0.0
 30
0.0
 11
0.0
 21
40.0
 31
0.0
1001
GENIUS_GENREC_14
1002
{
1000
PYDIR
1011
-110.0
1021
40.0
1031
0.0
1002
}
1002
{
1000
PXDIR
1011
0.0
1021
0.0
1031
0.0
1002
}
1002
{
1000
PORI
1011
-110.0
1021
0.0
1031
0.0
1002
}
1002
{
1000
PINS
1011
-110.0
1021
0.0
1031
0.0
1002
}
1002
{
1000
HVAL
1000
40
1002
}
1002
{
1000
H
1070
     2
1002
}
1002
{
1000
WVAL
1000
110
1002
}
1002
{
1000
W
1070
     2
1002
}
1002
{
1000
C
1070
     1
1002
}
1001
GENIUS_GENODEF_13
1002
{
1000
HIER
1070
     0
1002
}
1002
{
1000
MANEDIT
1070
     0
1002
}
1002
{
1000
NOSEL
1070
     0
1002
}
1002
{
1000
BEHIND
1070
     0
1002
}
1002
{
1000
REACTOR
1002
}
1001
GENIUS_GENOBJ-N-REC_13
1002
{
1000
OWNER
1000
GEN
1002
}
  0
LINE
  5
1C8D
330
1C8A
100
AcDbEntity
  8
AM_BOR
 62
   211
100
AcDbLine
 10
0.0
 20
40.0
 30
0.0
 11
-110.0
 21
40.00000000000001
 31
0.0
1001
GENIUS_GENREC_14
1002
{
1000
PYDIR
1011
-110.0
1021
40.0
1031
0.0
1002
}
1002
{
1000
PXDIR
1011
0.0
1021
0.0
1031
0.0
1002
}
1002
{
1000
PORI
1011
-110.0
1021
0.0
1031
0.0
1002
}
1002
{
1000
PINS
1011
-110.0
1021
0.0
1031
0.0
1002
}
1002
{
1000
HVAL
1000
40
1002
}
1002
{
1000
H
1070
     2
1002
}
1002
{
1000
WVAL
1000
110
1002
}
1002
{
1000
W
1070
     2
1002
}
1002
{
1000
C
1070
     1
1002
}
1001
GENIUS_GENODEF_13
1002
{
1000
HIER
1070
     0
1002
}
1002
{
1000
MANEDIT
1070
     0
1002
}
1002
{
1000
NOSEL
1070
     0
1002
}
1002
{
1000
BEHIND
1070
     0
1002
}
1002
{
1000
REACTOR
1002
}
1001
GENIUS_GENOBJ-N-REC_13
1002
{
1000
OWNER
1000
GEN
1002
}
  0
LINE
  5
1C8E
330
1C8A
100
AcDbEntity
  8
AM_BOR
 62
   211
100
AcDbLine
 10
-110.0
 20
40.00000000000001
 30
0.0
 11
-110.0
 21
0.0
 31
0.0
1001
GENIUS_GENREC_14
1002
{
1000
PYDIR
1011
-110.0
1021
40.0
1031
0.0
1002
}
1002
{
1000
PXDIR
1011
0.0
1021
0.0
1031
0.0
1002
}
1002
{
1000
PORI
1011
-110.0
1021
0.0
1031
0.0
1002
}
1002
{
1000
PINS
1011
-110.0
1021
0.0
1031
0.0
1002
}
1002
{
1000
HVAL
1000
40
1002
}
1002
{
1000
H
1070
     2
1002
}
1002
{
1000
WVAL
1000
110
1002
}
1002
{
1000
W
1070
     2
1002
}
1002
{
1000
C
1070
     1
1002
}
1001
GENIUS_GENODEF_13
1002
{
1000
HIER
1070
     0
1002
}
1002
{
1000
MANEDIT
1070
     0
1002
}
1002
{
1000
NOSEL
1070
     0
1002
}
1002
{
1000
BEHIND
1070
     0
1002
}
1002
{
1000
REACTOR
1002
}
1001
GENIUS_GENOBJ-N-REC_13
1002
{
1000
OWNER
1000
GEN
1002
}
  0
LINE
  5
1C8F
330
1C8A
100
AcDbEntity
  8
AM_BOR
 62
     5
100
AcDbLine
 10
-60.0
 20
9.999999999999992
 30
0.0
 11
0.0
 21
10.0
 31
0.0
1001
GENIUS_GENREC_14
1002
{
1000
PYDIR
1011
-110.0
1021
40.0
1031
0.0
1002
}
1002
{
1000
PXDIR
1011
0.0
1021
0.0
1031
0.0
1002
}
1002
{
1000
PORI
1011
-110.0
1021
0.0
1031
0.0
1002
}
1002
{
1000
PINS
1011
-110.0
1021
0.0
1031
0.0
1002
}
1002
{
1000
HVAL
1000
40
1002
}
1002
{
1000
H
1070
     2
1002
}
1002
{
1000
WVAL
1000
110
1002
}
1002
{
1000
W
1070
     2
1002
}
1002
{
1000
C
1070
     1
1002
}
  0
LINE
  5
1C90
330
1C8A
100
AcDbEntity
  8
AM_BOR
 62
     5
100
AcDbLine
 10
-110.0
 20
19.0
 30
0.0
 11
0.0
 21
19.0
 31
0.0
1001
GENIUS_GENREC_14
1002
{
1000
PYDIR
1011
-110.0
1021
40.0
1031
0.0
1002
}
1002
{
1000
PXDIR
1011
0.0
1021
0.0
1031
0.0
1002
}
1002
{
1000
PORI
1011
-110.0
1021
0.0
1031
0.0
1002
}
1002
{
1000
PINS
1011
-110.0
1021
0.0
1031
0.0
1002
}
1002
{
1000
HVAL
1000
40
1002
}
1002
{
1000
H
1070
     2
1002
}
1002
{
1000
WVAL
1000
110
1002
}
1002
{
1000
W
1070
     2
1002
}
1002
{
1000
C
1070
     1
1002
}
1001
GENIUS_GENODEF_13
1002
{
1000
HIER
1070
     0
1002
}
1002
{
1000
MANEDIT
1070
     0
1002
}
1002
{
1000
NOSEL
1070
     0
1002
}
1002
{
1000
BEHIND
1070
     0
1002
}
1002
{
1000
REACTOR
1002
}
1001
GENIUS_GENOBJ-N-REC_13
1002
{
1000
OWNER
1000
GEN
1002
}
  0
LINE
  5
1C91
330
1C8A
100
AcDbEntity
  8
AM_BOR
 62
     5
100
AcDbLine
 10
-110.0
 20
26.0
 30
0.0
 11
0.0
 21
26.0
 31
0.0
1001
GENIUS_GENREC_14
1002
{
1000
PYDIR
1011
-110.0
1021
40.0
1031
0.0
1002
}
1002
{
1000
PXDIR
1011
0.0
1021
0.0
1031
0.0
1002
}
1002
{
1000
PORI
1011
-110.0
1021
0.0
1031
0.0
1002
}
1002
{
1000
PINS
1011
-110.0
1021
0.0
1031
0.0
1002
}
1002
{
1000
HVAL
1000
40
1002
}
1002
{
1000
H
1070
     2
1002
}
1002
{
1000
WVAL
1000
110
1002
}
1002
{
1000
W
1070
     2
1002
}
1002
{
1000
C
1070
     1
1002
}
1001
GENIUS_GENODEF_13
1002
{
1000
HIER
1070
     0
1002
}
1002
{
1000
MANEDIT
1070
     0
1002
}
1002
{
1000
NOSEL
1070
     0
1002
}
1002
{
1000
BEHIND
1070
     0
1002
}
1002
{
1000
REACTOR
1002
}
1001
GENIUS_GENOBJ-N-REC_13
1002
{
1000
OWNER
1000
GEN
1002
}
  0
LINE
  5
1C92
330
1C8A
100
AcDbEntity
  8
AM_BOR
 62
     5
100
AcDbLine
 10
-110.0
 20
33.0
 30
0.0
 11
0.0
 21
33.0
 31
0.0
1001
GENIUS_GENREC_14
1002
{
1000
PYDIR
1011
-110.0
1021
40.0
1031
0.0
1002
}
1002
{
1000
PXDIR
1011
0.0
1021
0.0
1031
0.0
1002
}
1002
{
1000
PORI
1011
-110.0
1021
0.0
1031
0.0
1002
}
1002
{
1000
PINS
1011
-110.0
1021
0.0
1031
0.0
1002
}
1002
{
1000
HVAL
1000
40
1002
}
1002
{
1000
H
1070
     2
1002
}
1002
{
1000
WVAL
1000
110
1002
}
1002
{
1000
W
1070
     2
1002
}
1002
{
1000
C
1070
     1
1002
}
1001
GENIUS_GENODEF_13
1002
{
1000
HIER
1070
     0
1002
}
1002
{
1000
MANEDIT
1070
     0
1002
}
1002
{
1000
NOSEL
1070
     0
1002
}
1002
{
1000
BEHIND
1070
     0
1002
}
1002
{
1000
REACTOR
1002
}
1001
GENIUS_GENOBJ-N-REC_13
1002
{
1000
OWNER
1000
GEN
1002
}
  0
LINE
  5
1C93
330
1C8A
100
AcDbEntity
  8
AM_BOR
 62
     5
100
AcDbLine
 10
-85.0
 20
33.0
 30
0.0
 11
-85.0
 21
18.99999999999998
 31
0.0
1001
GENIUS_GENREC_14
1002
{
1000
PYDIR
1011
-110.0
1021
40.0
1031
0.0
1002
}
1002
{
1000
PXDIR
1011
0.0
1021
0.0
1031
0.0
1002
}
1002
{
1000
PORI
1011
-110.0
1021
0.0
1031
0.0
1002
}
1002
{
1000
PINS
1011
-110.0
1021
0.0
1031
0.0
1002
}
1002
{
1000
HVAL
1000
40
1002
}
1002
{
1000
H
1070
     2
1002
}
1002
{
1000
WVAL
1000
110
1002
}
1002
{
1000
W
1070
     2
1002
}
1002
{
1000
C
1070
     1
1002
}
1001
GENIUS_GENODEF_13
1002
{
1000
HIER
1070
     0
1002
}
1002
{
1000
MANEDIT
1070
     0
1002
}
1002
{
1000
NOSEL
1070
     0
1002
}
1002
{
1000
BEHIND
1070
     0
1002
}
1002
{
1000
REACTOR
1002
}
1001
GENIUS_GENOBJ-N-REC_13
1002
{
1000
OWNER
1000
GEN
1002
}
  0
LINE
  5
1C94
330
1C8A
100
AcDbEntity
  8
AM_BOR
 62
     5
100
AcDbLine
 10
-60.0
 20
40.00000000000001
 30
0.0
 11
-60.0
 21
0.0
 31
0.0
1001
GENIUS_GENREC_14
1002
{
1000
PYDIR
1011
-110.0
1021
40.0
1031
0.0
1002
}
1002
{
1000
PXDIR
1011
0.0
1021
0.0
1031
0.0
1002
}
1002
{
1000
PORI
1011
-110.0
1021
0.0
1031
0.0
1002
}
1002
{
1000
PINS
1011
-110.0
1021
0.0
1031
0.0
1002
}
1002
{
1000
HVAL
1000
40
1002
}
1002
{
1000
H
1070
     2
1002
}
1002
{
1000
WVAL
1000
110
1002
}
1002
{
1000
W
1070
     2
1002
}
1002
{
1000
C
1070
     1
1002
}
1001
GENIUS_GENODEF_13
1002
{
1000
HIER
1070
     0
1002
}
1002
{
1000
MANEDIT
1070
     0
1002
}
1002
{
1000
NOSEL
1070
     0
1002
}
1002
{
1000
BEHIND
1070
     0
1002
}
1002
{
1000
REACTOR
1002
}
1001
GENIUS_GENOBJ-N-REC_13
1002
{
1000
OWNER
1000
GEN
1002
}
  0
LINE
  5
1C95
330
1C8A
100
AcDbEntity
  8
AM_BOR
 62
     5
100
AcDbLine
 10
-20.0
 20
33.0
 30
0.0
 11
-20.0
 21
40.0
 31
0.0
1001
GENIUS_GENREC_14
1002
{
1000
PYDIR
1011
-110.0
1021
40.0
1031
0.0
1002
}
1002
{
1000
PXDIR
1011
0.0
1021
0.0
1031
0.0
1002
}
1002
{
1000
PORI
1011
-110.0
1021
0.0
1031
0.0
1002
}
1002
{
1000
PINS
1011
-110.0
1021
0.0
1031
0.0
1002
}
1002
{
1000
HVAL
1000
40
1002
}
1002
{
1000
H
1070
     2
1002
}
1002
{
1000
WVAL
1000
110
1002
}
1002
{
1000
W
1070
     2
1002
}
1002
{
1000
C
1070
     1
1002
}
1001
GENIUS_GENODEF_13
1002
{
1000
HIER
1070
     0
1002
}
1002
{
1000
MANEDIT
1070
     0
1002
}
1002
{
1000
NOSEL
1070
     0
1002
}
1002
{
1000
BEHIND
1070
     0
1002
}
1002
{
1000
REACTOR
1002
}
1001
GENIUS_GENOBJ-N-REC_13
1002
{
1000
OWNER
1000
GEN
1002
}
  0
LINE
  5
1C96
330
1C8A
100
AcDbEntity
  8
AM_BOR
 62
     5
100
AcDbLine
 10
-40.0
 20
33.0
 30
0.0
 11
-40.0
 21
40.0
 31
0.0
1001
GENIUS_GENREC_14
1002
{
1000
PYDIR
1011
-110.0
1021
40.0
1031
0.0
1002
}
1002
{
1000
PXDIR
1011
0.0
1021
0.0
1031
0.0
1002
}
1002
{
1000
PORI
1011
-110.0
1021
0.0
1031
0.0
1002
}
1002
{
1000
PINS
1011
-110.0
1021
0.0
1031
0.0
1002
}
1002
{
1000
HVAL
1000
40
1002
}
1002
{
1000
H
1070
     2
1002
}
1002
{
1000
WVAL
1000
110
1002
}
1002
{
1000
W
1070
     2
1002
}
1002
{
1000
C
1070
     1
1002
}
1001
GENIUS_GENODEF_13
1002
{
1000
HIER
1070
     0
1002
}
1002
{
1000
MANEDIT
1070
     0
1002
}
1002
{
1000
NOSEL
1070
     0
1002
}
1002
{
1000
BEHIND
1070
     0
1002
}
1002
{
1000
REACTOR
1002
}
1001
GENIUS_GENOBJ-N-REC_13
1002
{
1000
OWNER
1000
GEN
1002
}
  0
LINE
  5
1C97
330
1C8A
100
AcDbEntity
  8
AM_BOR
 62
     5
100
AcDbLine
 10
-80.0
 20
33.0
 30
0.0
 11
-80.0
 21
40.0
 31
0.0
1001
GENIUS_GENREC_14
1002
{
1000
PYDIR
1011
-110.0
1021
40.0
1031
0.0
1002
}
1002
{
1000
PXDIR
1011
0.0
1021
0.0
1031
0.0
1002
}
1002
{
1000
PORI
1011
-110.0
1021
0.0
1031
0.0
1002
}
1002
{
1000
PINS
1011
-110.0
1021
0.0
1031
0.0
1002
}
1002
{
1000
HVAL
1000
40
1002
}
1002
{
1000
H
1070
     2
1002
}
1002
{
1000
WVAL
1000
110
1002
}
1002
{
1000
W
1070
     2
1002
}
1002
{
1000
C
1070
     1
1002
}
1001
GENIUS_GENODEF_13
1002
{
1000
HIER
1070
     0
1002
}
1002
{
1000
MANEDIT
1070
     0
1002
}
1002
{
1000
NOSEL
1070
     0
1002
}
1002
{
1000
BEHIND
1070
     0
1002
}
1002
{
1000
REACTOR
1002
}
1001
GENIUS_GENOBJ-N-REC_13
1002
{
1000
OWNER
1000
GEN
1002
}
  0
TEXT
  5
1C98
330
1C8A
100
AcDbEntity
  8
AM_BOR
 62
     2
100
AcDbText
 10
-57.4
 20
35.0
 30
0.0
 40
3.0
  1
単位 ｍｍ
 72
     4
 11
-50.0
 21
36.5
 31
0.0
100
AcDbText
  0
TEXT
  5
1C99
330
1C8A
100
AcDbEntity
  8
AM_BOR
 62
     2
100
AcDbText
 10
-39.0
 20
35.0
 30
0.0
 40
3.0
  1
尺度
 41
0.9
 11
-39.0
 21
36.5
 31
0.0
100
AcDbText
 73
     2
  0
TEXT
  5
1C9A
330
1C8A
100
AcDbEntity
  8
AM_BOR
 62
     2
100
AcDbText
 10
-19.0
 20
35.0
 30
0.0
 40
3.0
  1
日付
 41
0.9
 11
-19.0
 21
36.5
 31
0.0
100
AcDbText
 73
     2
  0
TEXT
  5
1C9B
330
1C8A
100
AcDbEntity
  8
AM_BOR
 62
     2
100
AcDbText
 10
-76.79999999999999
 20
34.99999999999999
 30
0.0
 40
3.0
  1
第３角法
 72
     4
 11
-70.0
 21
36.49999999999999
 31
0.0
100
AcDbText
  0
TEXT
  5
1C9C
330
1C8A
100
AcDbEntity
  8
AM_BOR
 62
     2
100
AcDbText
 10
-59.0
 20
29.5
 30
0.0
 40
3.0
  1
材 質
 11
-59.0
 21
31.0
 31
0.0
100
AcDbText
 73
     2
  0
TEXT
  5
1C9D
330
1C8A
100
AcDbEntity
  8
AM_BOR
 62
     2
100
AcDbText
 10
-59.0
 20
22.5
 30
0.0
 40
3.0
  1
備 考
 11
-59.0
 21
24.0
 31
0.0
100
AcDbText
 73
     2
  0
TEXT
  5
1C9E
330
1C8A
100
AcDbEntity
  8
AM_BOR
 62
     2
100
AcDbText
 10
-59.0
 20
15.5
 30
0.0
 40
3.0
  1
品 名
 11
-59.0
 21
17.0
 31
0.0
100
AcDbText
 73
     2
  0
TEXT
  5
1C9F
330
1C8A
100
AcDbEntity
  8
AM_BOR
 62
     2
100
AcDbText
 10
-59.0
 20
6.499999999999992
 30
0.0
 40
3.0
  1
図 番
 11
-59.0
 21
7.999999999999992
 31
0.0
100
AcDbText
 73
     2
  0
TEXT
  5
1CA0
330
1C8A
100
AcDbEntity
  8
AM_BOR
 62
     2
100
AcDbText
 10
-109.0
 20
29.5
 30
0.0
 40
3.0
  1
承認
 11
-109.0
 21
31.0
 31
0.0
100
AcDbText
 73
     2
  0
TEXT
  5
1CA1
330
1C8A
100
AcDbEntity
  8
AM_BOR
 62
     2
100
AcDbText
 10
-109.0
 20
22.5
 30
0.0
 40
3.0
  1
設計
 11
-109.0
 21
24.0
 31
0.0
100
AcDbText
 73
     2
  0
TEXT
  5
1CA2
330
1C8A
100
AcDbEntity
  8
AM_BOR
 62
     2
100
AcDbText
 10
-84.0
 20
22.5
 30
0.0
 40
3.0
  1
製図
 11
-84.0
 21
24.0
 31
0.0
100
AcDbText
 73
     2
  0
TEXT
  5
1CA3
330
1C8A
100
AcDbEntity
  8
AM_BOR
 62
     2
100
AcDbText
 10
-84.0
 20
29.5
 30
0.0
 40
3.0
  1
検図
 11
-84.0
 21
31.0
 31
0.0
100
AcDbText
 73
     2
  0
ATTDEF
  5
1CA4
330
1C8A
100
AcDbEntity
  8
AM_BOR
100
AcDbText
 10
-50.25926794017573
 20
12.75
 30
0.0
 40
3.5
  1

 11
-50.25926794017573
 21
14.5
 31
0.0
100
AcDbAttributeDefinition
  3
品名
  2
HINMEI{14}
 70
     0
 74
     2
  0
ATTDEF
  5
1CA5
330
1C8A
100
AcDbEntity
  8
AM_BOR
100
AcDbText
 10
-50.10873010396898
 20
3.249999999999992
 30
0.0
 40
3.5
  1

 11
-50.10873010396898
 21
4.999999999999992
 31
0.0
100
AcDbAttributeDefinition
  3
図番
  2
ZUBAN{14}
 70
     0
 74
     2
  0
ATTDEF
  5
1CA6
330
1C8A
100
AcDbEntity
  8
AM_BOR
 62
     2
100
AcDbText
 10
-11.91705654530994
 20
35.0
 30
0.0
 40
3.0
  1

 41
0.8
 11
-11.91705654530994
 21
36.5
 31
0.0
100
AcDbAttributeDefinition
  3
日付
  2
GEN-TITLE-DAT{3.5}
 70
     0
 74
     2
  0
ATTDEF
  5
1CA7
330
1C8A
100
AcDbEntity
  8
AM_BOR
 62
     2
100
AcDbText
 10
-71.63012018472975
 20
20.00000000000001
 30
0.0
 40
3.0
  1
水 田
 72
     4
 11
-67.63012018472974
 21
21.50000000000002
 31
0.0
100
AcDbAttributeDefinition
  3
製図
  2
SEIZU
 70
     0
  0
ATTDEF
  5
1CA8
330
1C8A
100
AcDbEntity
  8
AM_BOR
 62
     2
100
AcDbText
 10
-31.91705654530995
 20
35.0
 30
0.0
 40
3.0
  1

 11
-31.91705654530995
 21
36.5
 31
0.0
100
AcDbAttributeDefinition
  3
尺度
  2
GEN-TITLE-SCA
 70
     0
 74
     2
  0
LINE
  5
1CA9
330
1C8A
100
AcDbEntity
  8
0
100
AcDbLine
 10
-106.9502221859465
 20
14.71456568209314
 30
0.0
 11
-107.7139711131768
 21
11.16237652835879
 31
0.0
  0
LINE
  5
1CAA
330
1C8A
100
AcDbEntity
  8
0
100
AcDbLine
 10
-107.7139711131768
 20
11.16237652835879
 30
0.0
 11
-107.6697551010107
 21
11.22470827233807
 31
0.0
  0
ELLIPSE
  5
1CAB
330
1C8A
100
AcDbEntity
  8
0
100
AcDbEllipse
 10
-106.5198686826232
 20
9.133166589319488
 30
0.0
 11
0.0200858413762701
 21
2.795177724472429
 31
0.0
210
0.0
220
0.0
230
0.9999999999999998
 40
0.6250197778053533
 41
-1.051714224928873
 42
0.7298517778971401
1001
GENIUS_GENODEF_13
1002
{
1000
HIER
1070
     0
1002
}
1002
{
1000
MANEDIT
1070
     0
1002
}
1002
{
1000
NOSEL
1070
     0
1002
}
1002
{
1000
BEHIND
1070
     0
1002
}
1002
{
1000
REACTOR
1002
}
1001
GENIUS_GENOBJ-N-FIL_13
1002
{
1000
OWNER
1000
GEN
1002
}
  0
ELLIPSE
  5
1CAC
330
1C8A
100
AcDbEntity
  8
0
100
AcDbEllipse
 10
-105.2984958385996
 20
13.8219417489321
 30
0.0
 11
0.0200858413762916
 21
2.795177724472415
 31
0.0
210
0.0
220
0.0
230
1.0
 40
0.6250197778053527
 41
-1.051714224928867
 42
1.250253596044828
1001
GENIUS_GENODEF_13
1002
{
1000
HIER
1070
     0
1002
}
1002
{
1000
MANEDIT
1070
     0
1002
}
1002
{
1000
NOSEL
1070
     0
1002
}
1002
{
1000
BEHIND
1070
     0
1002
}
1002
{
1000
REACTOR
1002
}
1001
GENIUS_GENOBJ-N-FIL_13
1002
{
1000
OWNER
1000
GEN
1002
}
  0
LINE
  5
1CAD
330
1C8A
100
AcDbEntity
  8
0
100
AcDbLine
 10
-98.48721298302093
 20
8.077457208786752
 30
0.0
 11
-99.45177360188811
 21
4.065819878065248
 31
0.0
  0
ELLIPSE
  5
1CAE
330
1C8A
100
AcDbEntity
  8
0
100
AcDbEllipse
 10
-101.0818809708247
 20
5.053412867376919
 30
0.0
 11
0.0200858413762853
 21
2.795177724472413
 31
0.0
210
0.0
220
0.0
230
1.0
 40
0.6250197778053547
 41
2.089878428660925
 42
4.355766148231805
1001
GENIUS_GENODEF_13
1002
{
1000
HIER
1070
     0
1002
}
1002
{
1000
MANEDIT
1070
     0
1002
}
1002
{
1000
NOSEL
1070
     0
1002
}
1002
{
1000
BEHIND
1070
     0
1002
}
1002
{
1000
REACTOR
1002
}
1001
GENIUS_GENOBJ-N-FIL_13
1002
{
1000
OWNER
1000
GEN
1002
}
  0
LINE
  5
1CAF
330
1C8A
100
AcDbEntity
  8
0
100
AcDbLine
 10
-98.48721298302093
 20
8.077457208786752
 30
0.0
 11
-98.66382720839389
 21
7.801834007856294
 31
0.0
  0
ELLIPSE
  5
1CB0
330
1C8A
100
AcDbEntity
  8
0
100
AcDbEllipse
 10
-99.87931293102301
 20
9.796066964505511
 30
0.0
 11
0.0200858413762724
 21
2.795177724472415
 31
0.0
210
0.0
220
0.0
230
0.9999999999999998
 40
0.6250197778053552
 41
2.08987842866092
 42
3.922474143254961
1001
GENIUS_GENODEF_13
1002
{
1000
HIER
1070
     0
1002
}
1002
{
1000
MANEDIT
1070
     0
1002
}
1002
{
1000
NOSEL
1070
     0
1002
}
1002
{
1000
BEHIND
1070
     0
1002
}
1002
{
1000
REACTOR
1002
}
1001
GENIUS_GENOBJ-N-FIL_13
1002
{
1000
OWNER
1000
GEN
1002
}
  0
HATCH
  5
1CB1
330
1C8A
100
AcDbEntity
  8
AM_8
100
AcDbHatch
 10
0.0
 20
0.0
 30
0.0
210
0.0
220
0.0
230
1.0
  2
SOLID
 70
     1
 71
     0
 91
        1
 92
        1
 93
        2
 72
     3
 10
-106.7638987916396
 20
4.957358478318376
 11
0.0000000000000547
 21
2.56276973145977
 40
0.8333333333333941
 50
-77.14069946214277
 51
264.4007371808275
 73
     1
 72
     3
 10
-106.7638987916396
 20
4.957358478318376
 11
-0.0000000000003928
 21
2.562769731461267
 40
0.8333333333328997
 50
264.4007371808174
 51
282.8593005378472
 73
     1
 97
        0
 75
     0
 76
     1
 98
        1
 10
65.20293740923941
 20
-32.16820874956388
1001
GENIUS_GENODEF_13
1002
{
1000
HIER
1070
     0
1002
}
1002
{
1000
MANEDIT
1070
     0
1002
}
1002
{
1000
NOSEL
1070
     0
1002
}
1002
{
1000
BEHIND
1070
     0
1002
}
1002
{
1000
REACTOR
1002
}
1001
GENIUS_GENOBJ-N-HTC_13
1002
{
1000
OWNER
1000
GEN
1002
}
1001
GENIUS_GENHATCH_13
1002
{
1000
DATA
1040
0.0
1042
0.0015799698758396
1000
SOLID
1070
     0
1011
70.0136537122014
1021
-14.7540192633455
1031
0.0
1002
}
1002
{
1000
UCS
1010
0.0
1020
0.0
1030
0.0
1010
1.0
1020
0.0
1030
0.0
1010
0.0
1020
1.0
1030
0.0
1002
}
  0
ELLIPSE
  5
1CB2
330
1C8A
100
AcDbEntity
  8
0
100
AcDbEllipse
 10
-106.7638987916396
 20
4.957358478318417
 30
0.0
 11
0.0000000000000006
 21
2.562769731459943
 31
0.0
210
0.0
220
0.0
230
1.0
 40
0.8333333333333353
 41
-1.570796326794896
 42
4.712388980384689
  0
HATCH
  5
1CB3
330
1C8A
100
AcDbEntity
  8
AM_8
100
AcDbHatch
 10
0.0
 20
0.0
 30
0.0
210
0.0
220
0.0
230
1.0
  2
SOLID
 70
     1
 71
     0
 91
        1
 92
        1
 93
       10
 72
     1
 10
-106.9502221859465
 20
14.71456568209311
 11
-107.7139711131768
 21
11.16237652835879
 72
     1
 10
-107.7139711131768
 20
11.16237652835879
 11
-107.6697551010108
 21
11.22470827233809
 72
     3
 10
-106.5198686826232
 20
9.133166589319488
 11
0.0200858413762859
 21
2.795177724472421
 40
0.6250197778053525
 50
-29.21280058452436
 51
47.56891328106517
 73
     0
 72
     1
 10
-104.9929922696577
 20
10.5089073790986
 11
-102.6087573837903
 21
3.677672077597827
 72
     3
 10
-101.0818809708247
 20
5.053412867376919
 11
0.0200858413762844
 21
2.79517772447242
 40
0.625019777805353
 50
132.4310867189347
 51
239.202331800838
 73
     1
 72
     1
 10
-99.45177360188809
 20
4.065819878065248
 11
-98.48721298302093
 21
8.077457208786761
 72
     1
 10
-98.48721298302095
 20
8.077457208786752
 11
-98.66382720839393
 21
7.801834007856288
 72
     3
 10
-99.87931293102301
 20
9.796066964505511
 11
0.0200858413762811
 21
2.795177724472416
 40
0.6250197778053536
 50
148.2259629226598
 51
227.5689132810653
 73
     0
 72
     1
 10
-101.4061893439886
 20
8.420326174726406
 11
-103.771619425634
 21
15.19768253871121
 72
     3
 10
-105.2984958385996
 20
13.8219417489321
 11
0.02008584137625
 21
2.795177724472417
 40
0.6250197778053583
 50
-47.56891328106589
 51
62.02409398278944
 73
     1
 97
        0
 75
     0
 76
     1
 98
        1
 10
65.20293740923941
 20
-32.16820874956388
1001
GENIUS_GENODEF_13
1002
{
1000
HIER
1070
     0
1002
}
1002
{
1000
MANEDIT
1070
     0
1002
}
1002
{
1000
NOSEL
1070
     0
1002
}
1002
{
1000
BEHIND
1070
     0
1002
}
1002
{
1000
REACTOR
1002
}
1001
GENIUS_GENOBJ-N-HTC_13
1002
{
1000
OWNER
1000
GEN
1002
}
1001
GENIUS_GENHATCH_13
1002
{
1000
DATA
1040
0.0
1042
0.0015799698758396
1000
SOLID
1070
     0
1011
74.07735655451816
1021
-11.90112763631223
1031
0.0
1002
}
1002
{
1000
UCS
1010
0.0
1020
0.0
1030
0.0
1010
1.0
1020
0.0
1030
0.0
1010
0.0
1020
1.0
1030
0.0
1002
}
  0
LINE
  5
1CB4
330
1C8A
100
AcDbEntity
  8
0
100
AcDbLine
 10
-104.9929922696577
 20
10.5089073790986
 30
0.0
 11
-102.6087573837903
 21
3.677672077597847
 31
0.0
  0
LINE
  5
1CB5
330
1C8A
100
AcDbEntity
  8
0
100
AcDbLine
 10
-101.4061893439886
 20
8.420326174726406
 30
0.0
 11
-103.771619425634
 21
15.1976825387112
 31
0.0
  0
TEXT
  5
1CB6
330
1C8A
100
AcDbEntity
  8
0
100
AcDbText
 10
-92.04358977334541
 20
2.736280326823534
 30
0.0
 40
1.397647058823528
  1
ASOH   CO.LTD
 41
2.222222222222219
  7
ｽﾀｲﾙ1
100
AcDbText
  0
TEXT
  5
1CB7
330
1C8A
100
AcDbEntity
  8
0
100
AcDbText
 10
-96.37601713265375
 20
7.065690057310197
 30
0.0
 40
9.355420606948992
  1
アソー株式会社
 41
0.4444444444444381
  7
ｽﾀｲﾙ1
100
AcDbText
  0
ATTDEF
  5
1CB8
330
1C8A
100
AcDbEntity
  8
AM_BOR
 62
     2
100
AcDbText
 10
-98.50320560717072
 20
20.29902073441097
 30
0.0
 40
3.0
  1
水 田
 72
     4
 11
-94.50320560717072
 21
21.79902073441097
 31
0.0
100
AcDbAttributeDefinition
  3
設計
  2
SEKKEI
 70
     0
  0
ATTDEF
  5
1CB9
330
1C8A
100
AcDbEntity
  8
AM_BOR
 62
     2
100
AcDbText
 10
-97.04186970375872
 20
27.05583171251668
 30
0.0
 40
3.0
  1
樫井
 72
     4
 11
-93.8418697037587
 21
28.55583171251668
 31
0.0
100
AcDbAttributeDefinition
  3
承認
  2
SYOUNIN
 70
     0
  0
ATTDEF
  5
1CBA
330
1C8A
100
AcDbEntity
  8
AM_BOR
 62
     2
100
AcDbText
 10
-72.04186970375871
 20
27.05583171251668
 30
0.0
 40
3.0
  1
樫井
 72
     4
 11
-68.8418697037587
 21
28.55583171251668
 31
0.0
100
AcDbAttributeDefinition
  3
検図
  2
KENZU
 70
     0
  0
ENDBLK
  5
1CBD
330
1C8A
100
AcDbEntity
  8
0
100
AcDbBlockEnd
  0
BLOCK
  5
2218
330
2217
100
AcDbEntity
  8
0
 62
     0
100
AcDbBlockBegin
  2
*D9
 70
     1
 10
0.0
 20
0.0
 30
0.0
  3
*D9
  1

  0
LINE
  5
2219
330
2217
100
AcDbEntity
  8
0
 62
     1
370
     5
100
AcDbLine
 10
165.3962282334899
 20
163.5980764008556
 30
0.0
 11
166.0135334463623
 21
163.6958479415058
 31
0.0
  0
LINE
  5
221A
330
2217
100
AcDbEntity
  8
0
 62
     1
370
     5
100
AcDbLine
 10
166.6477039538118
 20
155.6965696760945
 30
0.0
 11
167.2650091666841
 21
155.7943412167448
 31
0.0
  0
LINE
  5
221B
330
2217
100
AcDbEntity
  8
0
 62
     1
370
     5
100
AcDbLine
 10
165.248226415739
 20
160.5372398384201
 30
0.0
 11
165.5610953458195
 21
158.5618631572299
 31
0.0
  0
SOLID
  5
221C
330
2217
100
AcDbEntity
  8
0
 62
     1
100
AcDbTrace
 10
165.7420705860366
 20
160.6154570709403
 30
0.0
 11
164.7543822454414
 21
160.4590226059
 31
0.0
 12
164.7789230206183
 22
163.5003048602055
 32
0.0
 13
164.7789230206183
 23
163.5003048602055
 33
0.0
  0
SOLID
  5
221D
330
2217
100
AcDbEntity
  8
0
 62
     1
100
AcDbTrace
 10
166.054939516117
 20
158.64008038975
 30
0.0
 11
165.0672511755219
 21
158.4836459247098
 31
0.0
 12
166.0303987409402
 22
155.5987981354445
 32
0.0
 13
166.0303987409402
 23
155.5987981354445
 33
0.0
  0
MTEXT
  5
221E
330
2217
100
AcDbEntity
  8
0
 62
     0
100
AcDbMText
 10
167.5034986045439
 20
159.8819747360355
 30
0.0
 40
3.0
 41
0.0
 71
     5
 72
     1
  1
%%c{\fMS UI Gothic|b0|i0|c0|p17;4}
 11
0.1564344650402309
 21
-0.9876883405951378
 31
0.0
 73
     1
 44
1.0
1001
ACAD
1000
MTEXTBEGIN
1070
    73
1070
     1
1070
    44
1040
1.0
1070
    74
1070
     0
1000
MTEXTEND
  0
POINT
  5
221F
330
2217
100
AcDbEntity
  8
Defpoints
 62
     0
100
AcDbPoint
 10
164.7789230206179
 20
163.5003048602055
 30
0.0
  0
POINT
  5
2220
330
2217
100
AcDbEntity
  8
Defpoints
 62
     0
100
AcDbPoint
 10
166.0303987409398
 20
155.5987981354444
 30
0.0
  0
POINT
  5
2221
330
2217
100
AcDbEntity
  8
Defpoints
 62
     0
100
AcDbPoint
 10
166.0303987409402
 20
155.5987981354445
 30
0.0
  0
ENDBLK
  5
2222
330
2217
100
AcDbEntity
  8
0
 62
     0
100
AcDbBlockEnd
  0
BLOCK
  5
224F
330
2223
100
AcDbEntity
  8
0
100
AcDbBlockBegin
  2
A$C75206A3A
 70
     0
 10
0.0
 20
0.0
 30
0.0
  3
A$C75206A3A
  1

  0
ARC
  5
2224
330
2223
100
AcDbEntity
  8
0
 62
     1
370
     5
100
AcDbCircle
 10
-52.99999999999994
 20
-0.0000000000000853
 30
0.0
 40
14.84788965049511
100
AcDbArc
 50
336.8073346070382
 51
348.4036673035199
  0
LINE
  5
2225
330
2223
100
AcDbEntity
  8
0
 62
     0
100
AcDbLine
 10
-50.99999999999997
 20
-5.000000000000056
 30
0.0
 11
-49.66025403784434
 21
-0.0000000000000568
 31
0.0
  0
LINE
  5
2226
330
2223
100
AcDbEntity
  8
0
 62
     0
100
AcDbLine
 10
-51.0
 20
4.999999999999914
 30
0.0
 11
-50.99999999999994
 21
-5.000000000000056
 31
0.0
  0
LINE
  5
2227
330
2223
100
AcDbEntity
  8
0
 62
     0
100
AcDbLine
 10
-52.99999999999997
 20
5.999999999999943
 30
0.0
 11
-53.0
 21
-6.000000000000056
 31
0.0
  0
LINE
  5
2228
330
2223
100
AcDbEntity
  8
0
 62
     0
100
AcDbLine
 10
-26.99999999999997
 20
-11.11200000000005
 30
0.0
 11
-42.88799999999994
 21
-11.11200000000008
 31
0.0
  0
LINE
  5
2229
330
2223
100
AcDbEntity
  8
0
100
AcDbLine
 10
-44.26199999999997
 20
-9.738000000000084
 30
0.0
 11
-30.00000000000006
 21
-9.738000000000084
 31
0.0
  0
LINE
  5
222A
330
2223
100
AcDbEntity
  8
0
100
AcDbLine
 10
-50.00000000000003
 20
-9.000000000000085
 30
0.0
 11
-44.99999999999992
 21
-9.000000000000113
 31
0.0
  0
LINE
  5
222B
330
2223
100
AcDbEntity
  8
0
 62
     0
100
AcDbLine
 10
-52.99999999999997
 20
-6.000000000000056
 30
0.0
 11
-50.00000000000003
 21
-9.000000000000085
 31
0.0
  0
LINE
  5
222C
330
2223
100
AcDbEntity
  8
0
 62
     0
100
AcDbLine
 10
-52.99999999999997
 20
-5.000000000000056
 30
0.0
 11
-50.99999999999997
 21
-5.000000000000056
 31
0.0
  0
LINE
  5
222D
330
2223
100
AcDbEntity
  8
0
 62
     0
100
AcDbLine
 10
-45.0
 20
-9.000000000000028
 30
0.0
 11
-42.88799999999994
 21
-11.11200000000008
 31
0.0
  0
LINE
  5
222E
330
2223
100
AcDbEntity
  8
0
 62
     0
100
AcDbLine
 10
-42.88799999999994
 20
-11.11200000000008
 30
0.0
 11
-42.88799999999994
 21
-9.738000000000113
 31
0.0
  0
LINE
  5
222F
330
2223
100
AcDbEntity
  8
0
 62
     0
100
AcDbLine
 10
-30.00000000000006
 20
-9.738000000000084
 30
0.0
 11
-26.99999999999997
 21
-11.11200000000005
 31
0.0
  0
LINE
  5
2230
330
2223
100
AcDbEntity
  8
0
 62
     0
100
AcDbLine
 10
-30.00000000000006
 20
-9.738000000000056
 30
0.0
 11
-29.99999999999997
 21
-11.11200000000005
 31
0.0
  0
LINE
  5
2231
330
2223
100
AcDbEntity
  8
0
 62
     0
100
AcDbLine
 10
-27.0
 20
-11.11200000000002
 30
0.0
 11
-26.99999999999997
 21
-14.50000000000005
 31
0.0
  0
LINE
  5
2232
330
2223
100
AcDbEntity
  8
0
 62
     0
100
AcDbLine
 10
-26.99999999999997
 20
11.11199999999993
 30
0.0
 11
-42.88799999999994
 21
11.11199999999996
 31
0.0
  0
LINE
  5
2233
330
2223
100
AcDbEntity
  8
0
100
AcDbLine
 10
-44.26199999999997
 20
9.737999999999971
 30
0.0
 11
-30.00000000000006
 21
9.737999999999971
 31
0.0
  0
MTEXT
  5
2234
330
2223
100
AcDbEntity
  8
0
 62
     0
100
AcDbMText
 10
-35.84545978432942
 20
3.978914931605544
 30
0.0
 40
3.0
 41
0.0
 71
     5
 72
     1
  1
9\U+00B0
 11
0.2871331697209103
 21
-0.9578906737441506
 31
0.0
 73
     1
 44
1.0
1001
ACAD
1000
MTEXTBEGIN
1070
    73
1070
     1
1070
    44
1040
1.0
1070
    74
1070
     0
1000
MTEXTEND
  0
LINE
  5
2235
330
2223
100
AcDbEntity
  8
0
 62
     1
370
     5
100
AcDbLine
 10
-53.0
 20
6.837479487260281
 30
0.0
 11
-53.00000000000034
 21
15.98473294044711
 31
0.0
  0
LINE
  5
2236
330
2223
100
AcDbEntity
  8
0
 62
     0
100
AcDbLine
 10
-52.99999999999997
 20
5.999999999999943
 30
0.0
 11
-50.00000000000003
 21
8.999999999999971
 31
0.0
  0
ARC
  5
2237
330
2223
100
AcDbEntity
  8
0
 62
     1
370
     5
100
AcDbCircle
 10
-52.99999999999994
 20
-0.0000000000000853
 30
0.0
 40
14.84788965049511
100
AcDbArc
 50
20.59633269647966
 51
32.19266539296188
  0
LINE
  5
2238
330
2223
100
AcDbEntity
  8
0
 62
     0
100
AcDbLine
 10
-50.99999999999997
 20
4.999999999999943
 30
0.0
 11
-49.66025403784437
 21
-0.0000000000000284
 31
0.0
  0
LINE
  5
2239
330
2223
100
AcDbEntity
  8
0
 62
     0
100
AcDbLine
 10
-50.36566311889791
 20
-3.632622530612451
 30
0.0
 11
-50.64548778556687
 21
-3.676942403831844
 31
0.0
  0
LINE
  5
223A
330
2223
100
AcDbEntity
  8
0
 62
     0
370
     0
100
AcDbLine
 10
-52.99999999999997
 20
5.999999999999943
 30
0.0
 11
-52.99999999999997
 21
6.212479487260281
 31
0.0
  0
LINE
  5
223B
330
2223
100
AcDbEntity
  8
0
 62
     0
100
AcDbLine
 10
-50.58015735717916
 20
4.433125925808582
 30
0.0
 11
-50.83719800591925
 21
4.392414686517213
 31
0.0
  0
LINE
  5
223C
330
2223
100
AcDbEntity
  8
0
 62
     0
100
AcDbLine
 10
-52.99999999999997
 20
4.999999999999943
 30
0.0
 11
-50.99999999999997
 21
4.999999999999943
 31
0.0
  0
ARC
  5
223D
330
2223
100
AcDbEntity
  8
0
 62
     1
370
     5
100
AcDbCircle
 10
-52.99999999999994
 20
-0.0000000000000853
 30
0.0
 40
14.84788965049511
100
AcDbArc
 50
0.0
 51
9.00000000000031
  0
SOLID
  5
223E
330
2223
100
AcDbEntity
  8
0
 62
     1
370
     0
100
AcDbTrace
 10
-38.952625693844
 20
-2.934139598498717
 30
0.0
 11
-37.95774175139368
 21
-3.035164056203342
 31
0.0
 12
-38.15211034950483
 22
-0.0000000000000853
 32
0.0
 13
-38.15211034950483
 23
-0.0000000000000853
 33
0.0
  0
SOLID
  5
223F
330
2223
100
AcDbEntity
  8
0
 62
     1
370
     0
100
AcDbTrace
 10
-38.61774117707202
 20
5.350923772223069
 30
0.0
 11
-39.5845727402785
 21
5.095508955918887
 31
0.0
 12
-38.33491250976272
 22
2.322721674451514
 32
0.0
 13
-38.33491250976272
 23
2.322721674451514
 33
0.0
  0
LINE
  5
2240
330
2223
100
AcDbEntity
  8
0
100
AcDbLine
 10
-50.00000000000003
 20
8.999999999999971
 30
0.0
 11
-44.99999999999992
 21
9.0
 31
0.0
  0
SOLID
  5
2241
330
2223
100
AcDbEntity
  8
0
 62
     1
370
     0
100
AcDbTrace
 10
-48.9901223833695
 20
14.31092136857799
 30
0.0
 11
-49.56529446822315
 21
13.49288892863134
 31
0.0
 12
-46.8236111059563
 22
12.17638889404372
 32
0.0
 13
-46.8236111059563
 23
12.17638889404372
 33
0.0
  0
LINE
  5
2242
330
2223
100
AcDbEntity
  8
0
 62
     1
370
     5
100
AcDbLine
 10
-49.55805826175842
 20
9.441941738241553
 30
0.0
 11
-45.93972762947311
 21
13.06027237052691
 31
0.0
  0
ARC
  5
2243
330
2223
100
AcDbEntity
  8
0
 62
     1
370
     5
100
AcDbCircle
 10
-52.99999999999997
 20
5.999999999999943
 30
0.0
 40
8.734732940447173
100
AcDbArc
 50
64.77663141394683
 51
70.22336858605509
  0
SOLID
  5
2244
330
2223
100
AcDbEntity
  8
0
 62
     1
370
     0
100
AcDbTrace
 10
-50.13043100078582
 20
13.72697614501126
 30
0.0
 11
-49.95870279681821
 21
14.71212051207735
 31
0.0
 12
-53.00000000000029
 22
14.73473294044711
 32
0.0
 13
-53.00000000000029
 23
14.73473294044711
 33
0.0
  0
LINE
  5
2245
330
2223
100
AcDbEntity
  8
0
 62
     1
370
     5
100
AcDbLine
 10
-41.55805826175845
 20
12.44194173824152
 30
0.0
 11
-37.93972762947314
 21
16.06027237052689
 31
0.0
  0
LINE
  5
2246
330
2223
100
AcDbEntity
  8
0
 62
     0
370
     0
100
AcDbLine
 10
-45.0
 20
8.999999999999914
 30
0.0
 11
-45.0
 21
9.180746679308015
 31
0.0
  0
LINE
  5
2247
330
2223
100
AcDbEntity
  8
0
 62
     0
100
AcDbLine
 10
-42.88799999999994
 20
11.11199999999996
 30
0.0
 11
-42.88799999999994
 21
9.737999999999999
 31
0.0
  0
LINE
  5
2248
330
2223
100
AcDbEntity
  8
0
 62
     0
100
AcDbLine
 10
-45.0
 20
8.999999999999914
 30
0.0
 11
-42.88799999999994
 21
11.11199999999996
 31
0.0
  0
DIMENSION
  5
2249
330
2223
100
AcDbEntity
  8
0
 62
     0
100
AcDbDimension
  2
*D9
 10
-27.76112328263776
 20
0.3644996623770851
 30
0.0
 11
-26.28802341903401
 21
4.647676262968133
 31
0.0
 12
-193.7915220235779
 22
-155.2342984730674
 32
0.0
 70
     1
  1
%%c{\fMS UI Gothic|b0|i0|c0|p17;4}
 71
     5
 42
8.0
  3
ISO-25
100
AcDbAlignedDimension
 13
-29.01259900296
 23
8.266006387138105
 33
0.0
 14
-27.76112328263816
 24
0.3644996623769998
 34
0.0
  0
LINE
  5
224A
330
2223
100
AcDbEntity
  8
0
 62
     0
100
AcDbLine
 10
-30.00000000000006
 20
9.737999999999971
 30
0.0
 11
-26.99999999999997
 21
11.11199999999993
 31
0.0
  0
LINE
  5
224B
330
2223
100
AcDbEntity
  8
0
 62
     0
100
AcDbLine
 10
-30.00000000000006
 20
9.737999999999942
 30
0.0
 11
-29.99999999999997
 21
11.11199999999993
 31
0.0
  0
LINE
  5
224C
330
2223
100
AcDbEntity
  8
0
 62
     0
100
AcDbLine
 10
-26.99999999999997
 20
11.11199999999993
 30
0.0
 11
-26.99999999999997
 21
14.5
 31
0.0
  0
LINE
  5
224D
330
2223
100
AcDbEntity
  8
0
 62
     0
100
AcDbLine
 10
-50.83719800591925
 20
4.392414686517213
 30
0.0
 11
-7.188000000000016
 21
12.13959808775914
 31
0.0
  0
LINE
  5
224E
330
2223
100
AcDbEntity
  8
0
 62
     0
100
AcDbLine
 10
-50.64548778556684
 20
-3.676942403831844
 30
0.0
 11
-7.188000000000016
 21
4.016185192673219
 31
0.0
  0
ENDBLK
  5
2250
330
2223
100
AcDbEntity
  8
0
100
AcDbBlockEnd
  0
BLOCK
  5
28E4
330
2896
100
AcDbEntity
  8
0
100
AcDbBlockBegin
  2
A$C0B1C3336
 70
     0
 10
0.0
 20
0.0
 30
0.0
  3
A$C0B1C3336
  1

  0
LINE
  5
2897
330
2896
100
AcDbEntity
  8
0
 62
     0
100
AcDbLine
 10
6.458500000028379
 20
15.40125853865328
 30
0.0
 11
7.000000000030695
 21
15.40125853861667
 31
0.0
  0
LINE
  5
2898
330
2896
100
AcDbEntity
  8
0
 62
     0
100
AcDbLine
 10
0.0
 20
24.50000000021254
 30
0.0
 11
-7.999999999234944
 21
24.50000000021248
 31
0.0
  0
LINE
  5
2899
330
2896
100
AcDbEntity
  8
0
 62
     0
100
AcDbLine
 10
-7.999999999234944
 20
18.57735026996846
 30
0.0
 11
-8.5
 21
18.86602540500502
 31
0.0
  0
LINE
  5
289A
330
2896
100
AcDbEntity
  8
0
 62
     0
100
AcDbLine
 10
-7.999999999234944
 20
18.57735026996846
 30
0.0
 11
-7.999999999234944
 21
16.50000000097742
 31
0.0
  0
LINE
  5
289B
330
2896
100
AcDbEntity
  8
0
 62
     0
100
AcDbLine
 10
-7.999999999234944
 20
16.50000000097742
 30
0.0
 11
0.0
 21
16.50000000017718
 31
0.0
  0
ARC
  5
289C
330
2896
100
AcDbEntity
  8
0
 62
     0
100
AcDbCircle
 10
-6.49999999937836
 20
13.95788286669057
 30
0.0
 40
0.9999999999043879
100
AcDbArc
 50
0.0
 51
59.99999999999946
  0
LINE
  5
289D
330
2896
100
AcDbEntity
  8
0
 62
     0
100
AcDbLine
 10
6.000000000026318
 20
14.82390826942452
 30
0.0
 11
7.000000000030695
 21
15.40125853861667
 31
0.0
  0
LINE
  5
289E
330
2896
100
AcDbEntity
  8
0
 62
     0
100
AcDbLine
 10
8.000000000035129
 20
16.50000000017741
 30
0.0
 11
0.0
 21
16.50000000017718
 31
0.0
  0
LINE
  5
289F
330
2896
100
AcDbEntity
  8
0
 62
     0
100
AcDbLine
 10
8.000000000035129
 20
18.5773502693761
 30
0.0
 11
8.000000000035129
 21
16.50000000017741
 31
0.0
  0
ARC
  5
28A0
330
2896
100
AcDbEntity
  8
0
 62
     0
100
AcDbCircle
 10
6.500000000028535
 20
13.95788286563623
 30
0.0
 40
1.000000000004388
100
AcDbArc
 50
120.0000000000005
 51
180.0
  0
LINE
  5
28A1
330
2896
100
AcDbEntity
  8
0
 62
     0
100
AcDbLine
 10
7.999999999234944
 20
24.50000000021248
 30
0.0
 11
0.0
 21
24.50000000021254
 31
0.0
  0
LINE
  5
28A2
330
2896
100
AcDbEntity
  8
AM_0
100
AcDbLine
 10
-2.999999999999943
 20
29.63130645136329
 30
0.0
 11
-2.999999999999829
 21
24.50000000021254
 31
0.0
  0
LINE
  5
28A3
330
2896
100
AcDbEntity
  8
AM_0
100
AcDbLine
 10
3.0
 20
29.63130645136329
 30
0.0
 11
3.000000000000056
 21
24.50000000021254
 31
0.0
  0
ARC
  5
28A4
330
2896
100
AcDbEntity
  8
AM_0
100
AcDbCircle
 10
-0.0000000000000568
 20
38.9507915776191
 30
0.0
 40
3.182186574793173
100
AcDbArc
 50
21.77582284696156
 51
158.2241771530348
  0
LINE
  5
28A5
330
2896
100
AcDbEntity
  8
AM_0
100
AcDbLine
 10
2.955113539216654
 20
40.13130645136363
 30
0.0
 11
2.955113539216711
 21
31.13130645136363
 31
0.0
  0
LINE
  5
28A6
330
2896
100
AcDbEntity
  8
AM_0
100
AcDbLine
 10
-2.955113539216768
 20
40.13130645136345
 30
0.0
 11
-2.955113539216711
 21
31.13130645136363
 31
0.0
  0
ARC
  5
28A7
330
2896
100
AcDbEntity
  8
AM_0
100
AcDbCircle
 10
-10.50000000000006
 20
40.13130645136363
 30
0.0
 40
2.0
100
AcDbArc
 50
90.0
 51
180.0
1001
GENIUS_GENODEF_13
1002
{
1000
HIER
1070
     0
1002
}
1002
{
1000
MANEDIT
1070
     0
1002
}
1002
{
1000
NOSEL
1070
     0
1002
}
1002
{
1000
BEHIND
1070
     0
1002
}
1002
{
1000
REACTOR
1002
}
1001
GENIUS_GENOBJ-N-FIL_13
1002
{
1000
OWNER
1000
GEN
1002
}
  0
LINE
  5
28A8
330
2896
100
AcDbEntity
  8
AM_0
100
AcDbLine
 10
-10.50000000000006
 20
42.13130645136362
 30
0.0
 11
0.0
 21
42.13130645136362
 31
0.0
  0
LINE
  5
28A9
330
2896
100
AcDbEntity
  8
AM_0
100
AcDbLine
 10
-10.50000000000045
 20
30.13130645136329
 30
0.0
 11
0.0
 21
30.13130645136329
 31
0.0
  0
LINE
  5
28AA
330
2896
100
AcDbEntity
  8
AM_0
100
AcDbLine
 10
-12.49999999999994
 20
31.13130645136329
 30
0.0
 11
0.0
 21
31.13130645136363
 31
0.0
  0
LINE
  5
28AB
330
2896
100
AcDbEntity
  8
AM_0
100
AcDbLine
 10
-10.50000000000045
 20
31.13130645136329
 30
0.0
 11
-10.50000000000045
 21
30.13130645136329
 31
0.0
  0
LINE
  5
28AC
330
2896
100
AcDbEntity
  8
AM_0
100
AcDbLine
 10
-12.50000000000005
 20
40.13130645136363
 30
0.0
 11
-12.49999999999994
 21
31.13130645136363
 31
0.0
  0
LINE
  5
28AD
330
2896
100
AcDbEntity
  8
AM_0
100
AcDbLine
 10
-10.50000000000006
 20
44.13130645136362
 30
0.0
 11
10.5
 21
44.13130645136362
 31
0.0
  0
LINE
  5
28AE
330
2896
100
AcDbEntity
  8
AM_0
100
AcDbLine
 10
-10.50000000000006
 20
42.13130645136362
 30
0.0
 11
-10.50000000000006
 21
44.13130645136362
 31
0.0
  0
LINE
  5
28AF
330
2896
100
AcDbEntity
  8
AM_0
100
AcDbLine
 10
-2.5
 20
30.13130645136329
 30
0.0
 11
-3.0
 21
29.63130645136329
 31
0.0
1001
GENIUS_GENFIL_13
1070
     0
1040
0.5
1040
0.5
1040
0.5
1040
45.0000000000002
1000
~T
1001
GENIUS_GENOREF_13
1005
28E1
  0
LINE
  5
28B0
330
2896
100
AcDbEntity
  8
AM_0
100
AcDbLine
 10
-3.0
 20
29.63130645136329
 30
0.0
 11
3.000000000000056
 21
29.63130645136329
 31
0.0
  0
ARC
  5
28B1
330
2896
100
AcDbEntity
  8
AM_0
100
AcDbCircle
 10
10.50000000000068
 20
40.1313064513642
 30
0.0
 40
2.0
100
AcDbArc
 50
0.0000000000032569
 51
90.00000000000325
1001
GENIUS_GENODEF_13
1002
{
1000
HIER
1070
     0
1002
}
1002
{
1000
MANEDIT
1070
     0
1002
}
1002
{
1000
NOSEL
1070
     0
1002
}
1002
{
1000
BEHIND
1070
     0
1002
}
1002
{
1000
REACTOR
1002
}
1001
GENIUS_GENOBJ-N-FIL_13
1002
{
1000
OWNER
1000
GEN
1002
}
  0
LINE
  5
28B2
330
2896
100
AcDbEntity
  8
AM_0
100
AcDbLine
 10
10.50000000000057
 20
42.13130645136419
 30
0.0
 11
0.0000000000005116
 21
42.13130645136362
 31
0.0
  0
LINE
  5
28B3
330
2896
100
AcDbEntity
  8
AM_0
100
AcDbLine
 10
10.50000000000165
 20
30.13130645136385
 30
0.0
 11
0.0000000000011937
 21
30.13130645136329
 31
0.0
  0
LINE
  5
28B4
330
2896
100
AcDbEntity
  8
AM_0
100
AcDbLine
 10
12.50000000000108
 20
31.13130645136397
 30
0.0
 11
0.0000000000011369
 21
31.13130645136363
 31
0.0
  0
LINE
  5
28B5
330
2896
100
AcDbEntity
  8
AM_0
100
AcDbLine
 10
10.50000000000159
 20
31.13130645136386
 30
0.0
 11
10.50000000000165
 21
30.13130645136385
 31
0.0
  0
LINE
  5
28B6
330
2896
100
AcDbEntity
  8
AM_0
100
AcDbLine
 10
12.50000000000068
 20
40.1313064513643
 30
0.0
 11
12.50000000000108
 21
31.13130645136431
 31
0.0
  0
LINE
  5
28B7
330
2896
100
AcDbEntity
  8
AM_0
100
AcDbLine
 10
10.50000000000057
 20
42.13130645136419
 30
0.0
 11
10.50000000000045
 21
44.13130645136419
 31
0.0
  0
LINE
  5
28B8
330
2896
100
AcDbEntity
  8
AM_0
100
AcDbLine
 10
2.500000000001193
 20
30.13130645136346
 30
0.0
 11
3.000000000001193
 21
29.63130645136351
 31
0.0
1001
GENIUS_GENFIL_13
1070
     0
1040
0.5
1040
0.5
1040
0.5
1040
45.0000000000002
1000
~T
1001
GENIUS_GENOREF_13
1005
28E0
  0
LINE
  5
28B9
330
2896
100
AcDbEntity
  8
AM_0
100
AcDbLine
 10
3.000000000001193
 20
29.63130645136351
 30
0.0
 11
-2.999999999998863
 21
29.63130645136306
 31
0.0
  0
LINE
  5
28BA
330
2896
100
AcDbEntity
  8
AM_4
100
AcDbLine
 10
6.458500000028493
 20
16.50000000017729
 30
0.0
 11
6.458500000028493
 21
15.08862336784886
 31
0.0
  0
LINE
  5
28BB
330
2896
100
AcDbEntity
  8
0
 62
     0
100
AcDbLine
 10
7.000000000030809
 20
16.50000000017735
 30
0.0
 11
7.000000000030865
 21
15.40125853861644
 31
0.0
  0
LINE
  5
28BC
330
2896
100
AcDbEntity
  8
0
 62
     0
100
AcDbLine
 10
6.458500000028493
 20
15.40125853865305
 30
0.0
 11
7.000000000030865
 21
15.40125853861644
 31
0.0
  0
LINE
  5
28BD
330
2896
100
AcDbEntity
  8
AM_0
100
AcDbLine
 10
6.458500000028493
 20
15.40125853865305
 30
0.0
 11
0.0
 21
15.40125853908995
 31
0.0
  0
LINE
  5
28BE
330
2896
100
AcDbEntity
  8
AM_0
100
AcDbLine
 10
8.000000000035129
 20
18.5773502693761
 30
0.0
 11
-7.999999999234944
 21
18.57735026996846
 31
0.0
  0
LINE
  5
28BF
330
2896
100
AcDbEntity
  8
0
 62
     0
100
AcDbLine
 10
-6.458499999657988
 20
15.40125853952719
 30
0.0
 11
-6.999999999660303
 21
15.4012585395638
 31
0.0
  0
LINE
  5
28C0
330
2896
100
AcDbEntity
  8
AM_4
100
AcDbLine
 10
-6.458499999509399
 20
16.5000000010512
 30
0.0
 11
-6.458499999700393
 21
15.08862336872272
 31
0.0
  0
LINE
  5
28C1
330
2896
100
AcDbEntity
  8
0
 62
     0
100
AcDbLine
 10
-6.999999999511771
 20
16.50000000112448
 30
0.0
 11
-6.999999999660417
 21
15.40125853956357
 31
0.0
  0
LINE
  5
28C2
330
2896
100
AcDbEntity
  8
0
 62
     0
100
AcDbLine
 10
-6.458499999658101
 20
15.4012585395269
 30
0.0
 11
-6.999999999660417
 21
15.40125853956357
 31
0.0
  0
LINE
  5
28C3
330
2896
100
AcDbEntity
  8
AM_0
100
AcDbLine
 10
-6.458499999658101
 20
15.4012585395269
 30
0.0
 11
0.0000000003703917
 21
15.40125853908995
 31
0.0
  0
LINE
  5
28C4
330
2896
100
AcDbEntity
  8
0
 62
     0
100
AcDbLine
 10
-6.000000000534214
 20
14.82390827023647
 30
0.0
 11
-7.000000000460545
 21
15.40125853956397
 31
0.0
  0
LINE
  5
28C5
330
2896
100
AcDbEntity
  8
AM_0
100
AcDbLine
 10
-5.499999999473971
 20
13.95788286666141
 30
0.0
 11
5.500000000024101
 21
13.95788286563623
 31
0.0
  0
LINE
  5
28C6
330
2896
100
AcDbEntity
  8
AM_0
100
AcDbLine
 10
-8.5
 20
24.06698729836165
 30
0.0
 11
-7.999999999234944
 21
24.50000000021248
 31
0.0
  0
ARC
  5
28C7
330
2896
100
AcDbEntity
  8
AM_0
100
AcDbCircle
 10
-4.250000000029615
 20
11.92529293289618
 30
0.0
 40
12.57470706731631
100
AcDbArc
 50
74.92028252247211
 51
105.0797174772482
  0
LINE
  5
28C8
330
2896
100
AcDbEntity
  8
AM_0
100
AcDbLine
 10
-0.978530029987894
 20
24.06698729834329
 30
0.0
 11
0.9785300299878372
 21
24.06698729834329
 31
0.0
  0
LINE
  5
28C9
330
2896
100
AcDbEntity
  8
AM_0
100
AcDbLine
 10
-0.9785300299879509
 20
19.29903810574279
 30
0.0
 11
-0.978530029987894
 21
24.06698729834329
 31
0.0
  0
LINE
  5
28CA
330
2896
100
AcDbEntity
  8
AM_0
100
AcDbLine
 10
0.9785300302071391
 20
19.29903810574279
 30
0.0
 11
0.9785300302071391
 21
24.06698729834329
 31
0.0
  0
LINE
  5
28CB
330
2896
100
AcDbEntity
  8
AM_0
100
AcDbLine
 10
-7.521469970012105
 20
24.06698729835927
 30
0.0
 11
-8.5
 21
24.06698729835927
 31
0.0
  0
LINE
  5
28CC
330
2896
100
AcDbEntity
  8
AM_0
100
AcDbLine
 10
-7.521469970012049
 20
24.06698729835927
 30
0.0
 11
-7.521469970188547
 21
19.29903810572682
 31
0.0
  0
LINE
  5
28CD
330
2896
100
AcDbEntity
  8
AM_0
100
AcDbLine
 10
-8.5
 20
24.06698729835927
 30
0.0
 11
-8.5
 21
18.86602540500502
 31
0.0
  0
ARC
  5
28CE
330
2896
100
AcDbEntity
  8
AM_0
100
AcDbCircle
 10
-4.250000000029615
 20
31.44073247118991
 30
0.0
 40
12.57470706731631
100
AcDbArc
 50
254.9202825227518
 51
285.079717477528
  0
LINE
  5
28CF
330
2896
100
AcDbEntity
  8
AM_0
100
AcDbLine
 10
-7.521469970012105
 20
19.29903810572682
 30
0.0
 11
-8.5
 21
19.29903810572682
 31
0.0
  0
LINE
  5
28D0
330
2896
100
AcDbEntity
  8
AM_0
100
AcDbLine
 10
-0.9785300299879509
 20
19.29903810574279
 30
0.0
 11
0.9785300302071391
 21
19.29903810574279
 31
0.0
  0
ARC
  5
28D1
330
2896
100
AcDbEntity
  8
AM_0
100
AcDbCircle
 10
4.249999999098633
 20
11.9252929325815
 30
0.0
 40
12.57470706731631
100
AcDbArc
 50
74.92028251850687
 51
105.079717473283
  0
LINE
  5
28D2
330
2896
100
AcDbEntity
  8
AM_0
100
AcDbLine
 10
7.521469969980046
 20
24.06698729780243
 30
0.0
 11
8.49999999996794
 21
24.06698729772995
 31
0.0
  0
LINE
  5
28D3
330
2896
100
AcDbEntity
  8
AM_0
100
AcDbLine
 10
7.521469969979989
 20
24.06698729780243
 30
0.0
 11
7.52146996980349
 21
19.29903810516993
 31
0.0
  0
ARC
  5
28D4
330
2896
100
AcDbEntity
  8
AM_0
100
AcDbCircle
 10
4.250000000543479
 20
31.44073247087528
 30
0.0
 40
12.57470706731631
100
AcDbArc
 50
254.9202825182303
 51
285.0797174730065
  0
LINE
  5
28D5
330
2896
100
AcDbEntity
  8
AM_0
100
AcDbLine
 10
7.521469969627048
 20
19.29903810516993
 30
0.0
 11
8.499999999614942
 21
19.29903810509751
 31
0.0
  0
LINE
  5
28D6
330
2896
100
AcDbEntity
  8
0
 62
     0
100
AcDbLine
 10
7.999999999234944
 20
18.57735026996846
 30
0.0
 11
8.5
 21
18.86602540500502
 31
0.0
  0
LINE
  5
28D7
330
2896
100
AcDbEntity
  8
AM_0
100
AcDbLine
 10
8.5
 20
24.06698729836165
 30
0.0
 11
7.999999999234944
 21
24.50000000021248
 31
0.0
  0
LINE
  5
28D8
330
2896
100
AcDbEntity
  8
AM_0
100
AcDbLine
 10
8.5
 20
24.06698729835927
 30
0.0
 11
8.5
 21
18.86602540500502
 31
0.0
  0
LINE
  5
28D9
330
2896
100
AcDbEntity
  8
AM_0
100
AcDbLine
 10
-4.697025436009823
 20
40.13130645136363
 30
0.0
 11
-4.697025436009823
 21
31.13130645136346
 31
0.0
  0
LINE
  5
28DA
330
2896
100
AcDbEntity
  8
AM_0
100
AcDbLine
 10
-9.47849958307745
 20
40.13130645136363
 30
0.0
 11
-9.47849958307745
 21
31.13130645136334
 31
0.0
  0
LINE
  5
28DB
330
2896
100
AcDbEntity
  8
AM_0
100
AcDbLine
 10
-4.697025436009823
 20
42.13130645136362
 30
0.0
 11
-9.47849958307745
 21
42.13130645136362
 31
0.0
  0
ARC
  5
28DC
330
2896
100
AcDbEntity
  8
AM_0
100
AcDbCircle
 10
-7.087762509543608
 20
39.70240051267138
 30
0.0
 40
2.428905938692222
100
AcDbArc
 50
10.17085060932878
 51
169.8291493906712
  0
LINE
  5
28DD
330
2896
100
AcDbEntity
  8
AM_0
100
AcDbLine
 10
4.697025436009823
 20
40.13130645136363
 30
0.0
 11
4.697025436009823
 21
31.13130645136346
 31
0.0
  0
LINE
  5
28DE
330
2896
100
AcDbEntity
  8
AM_0
100
AcDbLine
 10
9.47849958307745
 20
40.13130645136363
 30
0.0
 11
9.47849958307745
 21
31.13130645136334
 31
0.0
  0
ARC
  5
28DF
330
2896
100
AcDbEntity
  8
AM_0
100
AcDbCircle
 10
7.087762509543608
 20
39.70240051267138
 30
0.0
 40
2.428905938692222
100
AcDbArc
 50
10.17085060933199
 51
169.829149390668
  0
POINT
  5
28E0
330
2896
100
AcDbEntity
  8
0
 60
     1
100
AcDbPoint
 10
-296.1081721260948
 20
-201.960510781175
 30
0.0
 50
180.0000000000031
1001
GENIUS_GENOENT_13
1002
{
1000
MYREF
1005
28E0
1002
}
1002
{
1000
GRP
1005
0
1002
}
1001
GENIUS_GENOBJ-N-CHA_13
1002
{
1000
OWNER
1000
GEN
1002
}
1001
GENIUS_GENODEF_13
1002
{
1000
HIER
1070
     1
1002
}
1002
{
1000
MANEDIT
1070
     0
1002
}
1002
{
1000
NOSEL
1070
     0
1002
}
1002
{
1000
BEHIND
1070
     0
1002
}
1002
{
1000
OTHER
1070
     0
1002
}
1002
{
1000
REACTOR
1002
}
1001
GENIUS_GENOLIS_13
1002
{
1000
ENT
1005
28B8
1002
}
  0
POINT
  5
28E1
330
2896
100
AcDbEntity
  8
0
 60
     1
100
AcDbPoint
 10
273.6540256295977
 20
-201.9605107811594
 30
0.0
1001
GENIUS_GENOENT_13
1002
{
1000
MYREF
1005
28E1
1002
}
1002
{
1000
GRP
1005
0
1002
}
1001
GENIUS_GENOBJ-N-CHA_13
1002
{
1000
OWNER
1000
GEN
1002
}
1001
GENIUS_GENODEF_13
1002
{
1000
HIER
1070
     1
1002
}
1002
{
1000
MANEDIT
1070
     0
1002
}
1002
{
1000
NOSEL
1070
     0
1002
}
1002
{
1000
BEHIND
1070
     0
1002
}
1002
{
1000
OTHER
1070
     0
1002
}
1002
{
1000
REACTOR
1002
}
1001
GENIUS_GENOLIS_13
1002
{
1000
ENT
1005
28AF
1002
}
  0
ENDBLK
  5
28E5
330
2896
100
AcDbEntity
  8
0
100
AcDbBlockEnd
  0
BLOCK
  5
307C
330
306C
100
AcDbEntity
  8
0
100
AcDbBlockBegin
  2
A$C7A7C7714
 70
     0
 10
0.0
 20
0.0
 30
0.0
  3
A$C7A7C7714
  1

  0
ARC
  5
306D
330
306C
100
AcDbEntity
  8
AM_0
100
AcDbCircle
 10
-6.633249580710753
 20
10.0
 30
0.0
 40
5.0
100
AcDbArc
 50
270.0
 51
303.5573097619216
  0
LINE
  5
306E
330
306C
100
AcDbEntity
  8
AM_0
100
AcDbLine
 10
-7.0
 20
0.0
 30
0.0
 11
-7.0
 21
5.0
 31
0.0
  0
LINE
  5
306F
330
306C
100
AcDbEntity
  8
AM_0
100
AcDbLine
 10
-7.0
 20
5.0
 30
0.0
 11
-6.633249580710753
 21
5.0
 31
0.0
  0
ARC
  5
3070
330
306C
100
AcDbEntity
  8
AM_0
100
AcDbCircle
 10
6.633249580710753
 20
10.0
 30
0.0
 40
5.0
100
AcDbArc
 50
236.4426902380816
 51
270.0
  0
LINE
  5
3071
330
306C
100
AcDbEntity
  8
AM_0
100
AcDbLine
 10
7.0
 20
0.0
 30
0.0
 11
7.0
 21
5.0
 31
0.0
  0
LINE
  5
3072
330
306C
100
AcDbEntity
  8
AM_0
100
AcDbLine
 10
7.0
 20
5.0
 30
0.0
 11
6.633249580710753
 21
5.0
 31
0.0
  0
ARC
  5
3073
330
306C
100
AcDbEntity
  8
AM_0
100
AcDbCircle
 10
-6.633249580710753
 20
-10.0
 30
0.0
 40
5.0
100
AcDbArc
 50
56.44269023808156
 51
90.0
  0
LINE
  5
3074
330
306C
100
AcDbEntity
  8
AM_0
100
AcDbLine
 10
-7.0
 20
0.0
 30
0.0
 11
-7.0
 21
-5.0
 31
0.0
  0
LINE
  5
3075
330
306C
100
AcDbEntity
  8
AM_0
100
AcDbLine
 10
-7.0
 20
-5.0
 30
0.0
 11
-6.633249580710753
 21
-5.0
 31
0.0
  0
ARC
  5
3076
330
306C
100
AcDbEntity
  8
AM_0
100
AcDbCircle
 10
6.633249580710753
 20
-10.0
 30
0.0
 40
5.0
100
AcDbArc
 50
90.0
 51
123.5573097619184
  0
LINE
  5
3077
330
306C
100
AcDbEntity
  8
AM_0
100
AcDbLine
 10
7.0
 20
0.0
 30
0.0
 11
7.0
 21
-5.0
 31
0.0
  0
LINE
  5
3078
330
306C
100
AcDbEntity
  8
AM_0
100
AcDbLine
 10
7.0
 20
-5.0
 30
0.0
 11
6.633249580710753
 21
-5.0
 31
0.0
  0
ARC
  5
3079
330
306C
100
AcDbEntity
  8
AM_0
100
AcDbCircle
 10
0.0
 20
-4.999999999998976
 30
0.0
 40
4.0
100
AcDbArc
 50
191.5369590328315
 51
348.4630409671684
  0
ENDBLK
  5
307D
330
306C
100
AcDbEntity
  8
0
100
AcDbBlockEnd
  0
ENDSEC
  0
SECTION
  2
ENTITIES
  0
LINE
  5
52A
330
1F
100
AcDbEntity
  8
AM_0
100
AcDbLine
 10
165.9014417304304
 20
324.0281766376873
 30
0.0
 11
165.9014417304305
 21
318.8968701865368
 31
0.0
  0
ARC
  5
17E5
330
1F
100
AcDbEntity
  8
AM_0
100
AcDbCircle
 10
168.9014417304303
 20
359.7197006836677
 30
0.0
 40
12.5
100
AcDbArc
 50
267.0773289794914
 51
272.9226710205085
  0
CIRCLE
  5
17E6
330
1F
100
AcDbEntity
  8
AM_0
100
AcDbCircle
 10
168.9014417304303
 20
359.7197006836677
 30
0.0
 40
10.5
  0
CIRCLE
  5
17E7
330
1F
100
AcDbEntity
  8
AM_0
100
AcDbCircle
 10
168.9014417304303
 20
359.7197006836677
 30
0.0
 40
9.0
  0
ARC
  5
1835
330
1F
100
AcDbEntity
  8
AM_0
100
AcDbCircle
 10
173.1842410709537
 20
372.9008017070218
 30
0.0
 40
3.361078814551376
100
AcDbArc
 50
198.0557259869368
 51
305.9442740130631
  0
ARC
  5
1837
330
1F
100
AcDbEntity
  8
AM_0
100
AcDbCircle
 10
173.1842410709537
 20
346.5385996603137
 30
0.0
 40
3.361078814551376
100
AcDbArc
 50
54.05572598693687
 51
161.9442740130631
  0
ARC
  5
1839
330
1F
100
AcDbEntity
  8
AM_0
100
AcDbCircle
 10
180.1139559709163
 20
351.5733322420889
 30
0.0
 40
3.361078814551376
100
AcDbArc
 50
90.05572598693715
 51
197.9442740130629
  0
ARC
  5
183A
330
1F
100
AcDbEntity
  8
AM_0
100
AcDbCircle
 10
182.7608715303554
 20
359.7197006836678
 30
0.0
 40
3.361078814551376
100
AcDbArc
 50
126.0557259869381
 51
233.9442740130627
  0
ARC
  5
183C
330
1F
100
AcDbEntity
  8
AM_0
100
AcDbCircle
 10
180.1139559709163
 20
367.8660691252466
 30
0.0
 40
3.361078814551376
100
AcDbArc
 50
162.0557259869371
 51
269.9442740130629
  0
ARC
  5
183E
330
1F
100
AcDbEntity
  8
AM_0
100
AcDbCircle
 10
164.6186423899068
 20
372.9008017070218
 30
0.0
 40
3.361078814551376
100
AcDbArc
 50
234.0557259869369
 51
341.9442740130631
  0
ARC
  5
183F
330
1F
100
AcDbEntity
  8
AM_0
100
AcDbCircle
 10
157.6889274899443
 20
367.8660691252466
 30
0.0
 40
3.361078814551376
100
AcDbArc
 50
270.0557259869372
 51
17.94427401306291
  0
ARC
  5
1840
330
1F
100
AcDbEntity
  8
AM_0
100
AcDbCircle
 10
155.0420119305051
 20
359.7197006836678
 30
0.0
 40
3.361078814551376
100
AcDbArc
 50
306.0557259869373
 51
53.9442740130619
  0
ARC
  5
1841
330
1F
100
AcDbEntity
  8
AM_0
100
AcDbCircle
 10
157.6889274899443
 20
351.5733322420889
 30
0.0
 40
3.361078814551376
100
AcDbArc
 50
342.055725986937
 51
89.94427401306282
  0
ARC
  5
1842
330
1F
100
AcDbEntity
  8
AM_0
100
AcDbCircle
 10
164.6186423899068
 20
346.5385996603137
 30
0.0
 40
3.361078814551376
100
AcDbArc
 50
18.05572598693692
 51
125.9442740130631
  0
ARC
  5
1843
330
1F
100
AcDbEntity
  8
AM_0
100
AcDbCircle
 10
168.9014417304303
 20
359.7197006836677
 30
0.0
 40
12.5
100
AcDbArc
 50
231.0773289794917
 51
236.9226710205083
  0
ARC
  5
1844
330
1F
100
AcDbEntity
  8
AM_0
100
AcDbCircle
 10
168.9014417304303
 20
359.7197006836677
 30
0.0
 40
12.5
100
AcDbArc
 50
195.0773289794914
 51
200.9226710205083
  0
ARC
  5
1845
330
1F
100
AcDbEntity
  8
AM_0
100
AcDbCircle
 10
168.9014417304303
 20
359.7197006836677
 30
0.0
 40
12.5
100
AcDbArc
 50
159.0773289794917
 51
164.9226710205083
  0
ARC
  5
1846
330
1F
100
AcDbEntity
  8
AM_0
100
AcDbCircle
 10
168.9014417304303
 20
359.7197006836677
 30
0.0
 40
12.5
100
AcDbArc
 50
123.0773289794917
 51
128.9226710205083
  0
ARC
  5
1847
330
1F
100
AcDbEntity
  8
AM_0
100
AcDbCircle
 10
168.9014417304303
 20
359.7197006836677
 30
0.0
 40
12.5
100
AcDbArc
 50
87.07732897949144
 51
92.92267102050853
  0
ARC
  5
1848
330
1F
100
AcDbEntity
  8
AM_0
100
AcDbCircle
 10
168.9014417304303
 20
359.7197006836677
 30
0.0
 40
12.5
100
AcDbArc
 50
51.07732897949166
 51
56.92267102050829
  0
ARC
  5
1849
330
1F
100
AcDbEntity
  8
AM_0
100
AcDbCircle
 10
168.9014417304303
 20
359.7197006836677
 30
0.0
 40
12.5
100
AcDbArc
 50
15.07732897949165
 51
20.92267102050833
  0
ARC
  5
184A
330
1F
100
AcDbEntity
  8
AM_0
100
AcDbCircle
 10
168.9014417304303
 20
359.7197006836677
 30
0.0
 40
12.5
100
AcDbArc
 50
339.0773289794916
 51
344.9226710205085
  0
ARC
  5
184B
330
1F
100
AcDbEntity
  8
AM_0
100
AcDbCircle
 10
168.9014417304303
 20
359.7197006836677
 30
0.0
 40
12.5
100
AcDbArc
 50
303.0773289794917
 51
308.9226710205082
  0
ARC
  5
1851
330
1F
100
AcDbEntity
  8
AM_0
100
AcDbCircle
 10
176.4406930921223
 20
369.055636036123
 30
0.0
 40
0.5
100
AcDbArc
 50
342.0557259869391
 51
51.07732897949415
1001
GENIUS_GENODEF_13
1002
{
1000
HIER
1070
     0
1002
}
1002
{
1000
MANEDIT
1070
     0
1002
}
1002
{
1000
NOSEL
1070
     0
1002
}
1002
{
1000
BEHIND
1070
     0
1002
}
1002
{
1000
REACTOR
1002
}
1001
GENIUS_GENOBJ-N-FIL_13
1002
{
1000
OWNER
1000
GEN
1002
}
  0
ARC
  5
1853
330
1F
100
AcDbEntity
  8
AM_0
100
AcDbCircle
 10
175.4506870874658
 20
369.7749175014866
 30
0.0
 40
0.5
100
AcDbArc
 50
56.92267102050696
 51
125.944274013063
1001
GENIUS_GENODEF_13
1002
{
1000
HIER
1070
     0
1002
}
1002
{
1000
MANEDIT
1070
     0
1002
}
1002
{
1000
NOSEL
1070
     0
1002
}
1002
{
1000
BEHIND
1070
     0
1002
}
1002
{
1000
REACTOR
1002
}
1001
GENIUS_GENOBJ-N-FIL_13
1002
{
1000
OWNER
1000
GEN
1002
}
  0
ARC
  5
1856
330
1F
100
AcDbEntity
  8
AM_0
100
AcDbCircle
 10
169.5132990903745
 20
371.7040918059185
 30
0.0
 40
0.5
100
AcDbArc
 50
18.05572598693633
 51
87.07732897949167
1001
GENIUS_GENODEF_13
1002
{
1000
HIER
1070
     0
1002
}
1002
{
1000
MANEDIT
1070
     0
1002
}
1002
{
1000
NOSEL
1070
     0
1002
}
1002
{
1000
BEHIND
1070
     0
1002
}
1002
{
1000
REACTOR
1002
}
1001
GENIUS_GENOBJ-N-FIL_13
1002
{
1000
OWNER
1000
GEN
1002
}
  0
ARC
  5
1858
330
1F
100
AcDbEntity
  8
AM_0
100
AcDbCircle
 10
168.289584370486
 20
371.7040918059185
 30
0.0
 40
0.5
100
AcDbArc
 50
92.92267102050834
 51
161.9442740130637
1001
GENIUS_GENODEF_13
1002
{
1000
HIER
1070
     0
1002
}
1002
{
1000
MANEDIT
1070
     0
1002
}
1002
{
1000
NOSEL
1070
     0
1002
}
1002
{
1000
BEHIND
1070
     0
1002
}
1002
{
1000
REACTOR
1002
}
1001
GENIUS_GENOBJ-N-FIL_13
1002
{
1000
OWNER
1000
GEN
1002
}
  0
ARC
  5
185A
330
1F
100
AcDbEntity
  8
AM_0
100
AcDbCircle
 10
162.3521963733947
 20
369.7749175014866
 30
0.0
 40
0.5
100
AcDbArc
 50
54.05572598693695
 51
123.077328979493
1001
GENIUS_GENODEF_13
1002
{
1000
HIER
1070
     0
1002
}
1002
{
1000
MANEDIT
1070
     0
1002
}
1002
{
1000
NOSEL
1070
     0
1002
}
1002
{
1000
BEHIND
1070
     0
1002
}
1002
{
1000
REACTOR
1002
}
1001
GENIUS_GENOBJ-N-FIL_13
1002
{
1000
OWNER
1000
GEN
1002
}
  0
ARC
  5
185C
330
1F
100
AcDbEntity
  8
AM_0
100
AcDbCircle
 10
161.3621903687382
 20
369.055636036123
 30
0.0
 40
0.5
100
AcDbArc
 50
128.9226710205058
 51
197.9442740130608
1001
GENIUS_GENODEF_13
1002
{
1000
HIER
1070
     0
1002
}
1002
{
1000
MANEDIT
1070
     0
1002
}
1002
{
1000
NOSEL
1070
     0
1002
}
1002
{
1000
BEHIND
1070
     0
1002
}
1002
{
1000
REACTOR
1002
}
1001
GENIUS_GENOBJ-N-FIL_13
1002
{
1000
OWNER
1000
GEN
1002
}
  0
ARC
  5
185E
330
1F
100
AcDbEntity
  8
AM_0
100
AcDbCircle
 10
157.6926827821401
 20
364.0049921368976
 30
0.0
 40
0.5
100
AcDbArc
 50
90.05572598693987
 51
159.0773289794927
1001
GENIUS_GENODEF_13
1002
{
1000
HIER
1070
     0
1002
}
1002
{
1000
MANEDIT
1070
     0
1002
}
1002
{
1000
NOSEL
1070
     0
1002
}
1002
{
1000
BEHIND
1070
     0
1002
}
1002
{
1000
REACTOR
1002
}
1001
GENIUS_GENOBJ-N-FIL_13
1002
{
1000
OWNER
1000
GEN
1002
}
  0
ARC
  5
1860
330
1F
100
AcDbEntity
  8
AM_0
100
AcDbCircle
 10
157.3145341374278
 20
362.8411702784613
 30
0.0
 40
0.5
100
AcDbArc
 50
164.9226710205089
 51
233.944274013062
1001
GENIUS_GENODEF_13
1002
{
1000
HIER
1070
     0
1002
}
1002
{
1000
MANEDIT
1070
     0
1002
}
1002
{
1000
NOSEL
1070
     0
1002
}
1002
{
1000
BEHIND
1070
     0
1002
}
1002
{
1000
REACTOR
1002
}
1001
GENIUS_GENOBJ-N-FIL_13
1002
{
1000
OWNER
1000
GEN
1002
}
  0
ARC
  5
1862
330
1F
100
AcDbEntity
  8
AM_0
100
AcDbCircle
 10
157.3145341374277
 20
356.5982310888742
 30
0.0
 40
0.5
100
AcDbArc
 50
126.0557259869341
 51
195.0773289794927
1001
GENIUS_GENODEF_13
1002
{
1000
HIER
1070
     0
1002
}
1002
{
1000
MANEDIT
1070
     0
1002
}
1002
{
1000
NOSEL
1070
     0
1002
}
1002
{
1000
BEHIND
1070
     0
1002
}
1002
{
1000
REACTOR
1002
}
1001
GENIUS_GENOBJ-N-FIL_13
1002
{
1000
OWNER
1000
GEN
1002
}
  0
ARC
  5
1864
330
1F
100
AcDbEntity
  8
AM_0
100
AcDbCircle
 10
157.6926827821401
 20
355.4344092304379
 30
0.0
 40
0.5
100
AcDbArc
 50
200.9226710205072
 51
269.9442740130601
1001
GENIUS_GENODEF_13
1002
{
1000
HIER
1070
     0
1002
}
1002
{
1000
MANEDIT
1070
     0
1002
}
1002
{
1000
NOSEL
1070
     0
1002
}
1002
{
1000
BEHIND
1070
     0
1002
}
1002
{
1000
REACTOR
1002
}
1001
GENIUS_GENOBJ-N-FIL_13
1002
{
1000
OWNER
1000
GEN
1002
}
  0
ARC
  5
1866
330
1F
100
AcDbEntity
  8
AM_0
100
AcDbCircle
 10
161.3621903687382
 20
350.3837653312125
 30
0.0
 40
0.5
100
AcDbArc
 50
162.0557259869392
 51
231.0773289794942
1001
GENIUS_GENODEF_13
1002
{
1000
HIER
1070
     0
1002
}
1002
{
1000
MANEDIT
1070
     0
1002
}
1002
{
1000
NOSEL
1070
     0
1002
}
1002
{
1000
BEHIND
1070
     0
1002
}
1002
{
1000
REACTOR
1002
}
1001
GENIUS_GENOBJ-N-FIL_13
1002
{
1000
OWNER
1000
GEN
1002
}
  0
ARC
  5
1868
330
1F
100
AcDbEntity
  8
AM_0
100
AcDbCircle
 10
162.3521963733947
 20
349.6644838658488
 30
0.0
 40
0.5
100
AcDbArc
 50
236.9226710205069
 51
305.944274013063
1001
GENIUS_GENODEF_13
1002
{
1000
HIER
1070
     0
1002
}
1002
{
1000
MANEDIT
1070
     0
1002
}
1002
{
1000
NOSEL
1070
     0
1002
}
1002
{
1000
BEHIND
1070
     0
1002
}
1002
{
1000
REACTOR
1002
}
1001
GENIUS_GENOBJ-N-FIL_13
1002
{
1000
OWNER
1000
GEN
1002
}
  0
ARC
  5
186A
330
1F
100
AcDbEntity
  8
AM_0
100
AcDbCircle
 10
168.289584370486
 20
347.735309561417
 30
0.0
 40
0.5
100
AcDbArc
 50
198.0557259869363
 51
267.0773289794917
1001
GENIUS_GENODEF_13
1002
{
1000
HIER
1070
     0
1002
}
1002
{
1000
MANEDIT
1070
     0
1002
}
1002
{
1000
NOSEL
1070
     0
1002
}
1002
{
1000
BEHIND
1070
     0
1002
}
1002
{
1000
REACTOR
1002
}
1001
GENIUS_GENOBJ-N-FIL_13
1002
{
1000
OWNER
1000
GEN
1002
}
  0
ARC
  5
186C
330
1F
100
AcDbEntity
  8
AM_0
100
AcDbCircle
 10
169.5132990903745
 20
347.735309561417
 30
0.0
 40
0.5
100
AcDbArc
 50
272.9226710205083
 51
341.9442740130636
1001
GENIUS_GENODEF_13
1002
{
1000
HIER
1070
     0
1002
}
1002
{
1000
MANEDIT
1070
     0
1002
}
1002
{
1000
NOSEL
1070
     0
1002
}
1002
{
1000
BEHIND
1070
     0
1002
}
1002
{
1000
REACTOR
1002
}
1001
GENIUS_GENOBJ-N-FIL_13
1002
{
1000
OWNER
1000
GEN
1002
}
  0
ARC
  5
186E
330
1F
100
AcDbEntity
  8
AM_0
100
AcDbCircle
 10
175.4506870874658
 20
349.6644838658488
 30
0.0
 40
0.5
100
AcDbArc
 50
234.055725986937
 51
303.0773289794931
1001
GENIUS_GENODEF_13
1002
{
1000
HIER
1070
     0
1002
}
1002
{
1000
MANEDIT
1070
     0
1002
}
1002
{
1000
NOSEL
1070
     0
1002
}
1002
{
1000
BEHIND
1070
     0
1002
}
1002
{
1000
REACTOR
1002
}
1001
GENIUS_GENOBJ-N-FIL_13
1002
{
1000
OWNER
1000
GEN
1002
}
  0
ARC
  5
1870
330
1F
100
AcDbEntity
  8
AM_0
100
AcDbCircle
 10
176.4406930921223
 20
350.3837653312125
 30
0.0
 40
0.5
100
AcDbArc
 50
308.9226710205058
 51
17.94427401306077
1001
GENIUS_GENODEF_13
1002
{
1000
HIER
1070
     0
1002
}
1002
{
1000
MANEDIT
1070
     0
1002
}
1002
{
1000
NOSEL
1070
     0
1002
}
1002
{
1000
BEHIND
1070
     0
1002
}
1002
{
1000
REACTOR
1002
}
1001
GENIUS_GENOBJ-N-FIL_13
1002
{
1000
OWNER
1000
GEN
1002
}
  0
ARC
  5
1872
330
1F
100
AcDbEntity
  8
AM_0
100
AcDbCircle
 10
180.1102006787204
 20
355.4344092304379
 30
0.0
 40
0.5
100
AcDbArc
 50
270.0557259869399
 51
339.0773289794927
1001
GENIUS_GENODEF_13
1002
{
1000
HIER
1070
     0
1002
}
1002
{
1000
MANEDIT
1070
     0
1002
}
1002
{
1000
NOSEL
1070
     0
1002
}
1002
{
1000
BEHIND
1070
     0
1002
}
1002
{
1000
REACTOR
1002
}
1001
GENIUS_GENOBJ-N-FIL_13
1002
{
1000
OWNER
1000
GEN
1002
}
  0
ARC
  5
1874
330
1F
100
AcDbEntity
  8
AM_0
100
AcDbCircle
 10
180.4883493234328
 20
356.5982310888742
 30
0.0
 40
0.5
100
AcDbArc
 50
344.9226710205072
 51
53.94427401306586
1001
GENIUS_GENODEF_13
1002
{
1000
HIER
1070
     0
1002
}
1002
{
1000
MANEDIT
1070
     0
1002
}
1002
{
1000
NOSEL
1070
     0
1002
}
1002
{
1000
BEHIND
1070
     0
1002
}
1002
{
1000
REACTOR
1002
}
1001
GENIUS_GENOBJ-N-FIL_13
1002
{
1000
OWNER
1000
GEN
1002
}
  0
ARC
  5
1876
330
1F
100
AcDbEntity
  8
AM_0
100
AcDbCircle
 10
180.4883493234328
 20
362.8411702784613
 30
0.0
 40
0.5
100
AcDbArc
 50
306.055725986938
 51
15.07732897949107
1001
GENIUS_GENODEF_13
1002
{
1000
HIER
1070
     0
1002
}
1002
{
1000
MANEDIT
1070
     0
1002
}
1002
{
1000
NOSEL
1070
     0
1002
}
1002
{
1000
BEHIND
1070
     0
1002
}
1002
{
1000
REACTOR
1002
}
1001
GENIUS_GENOBJ-N-FIL_13
1002
{
1000
OWNER
1000
GEN
1002
}
  0
ARC
  5
1878
330
1F
100
AcDbEntity
  8
AM_0
100
AcDbCircle
 10
180.1102006787204
 20
364.0049921368976
 30
0.0
 40
0.5
100
AcDbArc
 50
20.92267102050729
 51
89.94427401306014
1001
GENIUS_GENODEF_13
1002
{
1000
HIER
1070
     0
1002
}
1002
{
1000
MANEDIT
1070
     0
1002
}
1002
{
1000
NOSEL
1070
     0
1002
}
1002
{
1000
BEHIND
1070
     0
1002
}
1002
{
1000
REACTOR
1002
}
1001
GENIUS_GENOBJ-N-FIL_13
1002
{
1000
OWNER
1000
GEN
1002
}
  0
LINE
  5
193C
330
1F
100
AcDbEntity
  8
AM_0
100
AcDbLine
 10
171.9014417304303
 20
324.0281766376872
 30
0.0
 11
171.9014417304304
 21
318.8968701865368
 31
0.0
  0
TEXT
  5
19AF
330
1F
100
AcDbEntity
  8
AM_0
100
AcDbText
 10
159.9679410356171
 20
358.62765428549
 30
0.0
 40
3.0
  1
clccolo
 41
1.5
  7
ｽﾀｲﾙ1
100
AcDbText
  0
TEXT
  5
19BC
330
1F
100
AcDbEntity
  8
AM_0
100
AcDbText
 10
161.0432151330277
 20
361.7847219825799
 30
0.0
 40
3.0
  1
▲
 41
0.5
  7
ｽﾀｲﾙ1
100
AcDbText
  0
TEXT
  5
19D6
330
1F
100
AcDbEntity
  8
AM_0
100
AcDbText
 10
176.9129699022032
 20
357.9689050050532
 30
0.0
 40
3.0
  1
▲
 50
180.0
 41
0.5
  7
ｽﾀｲﾙ1
100
AcDbText
  0
ARC
  5
1B97
330
1F
100
AcDbEntity
  8
AM_0
100
AcDbCircle
 10
159.145973555701
 20
334.7739085689643
 30
0.0
 40
1.754268068723236
100
AcDbArc
 50
8.052279597304682
 51
171.9477204026921
  0
ARC
  5
1B98
330
1F
100
AcDbEntity
  8
AM_0
100
AcDbCircle
 10
165.1751844638515
 20
333.5534771971414
 30
0.0
 40
2.97469944054606
100
AcDbArc
 50
19.12700048611884
 51
160.8729995138811
  0
LINE
  5
1B99
330
1F
100
AcDbEntity
  8
AM_0
100
AcDbLine
 10
157.4090013984996
 20
335.0196405002411
 30
0.0
 11
157.4090013984996
 21
325.5281766376875
 31
0.0
  0
LINE
  5
1B9A
330
1F
100
AcDbEntity
  8
AM_0
100
AcDbLine
 10
167.9856644517156
 20
334.5281766376875
 30
0.0
 11
167.9856644517156
 21
325.5281766376875
 31
0.0
  0
LINE
  5
1B9B
330
1F
100
AcDbEntity
  8
AM_0
100
AcDbLine
 10
162.3647044759874
 20
334.5281766376873
 30
0.0
 11
162.3647044759875
 21
325.5281766376875
 31
0.0
  0
LINE
  5
1B9C
330
1F
100
AcDbEntity
  8
AM_0
100
AcDbLine
 10
160.8829457129024
 20
335.0196405002416
 30
0.0
 11
160.8829457129025
 21
325.5281766376875
 31
0.0
  0
ARC
  5
1B9D
330
1F
100
AcDbEntity
  8
AM_0
100
AcDbCircle
 10
158.4014417304303
 20
334.5281766376875
 30
0.0
 40
2.0
100
AcDbArc
 50
90.0
 51
180.0
1001
GENIUS_GENODEF_13
1002
{
1000
HIER
1070
     0
1002
}
1002
{
1000
MANEDIT
1070
     0
1002
}
1002
{
1000
NOSEL
1070
     0
1002
}
1002
{
1000
BEHIND
1070
     0
1002
}
1002
{
1000
REACTOR
1002
}
1001
GENIUS_GENOBJ-N-FIL_13
1002
{
1000
OWNER
1000
GEN
1002
}
  0
LINE
  5
1BA2
330
1F
100
AcDbEntity
  8
AM_0
100
AcDbLine
 10
158.4014417304303
 20
336.5281766376875
 30
0.0
 11
168.9014417304303
 21
336.5281766376875
 31
0.0
  0
LINE
  5
1BA3
330
1F
100
AcDbEntity
  8
AM_0
100
AcDbLine
 10
158.4014417304299
 20
324.5281766376872
 30
0.0
 11
168.9014417304303
 21
324.5281766376872
 31
0.0
  0
LINE
  5
1BA5
330
1F
100
AcDbEntity
  8
AM_0
100
AcDbLine
 10
156.9014417304304
 20
325.5281766376872
 30
0.0
 11
168.9014417304303
 21
325.5281766376875
 31
0.0
  0
LINE
  5
1BA6
330
1F
100
AcDbEntity
  8
AM_0
100
AcDbLine
 10
158.4014417304299
 20
325.5281766376872
 30
0.0
 11
158.4014417304299
 21
324.5281766376872
 31
0.0
  0
LINE
  5
1BA7
330
1F
100
AcDbEntity
  8
AM_0
100
AcDbLine
 10
156.4014417304303
 20
334.5281766376875
 30
0.0
 11
156.4014417304304
 21
326.0281766376872
 31
0.0
  0
LINE
  5
1BAE
330
1F
100
AcDbEntity
  8
AM_0
100
AcDbLine
 10
158.4014417304303
 20
336.5281766376875
 30
0.0
 11
158.4014417304303
 21
338.0281766376875
 31
0.0
  0
LINE
  5
1BC2
330
1F
100
AcDbEntity
  8
AM_0
100
AcDbLine
 10
166.4014417304304
 20
324.5281766376872
 30
0.0
 11
165.9014417304304
 21
324.0281766376873
 31
0.0
1001
GENIUS_GENFIL_13
1070
     0
1040
0.5
1040
0.5
1040
0.5
1040
45.0000000000002
1000
~T
1001
GENIUS_GENOREF_13
1005
1BC4
  0
LINE
  5
1BC3
330
1F
100
AcDbEntity
  8
AM_0
100
AcDbLine
 10
165.9014417304304
 20
324.0281766376873
 30
0.0
 11
171.9014417304304
 21
324.0281766376872
 31
0.0
  0
POINT
  5
1BC4
330
1F
100
AcDbEntity
  8
0
 60
     1
100
AcDbPoint
 10
453.7825406082839
 20
85.03935940516454
 30
0.0
 50
180.0
1001
GENIUS_GENOENT_13
1002
{
1000
MYREF
1005
1BC4
1002
}
1002
{
1000
GRP
1005
0
1002
}
1001
GENIUS_GENOBJ-N-CHA_13
1002
{
1000
OWNER
1000
GEN
1002
}
1001
GENIUS_GENODEF_13
1002
{
1000
HIER
1070
     1
1002
}
1002
{
1000
MANEDIT
1070
     0
1002
}
1002
{
1000
NOSEL
1070
     0
1002
}
1002
{
1000
BEHIND
1070
     0
1002
}
1002
{
1000
OTHER
1070
     0
1002
}
1002
{
1000
REACTOR
1002
}
1001
GENIUS_GENOLIS_13
1002
{
1000
ENT
1005
1BC2
1002
}
  0
LINE
  5
1C0F
330
1F
100
AcDbEntity
  8
AM_7
100
AcDbLine
 10
168.9014417304303
 20
340.8210982110036
 30
0.0
 11
168.9014417304304
 21
282.4998701863239
 31
0.0
1001
GENIUS_GENODEF_13
1002
{
1000
HIER
1070
     0
1002
}
1002
{
1000
MANEDIT
1070
     0
1002
}
1002
{
1000
NOSEL
1070
     0
1002
}
1002
{
1000
BEHIND
1070
     0
1002
}
1002
{
1000
OTHER
1070
     0
1002
}
1002
{
1000
REACTOR
1002
}
1001
GENIUS_GENOBJ-N-CEN_13
1002
{
1000
OWNER
1000
GEN
1002
}
1001
GENIUS_GENCEN_19
1002
{
1040
1.397
1002
}
  0
LINE
  5
25DB
330
1F
100
AcDbEntity
  8
AM_7
100
AcDbLine
 10
134.2816292804304
 20
294.3968701863239
 30
0.0
 11
203.5212541804303
 21
294.3968701863239
 31
0.0
1001
GENIUS_GENODEF_13
1002
{
1000
HIER
1070
     0
1002
}
1002
{
1000
MANEDIT
1070
     0
1002
}
1002
{
1000
NOSEL
1070
     0
1002
}
1002
{
1000
BEHIND
1070
     0
1002
}
1002
{
1000
OTHER
1070
     0
1002
}
1002
{
1000
REACTOR
1002
}
1001
GENIUS_GENOBJ-N-CEN_13
1002
{
1000
OWNER
1000
GEN
1002
}
1001
GENIUS_GENCEN_19
1002
{
1040
1.397
1002
}
  0
LINE
  5
25FF
330
1F
100
AcDbEntity
  8
AM_7
100
AcDbLine
 10
230.7066679457958
 20
340.8098700630969
 30
0.0
 11
230.7066679457958
 21
282.958300220856
 31
0.0
1001
GENIUS_GENOBJ-N-CEN_13
1002
{
1000
OWNER
1000
GEN
1002
}
1001
GENIUS_GENODEF_13
1002
{
1000
HIER
1070
     0
1002
}
1002
{
1000
MANEDIT
1070
     0
1002
}
1002
{
1000
NOSEL
1070
     0
1002
}
1002
{
1000
BEHIND
1070
     0
1002
}
1002
{
1000
OTHER
1070
     0
1002
}
1002
{
1000
REACTOR
1002
}
  0
LINE
  5
284A
330
1F
100
AcDbEntity
  8
0
 62
     0
100
AcDbLine
 10
237.1651679458242
 20
309.7981287249772
 30
0.0
 11
237.7066679458265
 21
309.7981287249406
 31
0.0
  0
ARC
  5
284F
330
1F
100
AcDbEntity
  8
0
 62
     0
100
AcDbCircle
 10
224.2066679464174
 20
308.3547530530144
 30
0.0
 40
0.9999999999043879
100
AcDbArc
 50
0.0
 51
59.99999999999946
  0
LINE
  5
2850
330
1F
100
AcDbEntity
  8
0
 62
     0
100
AcDbLine
 10
236.7066679458221
 20
309.2207784557484
 30
0.0
 11
237.7066679458265
 21
309.7981287249406
 31
0.0
  0
ARC
  5
2853
330
1F
100
AcDbEntity
  8
0
 62
     0
100
AcDbCircle
 10
237.2066679458243
 20
308.3547530519601
 30
0.0
 40
1.000000000004388
100
AcDbArc
 50
120.0000000000005
 51
180.0
  0
LINE
  5
2855
330
1F
100
AcDbEntity
  8
AM_0
100
AcDbLine
 10
227.7066679457958
 20
324.0281766376872
 30
0.0
 11
227.7066679457959
 21
318.8968701865364
 31
0.0
  0
LINE
  5
2856
330
1F
100
AcDbEntity
  8
AM_0
100
AcDbLine
 10
233.7066679457958
 20
324.0281766376872
 30
0.0
 11
233.7066679457958
 21
318.8968701865364
 31
0.0
  0
ARC
  5
2857
330
1F
100
AcDbEntity
  8
AM_0
100
AcDbCircle
 10
230.7066679457957
 20
333.347661763943
 30
0.0
 40
3.182186574793173
100
AcDbArc
 50
21.77582284696156
 51
158.2241771530348
  0
LINE
  5
2858
330
1F
100
AcDbEntity
  8
AM_0
100
AcDbLine
 10
233.6617814850124
 20
334.5281766376875
 30
0.0
 11
233.6617814850125
 21
325.5281766376875
 31
0.0
  0
LINE
  5
2859
330
1F
100
AcDbEntity
  8
AM_0
100
AcDbLine
 10
227.751554406579
 20
334.5281766376873
 30
0.0
 11
227.7515544065791
 21
325.5281766376875
 31
0.0
  0
ARC
  5
285A
330
1F
100
AcDbEntity
  8
AM_0
100
AcDbCircle
 10
220.2066679457957
 20
334.5281766376875
 30
0.0
 40
2.0
100
AcDbArc
 50
90.0
 51
180.0
1001
GENIUS_GENODEF_13
1002
{
1000
HIER
1070
     0
1002
}
1002
{
1000
MANEDIT
1070
     0
1002
}
1002
{
1000
NOSEL
1070
     0
1002
}
1002
{
1000
BEHIND
1070
     0
1002
}
1002
{
1000
REACTOR
1002
}
1001
GENIUS_GENOBJ-N-FIL_13
1002
{
1000
OWNER
1000
GEN
1002
}
  0
LINE
  5
285B
330
1F
100
AcDbEntity
  8
AM_0
100
AcDbLine
 10
220.2066679457957
 20
336.5281766376875
 30
0.0
 11
230.7066679457958
 21
336.5281766376875
 31
0.0
  0
LINE
  5
285C
330
1F
100
AcDbEntity
  8
AM_0
100
AcDbLine
 10
220.2066679457953
 20
324.5281766376872
 30
0.0
 11
230.7066679457958
 21
324.5281766376872
 31
0.0
  0
LINE
  5
285D
330
1F
100
AcDbEntity
  8
AM_0
100
AcDbLine
 10
218.7066679457958
 20
325.5281766376872
 30
0.0
 11
230.7066679457958
 21
325.5281766376875
 31
0.0
  0
LINE
  5
285E
330
1F
100
AcDbEntity
  8
AM_0
100
AcDbLine
 10
220.2066679457953
 20
325.5281766376872
 30
0.0
 11
220.2066679457953
 21
324.5281766376872
 31
0.0
  0
LINE
  5
285F
330
1F
100
AcDbEntity
  8
AM_0
100
AcDbLine
 10
218.2066679457957
 20
334.5281766376875
 30
0.0
 11
218.2066679457958
 21
326.0281766376872
 31
0.0
  0
LINE
  5
2860
330
1F
100
AcDbEntity
  8
AM_0
100
AcDbLine
 10
220.7066679457957
 20
338.5281766376875
 30
0.0
 11
240.7066679457963
 21
338.5281766376875
 31
0.0
  0
LINE
  5
2861
330
1F
100
AcDbEntity
  8
AM_0
100
AcDbLine
 10
220.2066679457957
 20
336.5281766376875
 30
0.0
 11
220.2066679457957
 21
338.0281766376875
 31
0.0
  0
LINE
  5
2862
330
1F
100
AcDbEntity
  8
AM_0
100
AcDbLine
 10
228.2066679457958
 20
324.5281766376872
 30
0.0
 11
227.7066679457958
 21
324.0281766376872
 31
0.0
1001
GENIUS_GENFIL_13
1070
     0
1040
0.5
1040
0.5
1040
0.5
1040
45.0000000000002
1000
~T
1001
GENIUS_GENOREF_13
1005
2894
  0
LINE
  5
2863
330
1F
100
AcDbEntity
  8
AM_0
100
AcDbLine
 10
227.7066679457958
 20
324.0281766376872
 30
0.0
 11
233.7066679457958
 21
324.0281766376872
 31
0.0
  0
ARC
  5
2864
330
1F
100
AcDbEntity
  8
AM_0
100
AcDbCircle
 10
241.2066679457964
 20
334.5281766376881
 30
0.0
 40
2.0
100
AcDbArc
 50
0.0000000000032569
 51
90.00000000000325
1001
GENIUS_GENODEF_13
1002
{
1000
HIER
1070
     0
1002
}
1002
{
1000
MANEDIT
1070
     0
1002
}
1002
{
1000
NOSEL
1070
     0
1002
}
1002
{
1000
BEHIND
1070
     0
1002
}
1002
{
1000
REACTOR
1002
}
1001
GENIUS_GENOBJ-N-FIL_13
1002
{
1000
OWNER
1000
GEN
1002
}
  0
LINE
  5
2865
330
1F
100
AcDbEntity
  8
AM_0
100
AcDbLine
 10
241.2066679457963
 20
336.5281766376881
 30
0.0
 11
230.7066679457963
 21
336.5281766376875
 31
0.0
  0
LINE
  5
2866
330
1F
100
AcDbEntity
  8
AM_0
100
AcDbLine
 10
241.2066679457974
 20
324.5281766376877
 30
0.0
 11
230.706667945797
 21
324.5281766376872
 31
0.0
  0
LINE
  5
2867
330
1F
100
AcDbEntity
  8
AM_0
100
AcDbLine
 10
242.7066679457968
 20
325.5281766376878
 30
0.0
 11
230.7066679457969
 21
325.5281766376875
 31
0.0
  0
LINE
  5
2868
330
1F
100
AcDbEntity
  8
AM_0
100
AcDbLine
 10
241.2066679457974
 20
325.5281766376878
 30
0.0
 11
241.2066679457974
 21
324.5281766376877
 31
0.0
  0
LINE
  5
2869
330
1F
100
AcDbEntity
  8
AM_0
100
AcDbLine
 10
243.2066679457964
 20
334.5281766376882
 30
0.0
 11
243.2066679457968
 21
326.0281766376879
 31
0.0
  0
LINE
  5
286A
330
1F
100
AcDbEntity
  8
AM_0
100
AcDbLine
 10
241.2066679457963
 20
336.5281766376881
 30
0.0
 11
241.2066679457963
 21
338.0281766376876
 31
0.0
  0
LINE
  5
286B
330
1F
100
AcDbEntity
  8
AM_0
100
AcDbLine
 10
233.206667945797
 20
324.5281766376873
 30
0.0
 11
233.7066679457969
 21
324.0281766376874
 31
0.0
1001
GENIUS_GENFIL_13
1070
     0
1040
0.5
1040
0.5
1040
0.5
1040
45.0000000000002
1000
~T
1001
GENIUS_GENOREF_13
1005
2893
  0
LINE
  5
286C
330
1F
100
AcDbEntity
  8
AM_0
100
AcDbLine
 10
233.7066679457969
 20
324.0281766376874
 30
0.0
 11
227.7066679457969
 21
324.0281766376869
 31
0.0
  0
LINE
  5
286D
330
1F
100
AcDbEntity
  8
AM_4
100
AcDbLine
 10
237.1651679458242
 20
310.8968701865012
 30
0.0
 11
237.1651679458242
 21
309.4854935541728
 31
0.0
  0
LINE
  5
286E
330
1F
100
AcDbEntity
  8
0
 62
     0
100
AcDbLine
 10
237.7066679458266
 20
310.8968701865013
 30
0.0
 11
237.7066679458266
 21
309.7981287249404
 31
0.0
  0
LINE
  5
286F
330
1F
100
AcDbEntity
  8
0
 62
     0
100
AcDbLine
 10
237.1651679458242
 20
309.798128724977
 30
0.0
 11
237.7066679458266
 21
309.7981287249404
 31
0.0
  0
LINE
  5
2870
330
1F
100
AcDbEntity
  8
AM_0
100
AcDbLine
 10
237.1651679458242
 20
309.798128724977
 30
0.0
 11
230.7066679457958
 21
309.7981287254139
 31
0.0
  0
LINE
  5
2872
330
1F
100
AcDbEntity
  8
0
 62
     0
100
AcDbLine
 10
224.2481679461378
 20
309.7981287258511
 30
0.0
 11
223.7066679461355
 21
309.7981287258877
 31
0.0
  0
LINE
  5
2873
330
1F
100
AcDbEntity
  8
AM_4
100
AcDbLine
 10
224.2481679462864
 20
310.8968701873751
 30
0.0
 11
224.2481679460954
 21
309.4854935550466
 31
0.0
  0
LINE
  5
2874
330
1F
100
AcDbEntity
  8
0
 62
     0
100
AcDbLine
 10
223.706667946284
 20
310.8968701874484
 30
0.0
 11
223.7066679461353
 21
309.7981287258875
 31
0.0
  0
LINE
  5
2875
330
1F
100
AcDbEntity
  8
0
 62
     0
100
AcDbLine
 10
224.2481679461377
 20
309.7981287258508
 30
0.0
 11
223.7066679461353
 21
309.7981287258875
 31
0.0
  0
LINE
  5
2876
330
1F
100
AcDbEntity
  8
AM_0
100
AcDbLine
 10
224.2481679461377
 20
309.7981287258508
 30
0.0
 11
230.7066679461662
 21
309.7981287254139
 31
0.0
  0
LINE
  5
2877
330
1F
100
AcDbEntity
  8
0
 62
     0
100
AcDbLine
 10
224.7066679452616
 20
309.2207784565604
 30
0.0
 11
223.7066679453352
 21
309.7981287258879
 31
0.0
  0
LINE
  5
2878
330
1F
100
AcDbEntity
  8
AM_0
100
AcDbLine
 10
225.2066679463218
 20
308.3547530529853
 30
0.0
 11
236.2066679458199
 21
308.3547530519601
 31
0.0
  0
LINE
  5
288C
330
1F
100
AcDbEntity
  8
AM_0
100
AcDbLine
 10
226.0096425097859
 20
334.5281766376875
 30
0.0
 11
226.0096425097859
 21
325.5281766376874
 31
0.0
  0
LINE
  5
288D
330
1F
100
AcDbEntity
  8
AM_0
100
AcDbLine
 10
221.2281683627183
 20
334.5281766376875
 30
0.0
 11
221.2281683627183
 21
325.5281766376872
 31
0.0
  0
LINE
  5
288E
330
1F
100
AcDbEntity
  8
AM_0
100
AcDbLine
 10
226.0096425097859
 20
336.5281766376875
 30
0.0
 11
221.2281683627183
 21
336.5281766376875
 31
0.0
  0
ARC
  5
288F
330
1F
100
AcDbEntity
  8
AM_0
100
AcDbCircle
 10
223.6189054362522
 20
334.0992706989953
 30
0.0
 40
2.428905938692222
100
AcDbArc
 50
10.17085060932878
 51
169.8291493906712
  0
LINE
  5
2890
330
1F
100
AcDbEntity
  8
AM_0
100
AcDbLine
 10
235.4036933818056
 20
334.5281766376875
 30
0.0
 11
235.4036933818056
 21
325.5281766376874
 31
0.0
  0
LINE
  5
2891
330
1F
100
AcDbEntity
  8
AM_0
100
AcDbLine
 10
240.1851675288732
 20
334.5281766376875
 30
0.0
 11
240.1851675288732
 21
325.5281766376872
 31
0.0
  0
ARC
  5
2892
330
1F
100
AcDbEntity
  8
AM_0
100
AcDbCircle
 10
237.7944304553394
 20
334.0992706989953
 30
0.0
 40
2.428905938692222
100
AcDbArc
 50
10.17085060933199
 51
169.829149390668
  0
POINT
  5
2893
330
1F
100
AcDbEntity
  8
0
 60
     1
100
AcDbPoint
 10
-65.40150418029904
 20
92.43635940514892
 30
0.0
 50
180.0000000000031
1001
GENIUS_GENOENT_13
1002
{
1000
MYREF
1005
2893
1002
}
1002
{
1000
GRP
1005
0
1002
}
1001
GENIUS_GENOBJ-N-CHA_13
1002
{
1000
OWNER
1000
GEN
1002
}
1001
GENIUS_GENODEF_13
1002
{
1000
HIER
1070
     1
1002
}
1002
{
1000
MANEDIT
1070
     0
1002
}
1002
{
1000
NOSEL
1070
     0
1002
}
1002
{
1000
BEHIND
1070
     0
1002
}
1002
{
1000
OTHER
1070
     0
1002
}
1002
{
1000
REACTOR
1002
}
1001
GENIUS_GENOLIS_13
1002
{
1000
ENT
1005
286B
1002
}
  0
POINT
  5
2894
330
1F
100
AcDbEntity
  8
0
 60
     1
100
AcDbPoint
 10
504.3606935753935
 20
92.43635940516449
 30
0.0
1001
GENIUS_GENOENT_13
1002
{
1000
MYREF
1005
2894
1002
}
1002
{
1000
GRP
1005
0
1002
}
1001
GENIUS_GENOBJ-N-CHA_13
1002
{
1000
OWNER
1000
GEN
1002
}
1001
GENIUS_GENODEF_13
1002
{
1000
HIER
1070
     1
1002
}
1002
{
1000
MANEDIT
1070
     0
1002
}
1002
{
1000
NOSEL
1070
     0
1002
}
1002
{
1000
BEHIND
1070
     0
1002
}
1002
{
1000
OTHER
1070
     0
1002
}
1002
{
1000
REACTOR
1002
}
1001
GENIUS_GENOLIS_13
1002
{
1000
ENT
1005
2862
1002
}
  0
LINE
  5
292A
330
1F
100
AcDbEntity
  8
0
 62
     0
100
AcDbLine
 10
175.3599417304587
 20
309.7981287249775
 30
0.0
 11
175.901441730461
 21
309.7981287249409
 31
0.0
  0
LINE
  5
292C
330
1F
100
AcDbEntity
  8
0
 62
     0
100
AcDbLine
 10
168.9014417304303
 20
318.8968701865368
 30
0.0
 11
160.4014417312432
 21
318.8968701865367
 31
0.0
  0
ARC
  5
2932
330
1F
100
AcDbEntity
  8
0
 62
     0
100
AcDbCircle
 10
162.401441731052
 20
308.3547530530148
 30
0.0
 40
0.9999999999043879
100
AcDbArc
 50
0.0
 51
59.99999999999946
  0
LINE
  5
2935
330
1F
100
AcDbEntity
  8
0
 62
     0
100
AcDbLine
 10
174.9014417304566
 20
309.2207784557487
 30
0.0
 11
175.901441730461
 21
309.7981287249409
 31
0.0
  0
ARC
  5
2939
330
1F
100
AcDbEntity
  8
0
 62
     0
100
AcDbCircle
 10
175.4014417304589
 20
308.3547530519605
 30
0.0
 40
1.000000000004388
100
AcDbArc
 50
120.0000000000005
 51
180.0
  0
LINE
  5
293A
330
1F
100
AcDbEntity
  8
0
 62
     0
100
AcDbLine
 10
177.4014417304676
 20
318.8968701865367
 30
0.0
 11
168.9014417304303
 21
318.8968701865368
 31
0.0
  0
LINE
  5
293D
330
1F
100
AcDbEntity
  8
AM_4
100
AcDbLine
 10
175.3599417304588
 20
310.8968701865015
 30
0.0
 11
175.3599417304588
 21
309.4854935541731
 31
0.0
  0
LINE
  5
293E
330
1F
100
AcDbEntity
  8
0
 62
     0
100
AcDbLine
 10
175.9014417304612
 20
310.8968701865016
 30
0.0
 11
175.9014417304612
 21
309.7981287249406
 31
0.0
  0
LINE
  5
293F
330
1F
100
AcDbEntity
  8
0
 62
     0
100
AcDbLine
 10
175.3599417304589
 20
309.7981287249772
 30
0.0
 11
175.9014417304612
 21
309.7981287249406
 31
0.0
  0
LINE
  5
2940
330
1F
100
AcDbEntity
  8
AM_0
100
AcDbLine
 10
175.3599417304589
 20
309.7981287249772
 30
0.0
 11
168.9014417304303
 21
309.7981287254141
 31
0.0
  0
LINE
  5
294E
330
1F
100
AcDbEntity
  8
0
 62
     0
100
AcDbLine
 10
162.4429417307724
 20
309.7981287258514
 30
0.0
 11
161.90144173077
 21
309.7981287258881
 31
0.0
  0
LINE
  5
294F
330
1F
100
AcDbEntity
  8
AM_4
100
AcDbLine
 10
162.4429417309209
 20
310.8968701873754
 30
0.0
 11
162.4429417307299
 21
309.4854935550469
 31
0.0
  0
LINE
  5
2950
330
1F
100
AcDbEntity
  8
0
 62
     0
100
AcDbLine
 10
161.9014417309186
 20
310.8968701874487
 30
0.0
 11
161.9014417307699
 21
309.7981287258877
 31
0.0
  0
LINE
  5
2951
330
1F
100
AcDbEntity
  8
0
 62
     0
100
AcDbLine
 10
162.4429417307722
 20
309.7981287258511
 30
0.0
 11
161.9014417307699
 21
309.7981287258877
 31
0.0
  0
LINE
  5
2952
330
1F
100
AcDbEntity
  8
AM_0
100
AcDbLine
 10
162.4429417307722
 20
309.7981287258511
 30
0.0
 11
168.9014417308007
 21
309.7981287254141
 31
0.0
  0
LINE
  5
2953
330
1F
100
AcDbEntity
  8
0
 62
     0
100
AcDbLine
 10
162.9014417298961
 20
309.2207784565606
 30
0.0
 11
161.9014417299698
 21
309.7981287258882
 31
0.0
  0
ARC
  5
2955
330
1F
100
AcDbEntity
  8
AM_0
100
AcDbCircle
 10
178.6569099051596
 20
334.7739085689643
 30
0.0
 40
1.754268068723236
100
AcDbArc
 50
8.052279597307906
 51
171.9477204026953
  0
ARC
  5
2956
330
1F
100
AcDbEntity
  8
AM_0
100
AcDbCircle
 10
172.627698997009
 20
333.5534771971414
 30
0.0
 40
2.97469944054606
100
AcDbArc
 50
19.12700048611884
 51
160.8729995138811
  0
LINE
  5
2957
330
1F
100
AcDbEntity
  8
AM_0
100
AcDbLine
 10
180.393882062361
 20
335.0196405002411
 30
0.0
 11
180.393882062361
 21
325.5281766376875
 31
0.0
  0
LINE
  5
2958
330
1F
100
AcDbEntity
  8
AM_0
100
AcDbLine
 10
169.817219009145
 20
334.5281766376875
 30
0.0
 11
169.817219009145
 21
325.5281766376875
 31
0.0
  0
LINE
  5
2959
330
1F
100
AcDbEntity
  8
AM_0
100
AcDbLine
 10
175.4381789848731
 20
334.5281766376873
 30
0.0
 11
175.4381789848731
 21
325.5281766376875
 31
0.0
  0
LINE
  5
295A
330
1F
100
AcDbEntity
  8
AM_0
100
AcDbLine
 10
176.9199377479582
 20
335.0196405002416
 30
0.0
 11
176.9199377479582
 21
325.5281766376875
 31
0.0
  0
ARC
  5
295B
330
1F
100
AcDbEntity
  8
AM_0
100
AcDbCircle
 10
179.4014417304303
 20
334.5281766376875
 30
0.0
 40
2.0
100
AcDbArc
 50
0.0
 51
90.0
1001
GENIUS_GENODEF_13
1002
{
1000
HIER
1070
     0
1002
}
1002
{
1000
MANEDIT
1070
     0
1002
}
1002
{
1000
NOSEL
1070
     0
1002
}
1002
{
1000
BEHIND
1070
     0
1002
}
1002
{
1000
REACTOR
1002
}
1001
GENIUS_GENOBJ-N-FIL_13
1002
{
1000
OWNER
1000
GEN
1002
}
  0
LINE
  5
295C
330
1F
100
AcDbEntity
  8
AM_0
100
AcDbLine
 10
179.4014417304303
 20
336.5281766376875
 30
0.0
 11
168.9014417304303
 21
336.5281766376875
 31
0.0
  0
LINE
  5
295D
330
1F
100
AcDbEntity
  8
AM_0
100
AcDbLine
 10
179.4014417304308
 20
324.5281766376872
 30
0.0
 11
168.9014417304303
 21
324.5281766376872
 31
0.0
  0
LINE
  5
295E
330
1F
100
AcDbEntity
  8
AM_0
100
AcDbLine
 10
180.9014417304302
 20
325.5281766376872
 30
0.0
 11
168.9014417304303
 21
325.5281766376875
 31
0.0
  0
LINE
  5
295F
330
1F
100
AcDbEntity
  8
AM_0
100
AcDbLine
 10
179.4014417304308
 20
325.5281766376872
 30
0.0
 11
179.4014417304308
 21
324.5281766376872
 31
0.0
  0
LINE
  5
2960
330
1F
100
AcDbEntity
  8
AM_0
100
AcDbLine
 10
181.4014417304303
 20
334.5281766376875
 30
0.0
 11
181.4014417304302
 21
326.0281766376872
 31
0.0
  0
LINE
  5
2961
330
1F
100
AcDbEntity
  8
AM_0
100
AcDbLine
 10
178.9014417304303
 20
338.5281766376875
 30
0.0
 11
168.9014417304303
 21
338.5281766376875
 31
0.0
  0
LINE
  5
2962
330
1F
100
AcDbEntity
  8
AM_0
100
AcDbLine
 10
179.4014417304303
 20
336.5281766376875
 30
0.0
 11
179.4014417304303
 21
338.0281766376875
 31
0.0
  0
LINE
  5
2963
330
1F
100
AcDbEntity
  8
AM_0
100
AcDbLine
 10
171.4014417304302
 20
324.5281766376872
 30
0.0
 11
171.9014417304302
 21
324.0281766376873
 31
0.0
1001
GENIUS_GENFIL_13
1070
     0
1040
0.5
1040
0.5
1040
0.5
1040
45.0000000000002
1000
~T
1001
GENIUS_GENOREF_13
1005
2964
  0
POINT
  5
2964
330
1F
100
AcDbEntity
  8
0
 60
     1
100
AcDbPoint
 10
-115.9796571474227
 20
85.03935940516388
 30
0.0
 50
0.0000000000001323
1001
GENIUS_GENOENT_13
1002
{
1000
MYREF
1005
2964
1002
}
1002
{
1000
GRP
1005
0
1002
}
1001
GENIUS_GENOBJ-N-CHA_13
1002
{
1000
OWNER
1000
GEN
1002
}
1001
GENIUS_GENODEF_13
1002
{
1000
HIER
1070
     1
1002
}
1002
{
1000
MANEDIT
1070
     0
1002
}
1002
{
1000
NOSEL
1070
     0
1002
}
1002
{
1000
BEHIND
1070
     0
1002
}
1002
{
1000
OTHER
1070
     0
1002
}
1002
{
1000
REACTOR
1002
}
1001
GENIUS_GENOLIS_13
1002
{
1000
ENT
1005
2963
1002
}
  0
LINE
  5
2997
330
1F
100
AcDbEntity
  8
AM_0
100
AcDbLine
 10
236.2066679458199
 20
308.3547530519601
 30
0.0
 11
236.20666794582
 21
301.0363982819906
 31
0.0
  0
LINE
  5
2998
330
1F
100
AcDbEntity
  8
AM_0
100
AcDbLine
 10
225.2066679463218
 20
308.3547530530144
 30
0.0
 11
225.2066679456397
 21
301.0363982819145
 31
0.0
  0
LINE
  5
29A7
330
1F
100
AcDbEntity
  8
AM_0
100
AcDbLine
 10
230.7066679457958
 20
283.8968701863239
 30
0.0
 11
227.2066679457958
 21
283.8968701863239
 31
0.0
  0
ARC
  5
29A8
330
1F
100
AcDbEntity
  8
AM_0
100
AcDbCircle
 10
227.2066679457957
 20
284.3968701863239
 30
0.0
 40
0.5
100
AcDbArc
 50
180.0
 51
270.0
1001
GENIUS_GENODEF_13
1002
{
1000
HIER
1070
     0
1002
}
1002
{
1000
MANEDIT
1070
     0
1002
}
1002
{
1000
NOSEL
1070
     0
1002
}
1002
{
1000
BEHIND
1070
     0
1002
}
1002
{
1000
REACTOR
1002
}
1001
GENIUS_GENOBJ-N-FIL_13
1002
{
1000
OWNER
1000
GEN
1002
}
  0
LINE
  5
29A9
330
1F
100
AcDbEntity
  8
AM_0
100
AcDbLine
 10
230.7066679457958
 20
283.8968701863239
 30
0.0
 11
234.2066679457957
 21
283.8968701863239
 31
0.0
  0
LINE
  5
29AA
330
1F
100
AcDbEntity
  8
AM_0
100
AcDbLine
 10
234.7066679457957
 20
284.3968701863239
 30
0.0
 11
234.7066679457957
 21
286.8913166868588
 31
0.0
  0
ARC
  5
29AB
330
1F
100
AcDbEntity
  8
AM_0
100
AcDbCircle
 10
234.2066679457956
 20
284.3968701863239
 30
0.0
 40
0.5
100
AcDbArc
 50
270.0
 51
0.0
1001
GENIUS_GENODEF_13
1002
{
1000
HIER
1070
     0
1002
}
1002
{
1000
MANEDIT
1070
     0
1002
}
1002
{
1000
NOSEL
1070
     0
1002
}
1002
{
1000
BEHIND
1070
     0
1002
}
1002
{
1000
REACTOR
1002
}
1001
GENIUS_GENOBJ-N-FIL_13
1002
{
1000
OWNER
1000
GEN
1002
}
  0
LINE
  5
29AC
330
1F
100
AcDbEntity
  8
AM_0
100
AcDbLine
 10
226.7066679457958
 20
284.3968701863239
 30
0.0
 11
226.7066679457958
 21
286.8913166868587
 31
0.0
  0
MTEXT
  5
2A1E
330
1F
100
AcDbEntity
  8
AM_0
100
AcDbMText
 10
213.6018202704192
 20
359.9983129286333
 30
0.0
 40
1.6
 41
32.31955848564906
 71
     1
 72
     5
  1
{\fMS PGothic|b0|i0|c128|p50;チッコロ　ストレート　CF-2208}
 73
     1
 44
1.0
1001
ACAD
1000
ACAD_MTEXT_COLUMN_INFO_BEGIN
1070
    75
1070
     2
1070
    79
1070
     0
1070
    76
1070
     1
1070
    78
1070
     0
1070
    48
1040
32.31955848564906
1070
    49
1040
8.0
1070
    50
1070
     1
1040
0.0
1000
ACAD_MTEXT_COLUMN_INFO_END
1000
MTEXTBEGIN
1070
    73
1070
     1
1070
    44
1040
1.0
1070
    74
1070
     0
1000
MTEXTEND
  0
LINE
  5
2C3A
330
1F
100
AcDbEntity
  8
AM_0
100
AcDbLine
 10
171.9014417307999
 20
318.8968701865368
 30
0.0
 11
171.9014417307999
 21
318.8968701865368
 31
0.0
  0
LINE
  5
2C3B
330
1F
100
AcDbEntity
  8
0
 62
     0
100
AcDbLine
 10
159.6514417313141
 20
318.4638574846859
 30
0.0
 11
160.4014417312424
 21
318.8968701865367
 31
0.0
  0
LINE
  5
2C3C
330
1F
100
AcDbEntity
  8
0
 62
     0
100
AcDbLine
 10
168.9014417304295
 20
318.8968701865368
 30
0.0
 11
160.4014417312424
 21
318.8968701865367
 31
0.0
  0
LINE
  5
2C3D
330
1F
100
AcDbEntity
  8
0
 62
     0
100
AcDbLine
 10
159.6508513263005
 20
313.118558096324
 30
0.0
 11
160.4007440652235
 21
312.6853596660786
 31
0.0
  0
LINE
  5
2C3E
330
1F
100
AcDbEntity
  8
0
 62
     0
100
AcDbLine
 10
160.9014417307563
 20
312.3968701867975
 30
0.0
 11
159.6514417308758
 21
313.1185580232155
 31
0.0
  0
LINE
  5
2C3F
330
1F
100
AcDbEntity
  8
0
 62
     0
100
AcDbLine
 10
160.9014417307563
 20
312.3968701867975
 30
0.0
 11
160.9014417311946
 21
310.8968701873016
 31
0.0
  0
LINE
  5
2C40
330
1F
100
AcDbEntity
  8
0
 62
     0
100
AcDbLine
 10
160.9014417311946
 20
310.8968701873016
 30
0.0
 11
168.9014417304295
 21
310.8968701865014
 31
0.0
  0
LINE
  5
2C41
330
1F
100
AcDbEntity
  8
0
 62
     0
100
AcDbLine
 10
159.6514417313141
 20
318.4638574846859
 30
0.0
 11
159.6514417299572
 21
313.1185580244773
 31
0.0
  0
LINE
  5
2C42
330
1F
100
AcDbEntity
  8
0
 62
     0
100
AcDbLine
 10
177.4014417304667
 20
318.8968701865367
 30
0.0
 11
178.1514417304701
 21
318.4638574846425
 31
0.0
  0
LINE
  5
2C43
330
1F
100
AcDbEntity
  8
0
 62
     0
100
AcDbLine
 10
176.9014417300263
 20
312.3968701862052
 30
0.0
 11
178.1514417300317
 21
313.1185580226954
 31
0.0
  0
LINE
  5
2C44
330
1F
100
AcDbEntity
  8
0
 62
     0
100
AcDbLine
 10
176.9014417304647
 20
310.8968701865016
 30
0.0
 11
168.9014417304295
 21
310.8968701865014
 31
0.0
  0
LINE
  5
2C45
330
1F
100
AcDbEntity
  8
0
 62
     0
100
AcDbLine
 10
176.9014417305392
 20
312.3968701865014
 30
0.0
 11
176.9014417304647
 21
310.8968701865016
 31
0.0
  0
LINE
  5
2C46
330
1F
100
AcDbEntity
  8
0
 62
     0
100
AcDbLine
 10
178.1514417304701
 20
318.4638574846425
 30
0.0
 11
178.1514417304701
 21
313.1185580229485
 31
0.0
  0
LINE
  5
2C47
330
1F
100
AcDbEntity
  8
0
 62
     0
100
AcDbLine
 10
177.4014417304668
 20
318.8968701865367
 30
0.0
 11
168.9014417304295
 21
318.8968701865368
 31
0.0
  0
LINE
  5
2C48
330
1F
100
AcDbEntity
  8
AM_0
100
AcDbLine
 10
174.3738735947659
 20
318.4638574846514
 30
0.0
 11
174.3738735943274
 21
313.1185580226865
 31
0.0
  0
LINE
  5
2C49
330
1F
100
AcDbEntity
  8
AM_0
100
AcDbLine
 10
172.679009866095
 20
318.4638574846514
 30
0.0
 11
172.6790098660949
 21
313.1185580226865
 31
0.0
  0
LINE
  5
2C4A
330
1F
100
AcDbEntity
  8
AM_0
100
AcDbLine
 10
163.4290098660932
 20
318.4638574835972
 30
0.0
 11
163.4290098650637
 21
313.1185580237407
 31
0.0
  0
LINE
  5
2C4B
330
1F
100
AcDbEntity
  8
AM_0
100
AcDbLine
 10
165.1238735947642
 20
318.4638574839237
 30
0.0
 11
165.1238735910999
 21
313.1185580234142
 31
0.0
  0
ARC
  5
2C4C
330
1F
100
AcDbEntity
  8
AM_0
100
AcDbCircle
 10
168.9014417303914
 20
302.2027628808439
 30
0.0
 40
16.69410730569285
100
AcDbArc
 50
76.92175184739949
 51
103.0782481523327
  0
ARC
  5
2C4D
330
1F
100
AcDbEntity
  8
AM_0
100
AcDbCircle
 10
176.2626576626089
 20
314.5609635969812
 30
0.0
 40
4.335906589555475
100
AcDbArc
 50
64.17559387687216
 51
115.8244061228554
  0
LINE
  5
2C4E
330
1F
100
AcDbEntity
  8
AM_0
100
AcDbLine
 10
174.3738735947659
 20
318.4638574846514
 30
0.0
 11
172.679009866095
 21
318.4638574846514
 31
0.0
  0
ARC
  5
2C4F
330
1F
100
AcDbEntity
  8
AM_0
100
AcDbCircle
 10
161.5402257990088
 20
314.5609635955632
 30
0.0
 40
4.335906589555475
100
AcDbArc
 50
64.17559388818007
 51
115.8244061341663
  0
LINE
  5
2C50
330
1F
100
AcDbEntity
  8
AM_0
100
AcDbLine
 10
163.4290098661
 20
318.4638574835972
 30
0.0
 11
165.1238735947709
 21
318.4638574839237
 31
0.0
  0
ARC
  5
2C51
330
1F
100
AcDbEntity
  8
AM_0
100
AcDbCircle
 10
168.901441729953
 20
329.379652626494
 30
0.0
 40
16.69410730569285
100
AcDbArc
 50
256.9217518476673
 51
283.0782481526005
  0
ARC
  5
2C52
330
1F
100
AcDbEntity
  8
AM_0
100
AcDbCircle
 10
176.2626576621705
 20
317.0214519103566
 30
0.0
 40
4.335906589555475
100
AcDbArc
 50
244.1755938771402
 51
295.8244061231308
  0
LINE
  5
2C53
330
1F
100
AcDbEntity
  8
AM_0
100
AcDbLine
 10
174.3738735943275
 20
313.1185580226865
 30
0.0
 11
172.6790098656566
 21
313.1185580226865
 31
0.0
  0
ARC
  5
2C54
330
1F
100
AcDbEntity
  8
AM_0
100
AcDbCircle
 10
161.5402257985705
 20
317.0214519117747
 30
0.0
 40
4.335906589555475
100
AcDbArc
 50
244.1755938658337
 51
295.8244061118199
  0
LINE
  5
2C55
330
1F
100
AcDbEntity
  8
AM_0
100
AcDbLine
 10
163.4290098656616
 20
313.1185580237407
 30
0.0
 11
165.1238735943325
 21
313.1185580234142
 31
0.0
  0
LINE
  5
2C56
330
1F
100
AcDbEntity
  8
AM_0
100
AcDbLine
 10
176.9014417300263
 20
312.3968701862052
 30
0.0
 11
160.9014417307563
 21
312.3968701867975
 31
0.0
  0
LINE
  5
2C57
330
1F
100
AcDbEntity
  8
0
 62
     0
100
AcDbLine
 10
230.7066679457958
 20
318.8968701865366
 30
0.0
 11
222.7066679465609
 21
318.8968701865365
 31
0.0
  0
LINE
  5
2C58
330
1F
100
AcDbEntity
  8
0
 62
     0
100
AcDbLine
 10
222.7066679465609
 20
312.3968701865012
 30
0.0
 11
222.7066679465609
 21
310.8968701873015
 31
0.0
  0
LINE
  5
2C59
330
1F
100
AcDbEntity
  8
0
 62
     0
100
AcDbLine
 10
222.7066679465609
 20
310.8968701873015
 30
0.0
 11
230.7066679457958
 21
310.8968701865013
 31
0.0
  0
LINE
  5
2C5A
330
1F
100
AcDbEntity
  8
0
 62
     0
100
AcDbLine
 10
238.7066679458309
 20
310.8968701865015
 30
0.0
 11
230.7066679457958
 21
310.8968701865013
 31
0.0
  0
LINE
  5
2C5B
330
1F
100
AcDbEntity
  8
0
 62
     0
100
AcDbLine
 10
238.7066679458309
 20
312.3968701869632
 30
0.0
 11
238.7066679458309
 21
310.8968701865015
 31
0.0
  0
LINE
  5
2C5C
330
1F
100
AcDbEntity
  8
0
 62
     0
100
AcDbLine
 10
238.7066679450308
 20
318.8968701865365
 30
0.0
 11
230.7066679457958
 21
318.8968701865366
 31
0.0
  0
LINE
  5
2C5D
330
1F
100
AcDbEntity
  8
AM_0
100
AcDbLine
 10
238.7066679458309
 20
312.3968701859089
 30
0.0
 11
222.7066679465609
 21
312.3968701865012
 31
0.0
  0
LINE
  5
2C5E
330
1F
100
AcDbEntity
  8
AM_0
100
AcDbLine
 10
222.2066679457958
 20
318.4638574846857
 30
0.0
 11
222.7066679465609
 21
318.8968701865365
 31
0.0
  0
ARC
  5
2C5F
330
1F
100
AcDbEntity
  8
AM_0
100
AcDbCircle
 10
226.4566679457662
 20
306.3221631192202
 30
0.0
 40
12.57470706731631
100
AcDbArc
 50
74.92028252247374
 51
105.0797174772499
  0
LINE
  5
2C60
330
1F
100
AcDbEntity
  8
AM_0
100
AcDbLine
 10
229.7281379158079
 20
318.4638574846673
 30
0.0
 11
231.6851979757836
 21
318.4638574846673
 31
0.0
  0
LINE
  5
2C61
330
1F
100
AcDbEntity
  8
AM_0
100
AcDbLine
 10
229.7281379158076
 20
313.1185580222755
 30
0.0
 11
229.7281379158079
 21
318.4638574846673
 31
0.0
  0
LINE
  5
2C62
330
1F
100
AcDbEntity
  8
AM_0
100
AcDbLine
 10
231.6851979760029
 20
313.1185580222756
 30
0.0
 11
231.6851979760029
 21
318.4638574846673
 31
0.0
  0
LINE
  5
2C63
330
1F
100
AcDbEntity
  8
AM_0
100
AcDbLine
 10
223.1851979757837
 20
318.4638574846833
 30
0.0
 11
222.2066679457958
 21
318.4638574846833
 31
0.0
  0
LINE
  5
2C64
330
1F
100
AcDbEntity
  8
AM_0
100
AcDbLine
 10
223.1851979757837
 20
318.4638574846833
 30
0.0
 11
223.1851979757838
 21
313.1185580222596
 31
0.0
  0
LINE
  5
2C65
330
1F
100
AcDbEntity
  8
AM_0
100
AcDbLine
 10
222.2066679457958
 20
318.4638574846833
 30
0.0
 11
222.2066679457958
 21
312.8298828880559
 31
0.0
  0
ARC
  5
2C66
330
1F
100
AcDbEntity
  8
AM_0
100
AcDbCircle
 10
226.4566679457662
 20
325.2602523877227
 30
0.0
 40
12.57470706731631
100
AcDbArc
 50
254.9202825227502
 51
285.0797174775262
  0
LINE
  5
2C67
330
1F
100
AcDbEntity
  8
AM_0
100
AcDbLine
 10
223.1851979757837
 20
313.1185580222596
 30
0.0
 11
222.2066679457958
 21
313.1185580222596
 31
0.0
  0
LINE
  5
2C68
330
1F
100
AcDbEntity
  8
AM_0
100
AcDbLine
 10
229.7281379158078
 20
313.1185580222755
 30
0.0
 11
231.6851979760029
 21
313.1185580222755
 31
0.0
  0
ARC
  5
2C69
330
1F
100
AcDbEntity
  8
AM_0
100
AcDbCircle
 10
234.9566679448944
 20
306.3221631189056
 30
0.0
 40
12.57470706731631
100
AcDbArc
 50
74.92028251850683
 51
105.0797174732829
  0
LINE
  5
2C6A
330
1F
100
AcDbEntity
  8
AM_0
100
AcDbLine
 10
238.2281379157759
 20
318.4638574841265
 30
0.0
 11
239.2066679457637
 21
318.463857484054
 31
0.0
  0
LINE
  5
2C6B
330
1F
100
AcDbEntity
  8
AM_0
100
AcDbLine
 10
238.2281379157757
 20
318.4638574841265
 30
0.0
 11
238.2281379155993
 21
313.1185580217027
 31
0.0
  0
ARC
  5
2C6C
330
1F
100
AcDbEntity
  8
AM_0
100
AcDbCircle
 10
234.9566679463393
 20
325.260252387408
 30
0.0
 40
12.57470706731631
100
AcDbArc
 50
254.9202825182303
 51
285.0797174730064
  0
LINE
  5
2C6D
330
1F
100
AcDbEntity
  8
AM_0
100
AcDbLine
 10
238.2281379154229
 20
313.1185580217027
 30
0.0
 11
239.2066679454107
 21
313.1185580216302
 31
0.0
  0
LINE
  5
2C6E
330
1F
100
AcDbEntity
  8
AM_0
100
AcDbLine
 10
239.2066679457958
 20
318.4638574846857
 30
0.0
 11
238.7066679450308
 21
318.8968701865365
 31
0.0
  0
LINE
  5
2C6F
330
1F
100
AcDbEntity
  8
AM_0
100
AcDbLine
 10
239.2066679457958
 20
318.4638574846833
 30
0.0
 11
239.2066679457958
 21
312.8298828880559
 31
0.0
  0
LINE
  5
2C70
330
1F
100
AcDbEntity
  8
0
100
AcDbLine
 10
176.9014417304647
 20
312.3968701865014
 30
0.0
 11
160.9014417311946
 21
312.3968701865014
 31
0.0
  0
LINE
  5
2C71
330
1F
100
AcDbEntity
  8
AM_0
100
AcDbLine
 10
222.2066679457958
 20
312.8298828880559
 30
0.0
 11
222.7066679465609
 21
312.3968701862051
 31
0.0
  0
LINE
  5
2C72
330
1F
100
AcDbEntity
  8
AM_0
100
AcDbLine
 10
239.2066679457958
 20
312.8298828880559
 30
0.0
 11
238.7066679450307
 21
312.3968701862051
 31
0.0
  0
LINE
  5
2E69
330
1F
100
AcDbEntity
  8
AM_4
100
AcDbLine
 10
153.9014417304306
 20
288.8259326363247
 30
0.0
 11
155.4014417304306
 21
288.0468701863246
 31
0.0
  0
LINE
  5
2E6A
330
1F
100
AcDbEntity
  8
AM_0
100
AcDbLine
 10
153.9014417304308
 20
288.8259326363246
 30
0.0
 11
153.9014417304308
 21
288.0468701863246
 31
0.0
  0
LINE
  5
2E6B
330
1F
100
AcDbEntity
  8
AM_0
100
AcDbLine
 10
155.4014417304306
 20
288.0468701863246
 30
0.0
 11
153.4723792804306
 21
288.0468701863247
 31
0.0
  0
LINE
  5
2E6C
330
1F
100
AcDbEntity
  8
AM_0
100
AcDbLine
 10
153.9014417304308
 20
288.8259326363246
 30
0.0
 11
153.4723792804304
 21
288.8259326363248
 31
0.0
  0
LINE
  5
2E83
330
1F
100
AcDbEntity
  8
AM_4
100
AcDbLine
 10
153.9014417304306
 20
299.9678077363231
 30
0.0
 11
155.4014417304306
 21
300.7468701863232
 31
0.0
  0
LINE
  5
2E84
330
1F
100
AcDbEntity
  8
AM_0
100
AcDbLine
 10
153.9014417304308
 20
299.9678077363232
 30
0.0
 11
153.9014417304308
 21
300.7468701863232
 31
0.0
  0
LINE
  5
2E85
330
1F
100
AcDbEntity
  8
AM_0
100
AcDbLine
 10
155.4014417304306
 20
300.7468701863232
 30
0.0
 11
153.472379280428
 21
300.746870186323
 31
0.0
  0
LINE
  5
2E86
330
1F
100
AcDbEntity
  8
AM_0
100
AcDbLine
 10
153.9014417304308
 20
299.9678077363232
 30
0.0
 11
153.4723792804282
 21
299.9678077363231
 31
0.0
  0
LINE
  5
2E89
330
1F
100
AcDbEntity
  8
AM_0
100
AcDbLine
 10
153.9014417304308
 20
299.9678077363232
 30
0.0
 11
153.9014417304317
 21
288.8259326363246
 31
0.0
  0
LINE
  5
2E8B
330
1F
100
AcDbEntity
  8
AM_0
100
AcDbLine
 10
201.8396964855958
 20
287.8014353567701
 30
0.0
 11
201.8396964855967
 21
294.3968701863211
 31
0.0
  0
LINE
  5
2E8C
330
1F
100
AcDbEntity
  8
AM_0
100
AcDbLine
 10
201.8396964855958
 20
287.8014353567701
 30
0.0
 11
202.3305041804302
 21
288.396870186321
 31
0.0
1001
GENIUS_GENFIL_13
1070
     0
1040
0.5
1040
0.5
1040
0.5000000000000569
1040
39.49822957412166
1000
~T
1001
GENIUS_GENOREF_13
1005
2EB3
  0
LINE
  5
2E8D
330
1F
100
AcDbEntity
  8
AM_0
100
AcDbLine
 10
192.5713148018755
 20
289.4893928982107
 30
0.0
 11
185.0896935589852
 21
289.4893928982119
 31
0.0
  0
LINE
  5
2E8E
330
1F
100
AcDbEntity
  8
AM_0
100
AcDbLine
 10
202.330504180431
 20
294.396870186321
 30
0.0
 11
202.3305041804302
 21
288.396870186321
 31
0.0
  0
LINE
  5
2E8F
330
1F
100
AcDbEntity
  8
AM_0
100
AcDbLine
 10
201.8396964855958
 20
287.8014353567701
 30
0.0
 11
193.3305041804299
 21
286.1468701863225
 31
0.0
  0
LINE
  5
2E90
330
1F
100
AcDbEntity
  8
0
100
AcDbLine
 10
193.3305041804297
 20
286.1468701863224
 30
0.0
 11
192.4269772345773
 21
284.581915610099
 31
0.0
  0
ARC
  5
2E91
330
1F
100
AcDbEntity
  8
0
100
AcDbCircle
 10
188.9856055081108
 20
287.0356542541553
 30
0.0
 40
4.344898672319208
100
AcDbArc
 50
344.4640759408112
 51
34.38424746803455
  0
LINE
  5
2E92
330
1F
100
AcDbEntity
  8
0
100
AcDbLine
 10
193.3305041804299
 20
286.1468701863227
 30
0.0
 11
193.330504180431
 21
294.3968701863225
 31
0.0
  0
ARC
  5
2E93
330
1F
100
AcDbEntity
  8
0
100
AcDbCircle
 10
177.0896935589853
 20
294.3968701863246
 30
0.0
 40
16.24081062144566
100
AcDbArc
 50
342.4120462259976
 51
359.9999999999923
  0
LINE
  5
2E94
330
1F
100
AcDbEntity
  8
0
100
AcDbLine
 10
184.3305041804299
 20
286.1468701863238
 30
0.0
 11
184.3305041804311
 21
294.3968701863237
 31
0.0
  0
LINE
  5
2E95
330
1F
100
AcDbEntity
  8
0
100
AcDbLine
 10
192.4269772345773
 20
284.581915610099
 30
0.0
 11
185.234031126282
 21
284.5819156100999
 31
0.0
  0
ARC
  5
2E96
330
1F
100
AcDbEntity
  8
0
100
AcDbCircle
 10
188.6754028527493
 20
287.0356542541554
 30
0.0
 40
4.344898672319208
100
AcDbArc
 50
145.6157525319498
 51
195.5359240591737
  0
ARC
  5
2E97
330
1F
100
AcDbEntity
  8
0
100
AcDbCircle
 10
200.5713148018768
 20
294.3968701863215
 30
0.0
 40
16.24081062144566
100
AcDbArc
 50
179.9999999999922
 51
197.5879537739865
  0
LINE
  5
2E98
330
1F
100
AcDbEntity
  8
0
100
AcDbLine
 10
184.3305041804301
 20
286.1468701863236
 30
0.0
 11
185.2340311262821
 21
284.5819156100999
 31
0.0
  0
LINE
  5
2E99
330
1F
100
AcDbEntity
  8
AM_4
100
AcDbLine
 10
183.9014417304259
 20
288.8259326363218
 30
0.0
 11
182.4014417304258
 21
288.046870186322
 31
0.0
  0
LINE
  5
2E9A
330
1F
100
AcDbEntity
  8
AM_0
100
AcDbLine
 10
183.9014417304257
 20
288.8259326363217
 30
0.0
 11
183.9014417304256
 21
288.0468701863218
 31
0.0
  0
LINE
  5
2E9B
330
1F
100
AcDbEntity
  8
AM_0
100
AcDbLine
 10
182.4014417304258
 20
288.046870186322
 30
0.0
 11
184.3305041804302
 21
288.0468701863218
 31
0.0
  0
LINE
  5
2E9C
330
1F
100
AcDbEntity
  8
AM_0
100
AcDbLine
 10
183.9014417304257
 20
288.8259326363217
 30
0.0
 11
184.3305041804303
 21
288.8259326363217
 31
0.0
  0
LINE
  5
2E9E
330
1F
100
AcDbEntity
  8
AM_0
100
AcDbLine
 10
201.8396964855984
 20
300.9923050158687
 30
0.0
 11
201.8396964855967
 21
294.3968701863177
 31
0.0
  0
LINE
  5
2E9F
330
1F
100
AcDbEntity
  8
AM_0
100
AcDbLine
 10
201.8396964855984
 20
300.9923050158687
 30
0.0
 11
202.3305041804325
 21
300.3968701863175
 31
0.0
1001
GENIUS_GENFIL_13
1070
     0
1040
0.5
1040
0.5
1040
0.5000000000000569
1040
39.49822957412166
1000
~T
1001
GENIUS_GENOREF_13
1005
2EB2
  0
LINE
  5
2EA0
330
1F
100
AcDbEntity
  8
AM_0
100
AcDbLine
 10
192.5713148018774
 20
299.3043474744316
 30
0.0
 11
185.0896935589871
 21
299.3043474744333
 31
0.0
  0
LINE
  5
2EA1
330
1F
100
AcDbEntity
  8
AM_0
100
AcDbLine
 10
202.330504180431
 20
294.3968701863176
 30
0.0
 11
202.3305041804325
 21
300.3968701863175
 31
0.0
  0
LINE
  5
2EA2
330
1F
100
AcDbEntity
  8
AM_0
100
AcDbLine
 10
201.8396964855984
 20
300.9923050158687
 30
0.0
 11
193.3305041804331
 21
302.6468701863196
 31
0.0
  0
LINE
  5
2EA3
330
1F
100
AcDbEntity
  8
0
100
AcDbLine
 10
193.3305041804329
 20
302.6468701863197
 30
0.0
 11
192.4269772345811
 21
304.2118247625434
 31
0.0
  0
ARC
  5
2EA4
330
1F
100
AcDbEntity
  8
0
100
AcDbCircle
 10
188.9856055081136
 20
301.7580861184884
 30
0.0
 40
4.344898672319208
100
AcDbArc
 50
325.615752531943
 51
15.53592405916948
  0
LINE
  5
2EA5
330
1F
100
AcDbEntity
  8
0
100
AcDbLine
 10
193.3305041804331
 20
302.6468701863195
 30
0.0
 11
193.330504180431
 21
294.3968701863196
 31
0.0
  0
ARC
  5
2EA6
330
1F
100
AcDbEntity
  8
0
100
AcDbCircle
 10
177.0896935589853
 20
294.3968701863236
 30
0.0
 40
16.24081062144566
100
AcDbArc
 50
359.9999999999825
 51
17.58795377397949
  0
LINE
  5
2EA7
330
1F
100
AcDbEntity
  8
0
100
AcDbLine
 10
184.3305041804331
 20
302.6468701863217
 30
0.0
 11
184.3305041804311
 21
294.3968701863219
 31
0.0
  0
LINE
  5
2EA8
330
1F
100
AcDbEntity
  8
0
100
AcDbLine
 10
192.4269772345811
 20
304.2118247625434
 30
0.0
 11
185.2340311262858
 21
304.2118247625452
 31
0.0
  0
ARC
  5
2EA9
330
1F
100
AcDbEntity
  8
0
100
AcDbCircle
 10
188.6754028527521
 20
301.7580861184884
 30
0.0
 40
4.344898672319208
100
AcDbArc
 50
164.4640759408012
 51
214.3842474680276
  0
ARC
  5
2EAA
330
1F
100
AcDbEntity
  8
0
100
AcDbCircle
 10
200.5713148018768
 20
294.3968701863178
 30
0.0
 40
16.24081062144566
100
AcDbArc
 50
162.4120462259914
 51
179.9999999999825
  0
LINE
  5
2EAB
330
1F
100
AcDbEntity
  8
0
100
AcDbLine
 10
184.3305041804333
 20
302.6468701863219
 30
0.0
 11
185.2340311262858
 21
304.2118247625452
 31
0.0
  0
LINE
  5
2EAC
330
1F
100
AcDbEntity
  8
AM_4
100
AcDbLine
 10
183.901441730428
 20
299.9678077363203
 30
0.0
 11
182.4014417304282
 21
300.7468701863206
 31
0.0
  0
LINE
  5
2EAD
330
1F
100
AcDbEntity
  8
AM_0
100
AcDbLine
 10
183.9014417304278
 20
299.9678077363204
 30
0.0
 11
183.901441730428
 21
300.7468701863203
 31
0.0
  0
LINE
  5
2EAE
330
1F
100
AcDbEntity
  8
AM_0
100
AcDbLine
 10
182.4014417304282
 20
300.7468701863206
 30
0.0
 11
184.3305041804327
 21
300.7468701863202
 31
0.0
  0
LINE
  5
2EAF
330
1F
100
AcDbEntity
  8
AM_0
100
AcDbLine
 10
183.9014417304278
 20
299.9678077363204
 30
0.0
 11
184.3305041804325
 21
299.9678077363201
 31
0.0
  0
LINE
  5
2EB1
330
1F
100
AcDbEntity
  8
AM_0
100
AcDbLine
 10
183.9014417304278
 20
299.9678077363204
 30
0.0
 11
183.9014417304248
 21
288.8259326363217
 31
0.0
  0
POINT
  5
2EB2
330
1F
100
AcDbEntity
  8
0
 60
     1
100
AcDbPoint
 10
26.06827316849814
 20
518.1460911467771
 30
0.0
 50
359.9999999999858
1001
GENIUS_GENODEF_13
1002
{
1000
HIER
1070
     1
1002
}
1002
{
1000
MANEDIT
1070
     0
1002
}
1002
{
1000
NOSEL
1070
     0
1002
}
1002
{
1000
BEHIND
1070
     0
1002
}
1002
{
1000
REACTOR
1002
}
1001
GENIUS_GENOBJ-N-CHA_13
1002
{
1000
OWNER
1000
GEN
1002
}
1001
GENIUS_GENOENT_13
1002
{
1000
MYREF
1005
2EB2
1002
}
1002
{
1000
GRP
1005
0
1002
}
1001
GENIUS_GENOLIS_13
1002
{
1000
ENT
1005
2E9F
1002
}
  0
POINT
  5
2EB3
330
1F
100
AcDbEntity
  8
0
 60
     1
100
AcDbPoint
 10
26.06827316841231
 20
70.64764922592551
 30
0.0
 50
359.9999999999923
1001
GENIUS_GENODEF_13
1002
{
1000
HIER
1070
     1
1002
}
1002
{
1000
MANEDIT
1070
     0
1002
}
1002
{
1000
NOSEL
1070
     0
1002
}
1002
{
1000
BEHIND
1070
     0
1002
}
1002
{
1000
REACTOR
1002
}
1001
GENIUS_GENOBJ-N-CHA_13
1002
{
1000
OWNER
1000
GEN
1002
}
1001
GENIUS_GENOENT_13
1002
{
1000
MYREF
1005
2EB3
1002
}
1002
{
1000
GRP
1005
0
1002
}
1001
GENIUS_GENOLIS_13
1002
{
1000
ENT
1005
2E8C
1002
}
  0
LINE
  5
2F19
330
1F
100
AcDbEntity
  8
AM_7
100
AcDbLine
 10
221.3096679457958
 20
294.3968701863239
 30
0.0
 11
240.1036679457958
 21
294.3968701863239
 31
0.0
1001
GENIUS_GENODEF_13
1002
{
1000
HIER
1070
     0
1002
}
1002
{
1000
MANEDIT
1070
     0
1002
}
1002
{
1000
NOSEL
1070
     0
1002
}
1002
{
1000
BEHIND
1070
     0
1002
}
1002
{
1000
OTHER
1070
     0
1002
}
1002
{
1000
REACTOR
1002
}
1001
GENIUS_GENOBJ-N-CEN_13
1002
{
1000
OWNER
1000
GEN
1002
}
  0
CIRCLE
  5
2F22
330
1F
100
AcDbEntity
  8
AM_0
100
AcDbCircle
 10
230.7066679457958
 20
294.3968701863239
 30
0.0
 40
1.796111759494124
  0
CIRCLE
  5
2F23
330
1F
100
AcDbEntity
  8
AM_0
100
AcDbCircle
 10
230.7066679457957
 20
294.3968701863239
 30
0.0
 40
3.000000000000113
  0
CIRCLE
  5
2F24
330
1F
100
AcDbEntity
  8
AM_0
100
AcDbCircle
 10
230.7066679457957
 20
294.3968701863239
 30
0.0
 40
3.999999999999886
  0
CIRCLE
  5
2F25
330
1F
100
AcDbEntity
  8
AM_0
100
AcDbCircle
 10
230.7066679457957
 20
294.3968701863239
 30
0.0
 40
8.249999999999658
  0
CIRCLE
  5
2F26
330
1F
100
AcDbEntity
  8
AM_0
100
AcDbCircle
 10
230.7066679457957
 20
294.3968701863239
 30
0.0
 40
5.999999999999886
  0
CIRCLE
  5
2F27
330
1F
100
AcDbEntity
  8
AM_0
100
AcDbCircle
 10
230.7066679457958
 20
294.3968701863239
 30
0.0
 40
6.595434829550981
  0
POLYLINE
  5
2F28
330
1F
100
AcDbEntity
  8
AM_0
100
AcDb2dPolyline
 66
     1
 10
0.0
 20
0.0
 30
0.0
  0
VERTEX
  5
2F2A
330
2F28
100
AcDbEntity
  8
AM_0
100
AcDbVertex
100
AcDb2dVertex
 10
222.2066679457957
 20
289.4893928982122
 30
0.0
  0
VERTEX
  5
2F2B
330
2F28
100
AcDbEntity
  8
AM_0
100
AcDbVertex
100
AcDb2dVertex
 10
230.7066679457957
 20
284.5819156101003
 30
0.0
  0
VERTEX
  5
2F2C
330
2F28
100
AcDbEntity
  8
AM_0
100
AcDbVertex
100
AcDb2dVertex
 10
239.2066679457957
 20
289.489392898212
 30
0.0
  0
VERTEX
  5
2F2D
330
2F28
100
AcDbEntity
  8
AM_0
100
AcDbVertex
100
AcDb2dVertex
 10
239.2066679457957
 20
299.3043474744357
 30
0.0
  0
VERTEX
  5
2F2E
330
2F28
100
AcDbEntity
  8
AM_0
100
AcDbVertex
100
AcDb2dVertex
 10
230.7066679457957
 20
304.2118247625476
 30
0.0
  0
VERTEX
  5
2F2F
330
2F28
100
AcDbEntity
  8
AM_0
100
AcDbVertex
100
AcDb2dVertex
 10
222.2066679457957
 20
299.3043474744358
 30
0.0
  0
VERTEX
  5
2F30
330
2F28
100
AcDbEntity
  8
AM_0
100
AcDbVertex
100
AcDb2dVertex
 10
222.2066679457957
 20
289.4893928982122
 30
0.0
  0
SEQEND
  5
2F29
330
2F28
100
AcDbEntity
  8
AM_0
  0
POLYLINE
  5
2F31
330
1F
100
AcDbEntity
  8
AM_0
100
AcDb2dPolyline
 66
     1
 10
0.0
 20
0.0
 30
0.0
  0
VERTEX
  5
2F33
330
2F31
100
AcDbEntity
  8
AM_0
100
AcDbVertex
100
AcDb2dVertex
 10
230.7066679457957
 20
284.5819156101003
 30
0.0
  0
VERTEX
  5
2F34
330
2F31
100
AcDbEntity
  8
AM_0
100
AcDbVertex
100
AcDb2dVertex
 10
239.2066679457957
 20
289.489392898212
 30
0.0
  0
VERTEX
  5
2F35
330
2F31
100
AcDbEntity
  8
AM_0
100
AcDbVertex
100
AcDb2dVertex
 10
239.2066679457957
 20
299.3043474744357
 30
0.0
  0
VERTEX
  5
2F36
330
2F31
100
AcDbEntity
  8
AM_0
100
AcDbVertex
100
AcDb2dVertex
 10
230.7066679457957
 20
304.2118247625476
 30
0.0
  0
VERTEX
  5
2F37
330
2F31
100
AcDbEntity
  8
AM_0
100
AcDbVertex
100
AcDb2dVertex
 10
222.2066679457957
 20
299.3043474744358
 30
0.0
  0
VERTEX
  5
2F38
330
2F31
100
AcDbEntity
  8
AM_0
100
AcDbVertex
100
AcDb2dVertex
 10
222.2066679457957
 20
289.4893928982122
 30
0.0
  0
SEQEND
  5
2F32
330
2F31
100
AcDbEntity
  8
AM_0
  0
LINE
  5
2F3A
330
1F
100
AcDbEntity
  8
AM_0
100
AcDbLine
 10
156.4014417304303
 20
334.5281766376873
 30
0.0
 11
157.4090013984996
 21
334.5281766376875
 31
0.0
  0
LINE
  5
2F3B
330
1F
100
AcDbEntity
  8
AM_0
100
AcDbLine
 10
160.8829457129024
 20
334.5281766376873
 30
0.0
 11
162.3647044759875
 21
334.5281766376876
 31
0.0
  0
LINE
  5
2F3C
330
1F
100
AcDbEntity
  8
AM_0
100
AcDbLine
 10
167.9856644517156
 20
334.5281766376873
 30
0.0
 11
169.817219009145
 21
334.5281766376876
 31
0.0
  0
LINE
  5
2F3D
330
1F
100
AcDbEntity
  8
AM_0
100
AcDbLine
 10
175.4381789848731
 20
334.5281766376873
 30
0.0
 11
176.9199377479582
 21
334.5281766376873
 31
0.0
  0
LINE
  5
2F3E
330
1F
100
AcDbEntity
  8
AM_0
100
AcDbLine
 10
180.393882062361
 20
334.5281766376873
 30
0.0
 11
181.4014417304303
 21
334.5281766376873
 31
0.0
  0
LINE
  5
2F3F
330
1F
100
AcDbEntity
  8
AM_0
100
AcDbLine
 10
218.2066679457957
 20
334.5281766376873
 30
0.0
 11
221.2281683627183
 21
334.5281766376872
 31
0.0
  0
LINE
  5
2F40
330
1F
100
AcDbEntity
  8
AM_0
100
AcDbLine
 10
226.009642509786
 20
334.5281766376873
 30
0.0
 11
227.7515544065789
 21
334.5281766376873
 31
0.0
  0
LINE
  5
2F41
330
1F
100
AcDbEntity
  8
AM_0
100
AcDbLine
 10
233.6617814850125
 20
334.5281766376873
 30
0.0
 11
235.4036933818056
 21
334.5281766376873
 31
0.0
  0
LINE
  5
2F42
330
1F
100
AcDbEntity
  8
AM_0
100
AcDbLine
 10
240.1851675288732
 20
334.5281766376872
 30
0.0
 11
243.2066679457964
 21
334.5281766376872
 31
0.0
  0
ARC
  5
2F43
330
1F
100
AcDbEntity
  8
AM_0
100
AcDbCircle
 10
158.9014417304303
 20
338.0281766376875
 30
0.0
 40
0.5
100
AcDbArc
 50
90.0
 51
180.0
  0
ARC
  5
2F44
330
1F
100
AcDbEntity
  8
AM_0
100
AcDbCircle
 10
178.9014417304303
 20
338.0281766376875
 30
0.0
 40
0.5
100
AcDbArc
 50
0.0
 51
90.0
  0
LINE
  5
2F45
330
1F
100
AcDbEntity
  8
AM_0
100
AcDbLine
 10
158.9014417304303
 20
338.5281766376875
 30
0.0
 11
168.9014417304303
 21
338.5281766376875
 31
0.0
  0
ARC
  5
2F46
330
1F
100
AcDbEntity
  8
AM_0
100
AcDbCircle
 10
180.9014417304302
 20
326.0281766376872
 30
0.0
 40
0.5
100
AcDbArc
 50
269.9999999999985
 51
359.9999999999995
  0
ARC
  5
2F47
330
1F
100
AcDbEntity
  8
AM_0
100
AcDbCircle
 10
156.9014417304304
 20
326.0281766376872
 30
0.0
 40
0.5
100
AcDbArc
 50
180.0000000000007
 51
270.0000000000016
  0
ARC
  5
2F48
330
1F
100
AcDbEntity
  8
AM_0
100
AcDbCircle
 10
240.7066679457963
 20
338.0281766376875
 30
0.0
 40
0.5
100
AcDbArc
 50
0.0000000000032569
 51
90.0
  0
ARC
  5
2F49
330
1F
100
AcDbEntity
  8
AM_0
100
AcDbCircle
 10
220.7066679457957
 20
338.0281766376875
 30
0.0
 40
0.5
100
AcDbArc
 50
90.0
 51
180.0
  0
ARC
  5
2F4A
330
1F
100
AcDbEntity
  8
AM_0
100
AcDbCircle
 10
242.7066679457968
 20
326.0281766376879
 30
0.0
 40
0.5
100
AcDbArc
 50
270.0000000000015
 51
0.0000000000025317
  0
ARC
  5
2F4B
330
1F
100
AcDbEntity
  8
AM_0
100
AcDbCircle
 10
218.7066679457958
 20
326.0281766376872
 30
0.0
 40
0.5
100
AcDbArc
 50
180.0000000000007
 51
270.0000000000016
  0
LINE
  5
2F4C
330
1F
100
AcDbEntity
  8
AM_7
100
AcDbLine
 10
168.9014417304303
 20
373.6167006836677
 30
0.0
 11
168.9014417304303
 21
345.8227006836677
 31
0.0
1001
GENIUS_GENODEF_13
1002
{
1000
HIER
1070
     0
1002
}
1002
{
1000
MANEDIT
1070
     0
1002
}
1002
{
1000
NOSEL
1070
     0
1002
}
1002
{
1000
BEHIND
1070
     0
1002
}
1002
{
1000
OTHER
1070
     0
1002
}
1002
{
1000
REACTOR
1002
}
1001
GENIUS_GENOBJ-N-CEN_13
1002
{
1000
OWNER
1000
GEN
1002
}
1001
GENIUS_GENCEN_19
1002
{
1040
1.397
1002
}
  0
LINE
  5
2F4D
330
1F
100
AcDbEntity
  8
AM_7
100
AcDbLine
 10
180.7984417304303
 20
359.7197006836677
 30
0.0
 11
157.0060907450565
 21
359.7197006836678
 31
0.0
1001
GENIUS_GENOBJ-N-CEN_13
1002
{
1000
OWNER
1000
GEN
1002
}
1001
GENIUS_GENODEF_13
1002
{
1000
HIER
1070
     0
1002
}
1002
{
1000
MANEDIT
1070
     0
1002
}
1002
{
1000
NOSEL
1070
     0
1002
}
1002
{
1000
BEHIND
1070
     0
1002
}
1002
{
1000
OTHER
1070
     0
1002
}
1002
{
1000
REACTOR
1002
}
1001
GENIUS_GENCEN_19
1002
{
1040
1.397
1002
}
  0
LINE
  5
302A
330
1F
100
AcDbEntity
  8
AM_0
100
AcDbLine
 10
163.4014417304304
 20
308.3547854788002
 30
0.0
 11
163.4014417304304
 21
304.0395474012201
 31
0.0
  0
ARC
  5
302B
330
1F
100
AcDbEntity
  8
AM_0
100
AcDbCircle
 10
162.4014417304304
 20
304.0395474012201
 30
0.0
 40
1.0
100
AcDbArc
 50
283.9314171779244
 51
0.0
  0
LINE
  5
302C
330
1F
100
AcDbEntity
  8
AM_0
100
AcDbLine
 10
174.4014417304304
 20
308.3547530519872
 30
0.0
 11
174.4014417304304
 21
302.3968701863513
 31
0.0
  0
ARC
  5
302D
330
1F
100
AcDbEntity
  8
AM_0
100
AcDbCircle
 10
175.4014417304304
 20
302.3968701863513
 30
0.0
 40
1.0
100
AcDbArc
 50
180.0
 51
270.0
  0
LINE
  5
302E
330
1F
100
AcDbEntity
  8
AM_0
100
AcDbLine
 10
163.4014417309561
 20
308.3547530530124
 30
0.0
 11
174.4014417304542
 21
308.3547530519872
 31
0.0
  0
LINE
  5
302F
330
1F
100
AcDbEntity
  8
AM_0
100
AcDbLine
 10
182.4014417304301
 20
301.3968701863513
 30
0.0
 11
182.4014417304311
 21
287.5031484671863
 31
0.0
  0
LINE
  5
3030
330
1F
100
AcDbEntity
  8
AM_0
 62
     0
100
AcDbLine
 10
169.2580879245551
 20
297.5943556169098
 30
0.0
 11
170.5031031118263
 21
293.7625928715117
 31
0.0
  0
LINE
  5
3031
330
1F
100
AcDbEntity
  8
AM_0
 62
     0
100
AcDbLine
 10
168.544795537405
 20
297.5943556169098
 30
0.0
 11
167.2997803501337
 21
293.7625928715117
 31
0.0
  0
LINE
  5
3032
330
1F
100
AcDbEntity
  8
AM_0
 62
     0
100
AcDbLine
 10
168.2117996757947
 20
293.2643334579524
 30
0.0
 11
169.5910837861654
 21
293.2643334579524
 31
0.0
  0
ARC
  5
3033
330
1F
100
AcDbEntity
  8
AM_0
 62
     0
100
AcDbCircle
 10
168.9014417309801
 20
289.4393334583349
 30
0.0
 40
2.999999999699999
100
AcDbArc
 50
55.822409278222
 51
124.177590721778
  0
ARC
  5
3034
330
1F
100
AcDbEntity
  8
AM_0
 62
     0
100
AcDbCircle
 10
168.9014417309801
 20
295.536833457725
 30
0.0
 40
0.149999999985
100
AcDbArc
 50
17.99999999999898
 51
162.000000000001
  0
ARC
  5
3035
330
1F
100
AcDbEntity
  8
AM_0
 62
     0
100
AcDbCircle
 10
166.7651512460091
 20
293.1284742444658
 30
0.0
 40
0.3749999999625
100
AcDbArc
 50
90.0
 51
195.0000000000011
  0
LINE
  5
3036
330
1F
100
AcDbEntity
  8
AM_0
 62
     0
100
AcDbLine
 10
166.4029290611869
 20
293.031417102562
 30
0.0
 11
166.6432800502984
 21
292.1344149995487
 31
0.0
  0
LINE
  5
3037
330
1F
100
AcDbEntity
  8
AM_0
 62
     0
100
AcDbLine
 10
166.6432800502984
 20
292.1344149995487
 30
0.0
 11
166.4029290611869
 21
293.031417102562
 31
0.0
  0
LINE
  5
3038
330
1F
100
AcDbEntity
  8
AM_0
 62
     0
100
AcDbLine
 10
166.9431341565587
 20
293.5034742444282
 30
0.0
 11
166.7651512460091
 21
293.5034742444282
 31
0.0
  0
ARC
  5
3039
330
1F
100
AcDbEntity
  8
AM_0
 62
     0
100
AcDbCircle
 10
167.0055022351205
 20
292.2314721414525
 30
0.0
 40
0.3749999999625
100
AcDbArc
 50
194.999999999998
 51
304.1775907217779
  0
ARC
  5
303A
330
1F
100
AcDbEntity
  8
AM_0
 62
     0
100
AcDbCircle
 10
168.2117996757947
 20
293.4143334579374
 30
0.0
 40
0.149999999985
100
AcDbArc
 50
162.000000000001
 51
270.0
  0
LINE
  5
303B
330
1F
100
AcDbEntity
  8
AM_0
 62
     0
100
AcDbLine
 10
166.7651512460091
 20
293.5034742444283
 30
0.0
 11
166.9431341565587
 21
293.5034742444283
 31
0.0
  0
ARC
  5
303C
330
1F
100
AcDbEntity
  8
AM_0
 62
     0
100
AcDbCircle
 10
166.9431341565587
 20
293.8784742443908
 30
0.0
 40
0.3749999999625
100
AcDbArc
 50
270.0
 51
342.000000000001
  0
LINE
  5
303D
330
1F
100
AcDbEntity
  8
AM_0
 62
     0
100
AcDbLine
 10
166.6432800502983
 20
292.1344149995487
 30
0.0
 11
166.4029290611869
 21
293.031417102562
 31
0.0
  0
ARC
  5
303E
330
1F
100
AcDbEntity
  8
AM_0
 62
     0
100
AcDbCircle
 10
166.7651512460091
 20
293.1284742444658
 30
0.0
 40
0.3749999999625
100
AcDbArc
 50
90.0
 51
195.0000000000011
  0
LINE
  5
303F
330
1F
100
AcDbEntity
  8
AM_0
 62
     0
100
AcDbLine
 10
168.75878325355
 20
295.5831860068767
 30
0.0
 11
168.0691411983646
 21
293.4606860070889
 31
0.0
  0
LINE
  5
3040
330
1F
100
AcDbEntity
  8
AM_0
 62
     0
100
AcDbLine
 10
169.04410020841
 20
295.5831860068767
 30
0.0
 11
169.7337422635954
 21
293.4606860070889
 31
0.0
  0
ARC
  5
3041
330
1F
100
AcDbEntity
  8
AM_0
 62
     0
100
AcDbCircle
 10
170.7973812268396
 20
292.2314721414525
 30
0.0
 40
0.3749999999625
100
AcDbArc
 50
235.822409278222
 51
345.000000000002
  0
ARC
  5
3042
330
1F
100
AcDbEntity
  8
AM_0
 62
     0
100
AcDbCircle
 10
170.8597493054013
 20
293.8784742443907
 30
0.0
 40
0.3749999999625
100
AcDbArc
 50
197.9999999999989
 51
270.0
  0
ARC
  5
3043
330
1F
100
AcDbEntity
  8
AM_0
 62
     0
100
AcDbCircle
 10
169.5910837861654
 20
293.4143334579374
 30
0.0
 40
0.149999999985
100
AcDbArc
 50
270.0
 51
17.99999999999898
  0
LINE
  5
3044
330
1F
100
AcDbEntity
  8
AM_0
 62
     0
100
AcDbLine
 10
170.8597493054013
 20
293.5034742444282
 30
0.0
 11
171.037732215951
 21
293.5034742444282
 31
0.0
  0
LINE
  5
3045
330
1F
100
AcDbEntity
  8
AM_0
 62
     0
100
AcDbLine
 10
171.1596034116617
 20
292.1344149995487
 30
0.0
 11
171.3999544007731
 21
293.031417102562
 31
0.0
  0
LINE
  5
3046
330
1F
100
AcDbEntity
  8
AM_0
 62
     0
100
AcDbLine
 10
171.3999544007731
 20
293.031417102562
 30
0.0
 11
171.1596034116617
 21
292.1344149995487
 31
0.0
  0
ARC
  5
3047
330
1F
100
AcDbEntity
  8
AM_0
 62
     0
100
AcDbCircle
 10
171.037732215951
 20
293.1284742444658
 30
0.0
 40
0.3749999999625
100
AcDbArc
 50
344.9999999999989
 51
90.0
  0
ARC
  5
3048
330
1F
100
AcDbEntity
  8
AM_0
 62
     0
100
AcDbCircle
 10
168.9014417309801
 20
297.4784742440308
 30
0.0
 40
0.3749999999625
100
AcDbArc
 50
17.99999999999898
 51
162.000000000001
  0
ARC
  5
3049
330
1F
100
AcDbEntity
  8
AM_0
 62
     0
100
AcDbCircle
 10
174.4014417304247
 20
299.9471639716496
 30
0.0
 40
1.889572893129809
100
AcDbArc
 50
90.0
 51
180.0
  0
LINE
  5
304A
330
1F
100
AcDbEntity
  8
AM_0
 62
     0
100
AcDbLine
 10
165.2910146235656
 20
299.9471639716496
 30
0.0
 11
165.2910146235655
 21
288.7828462456953
 31
0.0
  0
ARC
  5
304B
330
1F
100
AcDbEntity
  8
AM_0
 62
     0
100
AcDbCircle
 10
163.4014417304357
 20
288.7828462456954
 30
0.0
 40
1.889572893129809
100
AcDbArc
 50
310.2249957735891
 51
0.0
  0
ARC
  5
304C
330
1F
100
AcDbEntity
  8
AM_0
 62
     0
100
AcDbCircle
 10
163.4014417304358
 20
299.9471639716496
 30
0.0
 40
1.889572893129809
100
AcDbArc
 50
0.0
 51
90.0
  0
LINE
  5
304D
330
1F
100
AcDbEntity
  8
AM_0
 62
     0
100
AcDbLine
 10
172.511868837295
 20
299.9471639716496
 30
0.0
 11
172.511868837295
 21
288.7828462456953
 31
0.0
  0
ARC
  5
304E
330
1F
100
AcDbEntity
  8
AM_0
 62
     0
100
AcDbCircle
 10
174.4014417304248
 20
288.7828462456954
 30
0.0
 40
1.889572893129809
100
AcDbArc
 50
180.0
 51
229.775004226411
  0
ARC
  5
304F
330
1F
100
AcDbEntity
  8
AM_0
100
AcDbCircle
 10
177.4014417304303
 20
290.3968701863511
 30
0.0
 40
1.0
100
AcDbArc
 50
180.0
 51
270.0000000000033
  0
ARC
  5
3050
330
1F
100
AcDbEntity
  8
AM_0
100
AcDbCircle
 10
177.4014417304303
 20
298.396870186351
 30
0.0
 40
1.0
100
AcDbArc
 50
90.00000000000325
 51
180.0
  0
ARC
  5
3051
330
1F
100
AcDbEntity
  8
AM_0
100
AcDbCircle
 10
160.4014417304303
 20
290.396870186351
 30
0.0
 40
1.0
100
AcDbArc
 50
270.0
 51
0.0
  0
ARC
  5
3052
330
1F
100
AcDbEntity
  8
AM_0
100
AcDbCircle
 10
160.4014417304303
 20
298.396870186351
 30
0.0
 40
1.0
100
AcDbArc
 50
0.0
 51
90.0
  0
LINE
  5
3053
330
1F
100
AcDbEntity
  8
AM_0
100
AcDbLine
 10
182.4014417304302
 20
299.3968701863514
 30
0.0
 11
177.4014417304303
 21
299.396870186351
 31
0.0
  0
LINE
  5
3054
330
1F
100
AcDbEntity
  8
AM_0
100
AcDbLine
 10
182.401441730431
 20
289.3968701863514
 30
0.0
 11
177.4014417304304
 21
289.396870186351
 31
0.0
  0
LINE
  5
3055
330
1F
100
AcDbEntity
  8
AM_0
100
AcDbLine
 10
160.4014417304303
 20
299.396870186351
 30
0.0
 11
155.401441730237
 21
299.3968701863509
 31
0.0
  0
LINE
  5
3056
330
1F
100
AcDbEntity
  8
AM_0
100
AcDbLine
 10
160.4014417304303
 20
289.396870186351
 30
0.0
 11
155.4014417303981
 21
289.396870186351
 31
0.0
  0
LINE
  5
3057
330
1F
100
AcDbEntity
  8
AM_0
100
AcDbLine
 10
182.4014417304302
 20
301.3968701863513
 30
0.0
 11
175.4014417304304
 21
301.3968701863513
 31
0.0
  0
LINE
  5
3058
330
1F
100
AcDbEntity
  8
AM_0
100
AcDbLine
 10
155.4014417302068
 20
301.2728416988417
 30
0.0
 11
162.6422020128375
 21
303.068962790578
 31
0.0
  0
LINE
  5
3059
330
1F
100
AcDbEntity
  8
AM_0
100
AcDbLine
 10
155.4014417304303
 20
287.3968701863513
 30
0.0
 11
163.9014417304302
 21
287.3968701863513
 31
0.0
  0
LINE
  5
305A
330
1F
100
AcDbEntity
  8
AM_0
 62
     0
100
AcDbLine
 10
165.4014417304299
 20
283.8968701862189
 30
0.0
 11
172.4014417304299
 21
283.8968701862189
 31
0.0
  0
ARC
  5
305B
330
1F
100
AcDbEntity
  8
AM_0
 62
     0
100
AcDbCircle
 10
165.4014417304299
 20
284.3968701862189
 30
0.0
 40
0.5
100
AcDbArc
 50
180.0
 51
270.0
  0
LINE
  5
305C
330
1F
100
AcDbEntity
  8
AM_0
100
AcDbLine
 10
172.9014417304303
 20
284.3968701863508
 30
0.0
 11
172.9014417304303
 21
284.6740770981258
 31
0.0
  0
ARC
  5
305D
330
1F
100
AcDbEntity
  8
AM_0
100
AcDbCircle
 10
172.4014417304302
 20
284.3968701863508
 30
0.0
 40
0.5
100
AcDbArc
 50
270.0
 51
0.0
1001
GENIUS_GENODEF_13
1002
{
1000
HIER
1070
     0
1002
}
1002
{
1000
MANEDIT
1070
     0
1002
}
1002
{
1000
NOSEL
1070
     0
1002
}
1002
{
1000
BEHIND
1070
     0
1002
}
1002
{
1000
REACTOR
1002
}
1001
GENIUS_GENOBJ-N-FIL_13
1002
{
1000
OWNER
1000
GEN
1002
}
  0
ARC
  5
305E
330
1F
100
AcDbEntity
  8
AM_0
100
AcDbCircle
 10
163.9014417304302
 20
286.3968701863513
 30
0.0
 40
1.000000000000013
100
AcDbArc
 50
0.0
 51
90.0
  0
LINE
  5
305F
330
1F
100
AcDbEntity
  8
AM_0
100
AcDbLine
 10
164.9014417304302
 20
286.3968701863513
 30
0.0
 11
164.9014417304299
 21
284.3968701862189
 31
0.0
  0
LINE
  5
3060
330
1F
100
AcDbEntity
  8
AM_0
100
AcDbLine
 10
173.6935300396125
 20
285.6522246988596
 30
0.0
 11
182.4014417304311
 21
287.5031484671863
 31
0.0
  0
ARC
  5
3061
330
1F
100
AcDbEntity
  8
AM_0
100
AcDbCircle
 10
173.9014417304303
 20
284.6740770981258
 30
0.0
 40
1.0
100
AcDbArc
 50
102.0000000000014
 51
180.0
  0
LINE
  5
3062
330
1F
100
AcDbEntity
  8
AM_0
100
AcDbLine
 10
155.4014417302068
 20
301.2728416988417
 30
0.0
 11
155.4014417304303
 21
287.3968701863513
 31
0.0
  0
LINE
  5
3063
330
1F
100
AcDbEntity
  8
AM_0
100
AcDbLine
 10
176.4014417304303
 20
298.396870186351
 30
0.0
 11
176.4014417304303
 21
290.3968701863511
 31
0.0
  0
LINE
  5
3064
330
1F
100
AcDbEntity
  8
AM_0
100
AcDbLine
 10
161.4014417304303
 20
298.396870186351
 30
0.0
 11
161.4014417304303
 21
290.396870186351
 31
0.0
  0
LINE
  5
3124
330
1F
100
AcDbEntity
  8
AM_0
100
AcDbLine
 10
135.963186975265
 20
287.8014353567699
 30
0.0
 11
135.963186975264
 21
294.396870186321
 31
0.0
  0
LINE
  5
3125
330
1F
100
AcDbEntity
  8
AM_0
100
AcDbLine
 10
135.963186975265
 20
287.8014353567699
 30
0.0
 11
135.4723792804306
 21
288.396870186321
 31
0.0
1001
GENIUS_GENFIL_13
1070
     0
1040
0.5
1040
0.5
1040
0.5000000000000569
1040
39.49822957412166
1000
~T
1001
GENIUS_GENOREF_13
1005
3141
  0
LINE
  5
3126
330
1F
100
AcDbEntity
  8
AM_0
100
AcDbLine
 10
145.2315686589853
 20
289.4893928982106
 30
0.0
 11
152.7131899018755
 21
289.4893928982119
 31
0.0
  0
LINE
  5
3127
330
1F
100
AcDbEntity
  8
AM_0
100
AcDbLine
 10
135.4723792804297
 20
294.3968701863209
 30
0.0
 11
135.4723792804306
 21
288.396870186321
 31
0.0
  0
LINE
  5
3128
330
1F
100
AcDbEntity
  8
AM_0
100
AcDbLine
 10
135.963186975265
 20
287.8014353567699
 30
0.0
 11
144.4723792804309
 21
286.1468701863225
 31
0.0
  0
LINE
  5
3129
330
1F
100
AcDbEntity
  8
0
100
AcDbLine
 10
144.4723792804311
 20
286.1468701863223
 30
0.0
 11
145.3759062262834
 21
284.581915610099
 31
0.0
  0
ARC
  5
312A
330
1F
100
AcDbEntity
  8
0
100
AcDbCircle
 10
148.81727795275
 20
287.0356542541553
 30
0.0
 40
4.344898672319208
100
AcDbArc
 50
145.6157525319658
 51
195.535924059189
  0
LINE
  5
312B
330
1F
100
AcDbEntity
  8
0
100
AcDbLine
 10
144.4723792804309
 20
286.1468701863226
 30
0.0
 11
144.4723792804297
 21
294.3968701863224
 31
0.0
  0
ARC
  5
312C
330
1F
100
AcDbEntity
  8
0
100
AcDbCircle
 10
160.7131899018754
 20
294.3968701863246
 30
0.0
 40
16.24081062144566
100
AcDbArc
 50
180.0000000000079
 51
197.587953774003
  0
LINE
  5
312D
330
1F
100
AcDbEntity
  8
0
100
AcDbLine
 10
153.4723792804308
 20
286.1468701863238
 30
0.0
 11
153.4723792804297
 21
294.3968701863236
 31
0.0
  0
LINE
  5
312E
330
1F
100
AcDbEntity
  8
0
100
AcDbLine
 10
145.3759062262834
 20
284.581915610099
 30
0.0
 11
152.5688523345787
 21
284.5819156100999
 31
0.0
  0
ARC
  5
312F
330
1F
100
AcDbEntity
  8
0
100
AcDbCircle
 10
149.1274806081115
 20
287.0356542541553
 30
0.0
 40
4.344898672319208
100
AcDbArc
 50
344.4640759408261
 51
34.38424746805054
  0
ARC
  5
3130
330
1F
100
AcDbEntity
  8
0
100
AcDbCircle
 10
137.2315686589839
 20
294.3968701863214
 30
0.0
 40
16.24081062144566
100
AcDbArc
 50
342.4120462260137
 51
0.0000000000079016
  0
LINE
  5
3131
330
1F
100
AcDbEntity
  8
0
100
AcDbLine
 10
153.4723792804307
 20
286.1468701863235
 30
0.0
 11
152.5688523345787
 21
284.5819156100999
 31
0.0
  0
LINE
  5
3132
330
1F
100
AcDbEntity
  8
AM_0
100
AcDbLine
 10
135.9631869752624
 20
300.9923050158686
 30
0.0
 11
135.963186975264
 21
294.3968701863176
 31
0.0
  0
LINE
  5
3133
330
1F
100
AcDbEntity
  8
AM_0
100
AcDbLine
 10
135.9631869752624
 20
300.9923050158686
 30
0.0
 11
135.4723792804283
 21
300.3968701863174
 31
0.0
1001
GENIUS_GENFIL_13
1070
     0
1040
0.5
1040
0.5
1040
0.5000000000000569
1040
39.49822957412166
1000
~T
1001
GENIUS_GENOREF_13
1005
3140
  0
LINE
  5
3134
330
1F
100
AcDbEntity
  8
AM_0
100
AcDbLine
 10
145.2315686589834
 20
299.3043474744315
 30
0.0
 11
152.7131899018736
 21
299.3043474744332
 31
0.0
  0
LINE
  5
3135
330
1F
100
AcDbEntity
  8
AM_0
100
AcDbLine
 10
135.4723792804297
 20
294.3968701863175
 30
0.0
 11
135.4723792804283
 21
300.3968701863174
 31
0.0
  0
LINE
  5
3136
330
1F
100
AcDbEntity
  8
AM_0
100
AcDbLine
 10
135.9631869752624
 20
300.9923050158686
 30
0.0
 11
144.4723792804277
 21
302.6468701863195
 31
0.0
  0
LINE
  5
3137
330
1F
100
AcDbEntity
  8
0
100
AcDbLine
 10
144.4723792804278
 20
302.6468701863196
 30
0.0
 11
145.3759062262796
 21
304.2118247625434
 31
0.0
  0
ARC
  5
3138
330
1F
100
AcDbEntity
  8
0
100
AcDbCircle
 10
148.8172779527471
 20
301.7580861184884
 30
0.0
 40
4.344898672319208
100
AcDbArc
 50
164.4640759408309
 51
214.3842474680571
  0
LINE
  5
3139
330
1F
100
AcDbEntity
  8
0
100
AcDbLine
 10
144.4723792804277
 20
302.6468701863194
 30
0.0
 11
144.4723792804297
 21
294.3968701863196
 31
0.0
  0
ARC
  5
313A
330
1F
100
AcDbEntity
  8
0
100
AcDbCircle
 10
160.7131899018754
 20
294.3968701863235
 30
0.0
 40
16.24081062144566
100
AcDbArc
 50
162.4120462260211
 51
180.0000000000176
  0
LINE
  5
313B
330
1F
100
AcDbEntity
  8
0
100
AcDbLine
 10
153.4723792804276
 20
302.6468701863216
 30
0.0
 11
153.4723792804297
 21
294.3968701863218
 31
0.0
  0
LINE
  5
313C
330
1F
100
AcDbEntity
  8
0
100
AcDbLine
 10
145.3759062262796
 20
304.2118247625434
 30
0.0
 11
152.5688523345749
 21
304.2118247625452
 31
0.0
  0
ARC
  5
313D
330
1F
100
AcDbEntity
  8
0
100
AcDbCircle
 10
149.1274806081086
 20
301.7580861184884
 30
0.0
 40
4.344898672319208
100
AcDbArc
 50
325.6157525319724
 51
15.53592405919924
  0
ARC
  5
313E
330
1F
100
AcDbEntity
  8
0
100
AcDbCircle
 10
137.2315686589839
 20
294.3968701863176
 30
0.0
 40
16.24081062144566
100
AcDbArc
 50
0.0000000000176723
 51
17.58795377400862
  0
LINE
  5
313F
330
1F
100
AcDbEntity
  8
0
100
AcDbLine
 10
153.4723792804274
 20
302.6468701863219
 30
0.0
 11
152.5688523345749
 21
304.2118247625452
 31
0.0
  0
POINT
  5
3140
330
1F
100
AcDbEntity
  8
0
 60
     1
100
AcDbPoint
 10
311.7346102923621
 20
518.1460911467775
 30
0.0
 50
180.0000000000144
1001
GENIUS_GENODEF_13
1002
{
1000
HIER
1070
     1
1002
}
1002
{
1000
MANEDIT
1070
     0
1002
}
1002
{
1000
NOSEL
1070
     0
1002
}
1002
{
1000
BEHIND
1070
     0
1002
}
1002
{
1000
REACTOR
1002
}
1001
GENIUS_GENOBJ-N-CHA_13
1002
{
1000
OWNER
1000
GEN
1002
}
1001
GENIUS_GENOENT_13
1002
{
1000
MYREF
1005
3140
1002
}
1002
{
1000
GRP
1005
0
1002
}
1001
GENIUS_GENOLIS_13
1002
{
1000
ENT
1005
3133
1002
}
  0
POINT
  5
3141
330
1F
100
AcDbEntity
  8
0
 60
     1
100
AcDbPoint
 10
311.7346102924491
 20
70.64764922592589
 30
0.0
 50
180.0000000000079
1001
GENIUS_GENODEF_13
1002
{
1000
HIER
1070
     1
1002
}
1002
{
1000
MANEDIT
1070
     0
1002
}
1002
{
1000
NOSEL
1070
     0
1002
}
1002
{
1000
BEHIND
1070
     0
1002
}
1002
{
1000
REACTOR
1002
}
1001
GENIUS_GENOBJ-N-CHA_13
1002
{
1000
OWNER
1000
GEN
1002
}
1001
GENIUS_GENOENT_13
1002
{
1000
MYREF
1005
3141
1002
}
1002
{
1000
GRP
1005
0
1002
}
1001
GENIUS_GENOLIS_13
1002
{
1000
ENT
1005
3125
1002
}
  0
ENDSEC
  0
SECTION
  2
OBJECTS
  0
DICTIONARY
  5
C
330
0
100
AcDbDictionary
281
     1
  3
ACAD_COLOR
350
1AD8
  3
ACAD_GROUP
350
D
  3
ACAD_LAYOUT
350
1A
  3
ACAD_MATERIAL
350
1AC3
  3
ACAD_MLEADERSTYLE
350
277B
  3
ACAD_MLINESTYLE
350
17
  3
ACAD_PLOTSETTINGS
350
19
  3
ACAD_PLOTSTYLENAME
350
E
  3
ACAD_SCALELIST
350
2769
  3
ACAD_TABLESTYLE
350
1AD9
  3
ACAD_VISUALSTYLE
350
1AC7
  3
ACDB_RECOMPOSE_DATA
350
3197
  3
AcDbVariableDictionary
350
34
  3
AcmDictionary
350
43
  3
AMG
350
2B
  3
AMGSNAPSETTINGS
350
74
  3
DWGPROPS
350
3198
  0
DICTIONARY
  5
1D17
330
8
100
AcDbDictionary
280
     1
281
     1
  0
DICTIONARY
  5
242B
330
2
100
AcDbDictionary
280
     1
281
     1
  3
ACAD_LAYERSTATES
360
27F7
  3
AMLAYER_GROUPCOLORS
360
242C
  0
DICTIONARY
  5
2A29
330
10
100
AcDbDictionary
280
     1
281
     1
  3
ADSK_XREC_LAYER_RECONCILED
360
2A2A
  0
DICTIONARY
  5
2A2B
330
59
100
AcDbDictionary
280
     1
281
     1
  3
ADSK_XREC_LAYER_RECONCILED
360
2A2C
  0
DICTIONARY
  5
2A2D
330
5A
100
AcDbDictionary
280
     1
281
     1
  3
ADSK_XREC_LAYER_RECONCILED
360
2A2E
  0
DICTIONARY
  5
2A2F
330
24D
100
AcDbDictionary
280
     1
281
     1
  3
ADSK_XREC_LAYER_RECONCILED
360
2A30
  0
DICTIONARY
  5
2A31
330
280
100
AcDbDictionary
280
     1
281
     1
  3
ADSK_XREC_LAYER_RECONCILED
360
2A32
  0
DICTIONARY
  5
2A33
330
2C6
100
AcDbDictionary
280
     1
281
     1
  3
ADSK_XREC_LAYER_RECONCILED
360
2A34
  0
DICTIONARY
  5
2A35
330
2C7
100
AcDbDictionary
280
     1
281
     1
  3
ADSK_XREC_LAYER_RECONCILED
360
2A36
  0
DICTIONARY
  5
2A37
330
2C8
100
AcDbDictionary
280
     1
281
     1
  3
ADSK_XREC_LAYER_RECONCILED
360
2A38
  0
DICTIONARY
  5
2A39
330
2C9
100
AcDbDictionary
280
     1
281
     1
  3
ADSK_XREC_LAYER_RECONCILED
360
2A3A
  0
DICTIONARY
  5
2A3B
330
5A5
100
AcDbDictionary
280
     1
281
     1
  3
ADSK_XREC_LAYER_RECONCILED
360
2A3C
  0
DICTIONARY
  5
2A3D
330
782
100
AcDbDictionary
280
     1
281
     1
  3
ADSK_XREC_LAYER_RECONCILED
360
2A3E
  0
DICTIONARY
  5
2A3F
330
BFA
100
AcDbDictionary
280
     1
281
     1
  3
ADSK_XREC_LAYER_RECONCILED
360
2A40
  0
DICTIONARY
  5
2A41
330
C47
100
AcDbDictionary
280
     1
281
     1
  3
ADSK_XREC_LAYER_RECONCILED
360
2A42
  0
DICTIONARY
  5
C9
330
1F
100
AcDbDictionary
280
     1
281
     1
  3
ACAD_SORTENTS
360
2660
  0
DICTIONARY
  5
1CBB
330
1C8A
100
AcDbDictionary
280
     1
281
     1
  0
DICTIONARY
  5
28E2
330
2896
100
AcDbDictionary
280
     1
281
     1
  3
ACAD_SORTENTS
360
28E3
  0
DICTIONARY
  5
307A
330
306C
100
AcDbDictionary
280
     1
281
     1
  3
ACAD_SORTENTS
360
307B
  0
DICTIONARY
  5
1AD8
102
{ACAD_REACTORS
330
C
102
}
330
C
100
AcDbDictionary
281
     1
  0
DICTIONARY
  5
D
102
{ACAD_REACTORS
330
C
102
}
330
C
100
AcDbDictionary
281
     1
  0
DICTIONARY
  5
1A
102
{ACAD_REACTORS
330
C
102
}
330
C
100
AcDbDictionary
281
     1
  3
Model
350
22
  3
ﾚｲｱｳﾄ1
350
1E
  3
ﾚｲｱｳﾄ2
350
26
  0
DICTIONARY
  5
1AC3
102
{ACAD_REACTORS
330
C
102
}
330
C
100
AcDbDictionary
281
     1
  3
ByBlock
350
1AC5
  3
ByLayer
350
1AC4
  3
Global
350
1AC6
  0
DICTIONARY
  5
277B
102
{ACAD_REACTORS
330
C
102
}
330
C
100
AcDbDictionary
281
     1
  3
Standard
350
277C
  0
DICTIONARY
  5
17
102
{ACAD_REACTORS
330
C
102
}
330
C
100
AcDbDictionary
281
     1
  3
Standard
350
18
  0
DICTIONARY
  5
19
102
{ACAD_REACTORS
330
C
102
}
330
C
100
AcDbDictionary
281
     1
  0
ACDBDICTIONARYWDFLT
  5
E
102
{ACAD_REACTORS
330
C
102
}
330
C
100
AcDbDictionary
281
     1
  3
Normal
350
F
100
AcDbDictionaryWithDefault
340
F
  0
DICTIONARY
  5
2769
102
{ACAD_REACTORS
330
C
102
}
330
C
100
AcDbDictionary
281
     1
  3
A0
350
276A
  3
A1
350
276B
  3
A2
350
276C
  3
A3
350
276D
  3
A4
350
276E
  3
A5
350
276F
  3
A6
350
2770
  3
A7
350
2771
  3
A8
350
2772
  3
A9
350
2773
  3
B0
350
2774
  3
B1
350
2775
  3
B2
350
2776
  3
B3
350
2777
  3
B4
350
2778
  3
B5
350
2779
  3
B6
350
277A
  0
DICTIONARY
  5
1AD9
102
{ACAD_REACTORS
330
C
102
}
330
C
100
AcDbDictionary
281
     1
  3
Standard
350
1ADA
  0
DICTIONARY
  5
1AC7
102
{ACAD_REACTORS
330
C
102
}
330
C
100
AcDbDictionary
281
     1
  3
2dWireframe
350
1ACD
  3
3D Hidden
350
1ACF
  3
3dWireframe
350
1ACE
  3
Basic
350
1ACC
  3
Brighten
350
1AD3
  3
ColorChange
350
1AD7
  3
Conceptual
350
1AD0
  3
Dim
350
1AD2
  3
EdgeColorOff
350
2768
  3
Facepattern
350
1AD6
  3
Flat
350
1AC8
  3
FlatWithEdges
350
1AC9
  3
Gouraud
350
1ACA
  3
GouraudWithEdges
350
1ACB
  3
Hidden
350
2760
  3
JitterOff
350
2766
  3
Linepattern
350
1AD5
  3
OverhangOff
350
2767
  3
Realistic
350
1AD1
  3
Shaded
350
2765
  3
Shaded with edges
350
2764
  3
Shades of Gray
350
2761
  3
Sketchy
350
2762
  3
Thicken
350
1AD4
  3
Wireframe
350
275F
  3
X-Ray
350
2763
  0
XRECORD
  5
3197
102
{ACAD_REACTORS
330
C
102
}
330
C
100
AcDbXrecord
280
     1
 90
        1
330
1ADA
330
2A1E
  0
DICTIONARY
  5
34
102
{ACAD_REACTORS
330
C
102
}
330
C
100
AcDbDictionary
281
     1
  3
CANNOSCALE
350
2A99
  3
CMLEADERSTYLE
350
2A98
  3
CTABLESTYLE
350
1D4A
  3
DIMASSOC
350
3195
  3
INDEXCTL
350
35
  3
SORTENTS
350
17E2
  3
XCLIPFRAME
350
3194
  0
DICTIONARY
  5
43
102
{ACAD_REACTORS
330
C
102
}
330
C
100
AcDbDictionary
281
     1
  3
AcmBOM
350
1435
  3
AcmStdDictionary
350
15F
  3
AMDTSECTSYM_ARROWCOLOR
350
1B3B
  0
DICTIONARY
  5
2B
102
{ACAD_REACTORS
330
C
102
}
330
C
100
AcDbDictionary
281
     1
  0
DICTIONARY
  5
74
102
{ACAD_REACTORS
330
C
102
}
330
C
100
AcDbDictionary
281
     1
  0
XRECORD
  5
3198
102
{ACAD_REACTORS
330
C
102
}
330
C
100
AcDbXrecord
280
     1
  1
DWGPROPS COOKIE
  2

  3

  4

  6

  7

  8
user
  9

300
AmdtFileType=84
301
=
302
=
303
=
304
=
305
=
306
=
307
=
308
=
309
=
 40
0.2760802662037037
 41
2453060.746216852
 42
2455715.486509873
  1

 90
        1
  0
DICTIONARY
  5
27F7
102
{ACAD_REACTORS
330
242B
102
}
330
242B
100
AcDbDictionary
281
     1
  0
DICTIONARY
  5
242C
102
{ACAD_REACTORS
330
242B
102
}
330
242B
100
AcDbDictionary
280
     1
281
     1
  0
XRECORD
  5
2A2A
102
{ACAD_REACTORS
330
2A29
102
}
330
2A29
100
AcDbXrecord
280
     1
290
     1
  0
XRECORD
  5
2A2C
102
{ACAD_REACTORS
330
2A2B
102
}
330
2A2B
100
AcDbXrecord
280
     1
290
     1
  0
XRECORD
  5
2A2E
102
{ACAD_REACTORS
330
2A2D
102
}
330
2A2D
100
AcDbXrecord
280
     1
290
     1
  0
XRECORD
  5
2A30
102
{ACAD_REACTORS
330
2A2F
102
}
330
2A2F
100
AcDbXrecord
280
     1
290
     1
  0
XRECORD
  5
2A32
102
{ACAD_REACTORS
330
2A31
102
}
330
2A31
100
AcDbXrecord
280
     1
290
     1
  0
XRECORD
  5
2A34
102
{ACAD_REACTORS
330
2A33
102
}
330
2A33
100
AcDbXrecord
280
     1
290
     1
  0
XRECORD
  5
2A36
102
{ACAD_REACTORS
330
2A35
102
}
330
2A35
100
AcDbXrecord
280
     1
290
     1
  0
XRECORD
  5
2A38
102
{ACAD_REACTORS
330
2A37
102
}
330
2A37
100
AcDbXrecord
280
     1
290
     1
  0
XRECORD
  5
2A3A
102
{ACAD_REACTORS
330
2A39
102
}
330
2A39
100
AcDbXrecord
280
     1
290
     1
  0
XRECORD
  5
2A3C
102
{ACAD_REACTORS
330
2A3B
102
}
330
2A3B
100
AcDbXrecord
280
     1
290
     1
  0
XRECORD
  5
2A3E
102
{ACAD_REACTORS
330
2A3D
102
}
330
2A3D
100
AcDbXrecord
280
     1
290
     1
  0
XRECORD
  5
2A40
102
{ACAD_REACTORS
330
2A3F
102
}
330
2A3F
100
AcDbXrecord
280
     1
290
     1
  0
XRECORD
  5
2A42
102
{ACAD_REACTORS
330
2A41
102
}
330
2A41
100
AcDbXrecord
280
     1
290
     1
  0
SORTENTSTABLE
  5
2660
102
{ACAD_REACTORS
330
C9
102
}
330
C9
100
AcDbSortentsTable
330
1F
331
2F24
  5
2F3E
331
183A
  5
183F
331
1842
  5
1845
331
2C50
  5
2C5A
331
2876
  5
2892
331
2E8D
  5
2E97
331
2C58
  5
2C62
331
2E95
  5
2E9F
331
2C60
  5
2C6A
331
288E
  5
2936
331
2F3C
  5
2F44
331
2C68
  5
2C72
331
29AB
  5
2A00
331
284F
  5
2857
331
2F44
  5
29F8
331
2EA5
  5
2EAF
331
184A
  5
1853
331
185A
  5
1860
331
2C70
  5
2E56
331
2857
  5
285C
331
1BA6
  5
1BAE
331
2EAD
  5
2F25
331
295C
  5
2998
331
285F
  5
2864
331
1BAE
  5
25F9
331
2C41
  5
2C4B
331
2867
  5
286F
331
2C49
  5
2C53
331
286F
  5
2879
331
2E86
  5
2E91
331
2F25
  5
2F3F
331
1862
  5
1868
331
186A
  5
1870
331
1872
  5
1878
331
1843
  5
1846
331
2C51
  5
2C5B
331
2935
  5
2950
331
2877
  5
292A
331
2C59
  5
2C63
331
293D
  5
2953
331
2E8E
  5
2E98
331
2C61
  5
2C6B
331
288F
  5
293A
331
2E96
  5
2EA0
331
2F3D
  5
2F45
331
2E9E
  5
2EA8
331
2C69
  5
2E3A
331
29AC
  5
2A01
331
1B97
  5
1B9A
331
2F45
  5
2F4B
331
2EA6
  5
2EB0
331
184B
  5
1856
331
1853
  5
185A
331
2850
  5
2858
331
2C71
  5
2E57
331
2955
  5
295E
331
2858
  5
285D
331
2EAE
  5
2F26
331
2C3A
  5
2C44
331
295D
  5
29A7
331
2860
  5
2866
331
1BA7
  5
1BC2
331
2C42
  5
2C4C
331
2868
  5
2870
331
2C4A
  5
2C54
331
2F26
  5
2F40
331
183C
  5
1840
331
1844
  5
1847
331
2870
  5
288D
331
2C52
  5
2C5C
331
2878
  5
292B
331
2C5A
  5
2C64
331
293E
  5
2954
331
2E8F
  5
2E99
331
2C62
  5
2C6C
331
2890
  5
293B
331
25DB
  5
2851
331
2E97
  5
2EA1
331
1C0F
  5
2850
331
2F3E
  5
2F46
331
2E9F
  5
2EA9
331
1B98
  5
1B9B
331
294E
  5
2957
331
2C6A
  5
2E47
331
2F46
  5
29AB
331
2EA7
  5
2EB1
331
185C
  5
1862
331
2956
  5
295F
331
2859
  5
285E
331
2C72
  5
2E58
331
2EAF
  5
2F27
331
295E
  5
29A8
331
2861
  5
2869
331
2C3B
  5
2C45
331
2869
  5
2871
331
2C43
  5
2C4D
331
2C4B
  5
2C55
331
2F27
  5
2F41
331
1864
  5
186A
331
17E5
  5
1835
331
186C
  5
1872
331
1835
  5
183A
331
1874
  5
193C
331
1845
  5
1848
331
2C53
  5
2C5D
331
2E90
  5
2E9A
331
293F
  5
2955
331
2C5B
  5
2C65
331
2E98
  5
2EA2
331
2891
  5
293E
331
284A
  5
2856
331
2C63
  5
2C6D
331
2F3F
  5
2F47
331
2EA0
  5
2EAA
331
2E69
  5
2E7A
331
1B99
  5
1B9C
331
294F
  5
2958
331
2C6B
  5
2E48
331
2F47
  5
1BE3
331
193C
  5
19D6
331
19BC
  5
1B98
331
2EA8
  5
2EFF
331
2957
  5
2960
331
285A
  5
285F
331
2A1E
  5
2B0D
331
295F
  5
29A9
331
2862
  5
286A
331
2C3C
  5
2C46
331
2C44
  5
2C4E
331
286A
  5
2874
331
2C4C
  5
2C56
331
17E6
  5
1837
331
183E
  5
1841
331
1846
  5
1849
331
2872
  5
288E
331
2F28
  5
2F3B
331
2E89
  5
2E93
331
2C54
  5
2C5E
331
2997
  5
29FA
331
2E91
  5
2E9B
331
2C5C
  5
2C66
331
2940
  5
2956
331
2E99
  5
2EA3
331
2C64
  5
2C6E
331
29A7
  5
29FC
331
2892
  5
293F
331
2F40
  5
2F48
331
2EA1
  5
2EAB
331
2E6A
  5
2E7B
331
1B9A
  5
1B9D
331
2C6C
  5
2E4A
331
52A
  5
8F2
331
1856
  5
185C
331
185E
  5
1864
331
2950
  5
2959
331
2853
  5
2859
331
2F48
  5
2868
331
2EA9
  5
2F19
331
1BA2
  5
1BA6
331
2958
  5
2961
331
285B
  5
2860
331
2EB1
  5
2F31
331
2C3D
  5
2C47
331
2960
  5
29AA
331
2863
  5
286B
331
2F19
  5
2F39
331
1BC2
  5
2600
331
2C45
  5
2C4F
331
286B
  5
2875
331
2C4D
  5
2C57
331
1866
  5
186C
331
17E7
  5
1839
331
1837
  5
183C
331
186E
  5
1874
331
183F
  5
1842
331
1876
  5
19AF
331
1847
  5
184A
331
2873
  5
288F
331
2C55
  5
2C5F
331
2998
  5
29FB
331
2939
  5
2951
331
2F31
  5
2F3A
331
2E92
  5
2E9C
331
2C5D
  5
2C67
331
2E9A
  5
2EA4
331
2C65
  5
2C6F
331
29A8
  5
29FD
331
2F41
  5
2F49
331
2EA2
  5
2EAC
331
2E6B
  5
2E7C
331
1B9B
  5
1BA2
331
2C6D
  5
2E51
331
19D6
  5
1B99
331
2951
  5
295A
331
2F49
  5
2867
331
2EAA
  5
2F22
331
1BA3
  5
1BA7
331
2959
  5
2962
331
285C
  5
2861
331
2C3E
  5
2C48
331
2961
  5
29AC
331
2864
  5
286C
331
2E83
  5
2E8E
331
1BC3
  5
284B
331
2C46
  5
2C50
331
292A
  5
2940
331
286C
  5
2876
331
2F22
  5
2F3C
331
2C4E
  5
2C58
331
1840
  5
1843
331
2932
  5
294F
331
2874
  5
2890
331
2E8B
  5
2E95
331
2C56
  5
2C60
331
293A
  5
2952
331
2E93
  5
2E9D
331
2C5E
  5
2C68
331
288C
  5
292D
331
2F3A
  5
2F42
331
2E9B
  5
2EA5
331
2C66
  5
2C70
331
29A9
  5
29FE
331
2F42
  5
2F4A
331
2EA3
  5
2EAD
331
2E6C
  5
2E7D
331
1B9C
  5
1BA3
331
2C6E
  5
2E52
331
1848
  5
184B
331
1858
  5
185E
331
19AF
  5
19EA
331
2952
  5
295B
331
2855
  5
285A
331
25FF
  5
2854
331
2F4A
  5
2873
331
2EAB
  5
2F23
331
295A
  5
2963
331
285D
  5
2862
331
2C3F
  5
2C49
331
2962
  5
29E3
331
2865
  5
286D
331
2E84
  5
2E8F
331
2C47
  5
2C51
331
286D
  5
2877
331
2F23
  5
2F3D
331
2C4F
  5
2C59
331
1860
  5
1866
331
1868
  5
186E
331
1839
  5
183E
331
1870
  5
1876
331
1841
  5
1844
331
1878
  5
19BC
331
2875
  5
2891
331
2E8C
  5
2E96
331
2C57
  5
2C61
331
2E94
  5
2E9E
331
2C5F
  5
2C69
331
288D
  5
2933
331
2F3B
  5
2F43
331
2E9C
  5
2EA6
331
2C67
  5
2C71
331
29AA
  5
29FF
331
2EA4
  5
2EAE
331
1B9D
  5
1BA5
331
2C6F
  5
2E55
331
2F43
  5
22B3
331
1849
  5
1851
331
1851
  5
1858
331
2953
  5
295C
331
2856
  5
285B
331
2EAC
  5
2F24
331
1BA5
  5
1BAD
331
295B
  5
296B
331
285E
  5
2863
331
2F4B
  5
2865
331
2C40
  5
2C4A
331
2963
  5
29F9
331
2866
  5
286E
331
2E85
  5
2E90
331
2C48
  5
2C52
331
292C
  5
2941
331
286E
  5
2878
  0
SORTENTSTABLE
  5
28E3
102
{ACAD_REACTORS
330
28E2
102
}
330
28E2
100
AcDbSortentsTable
330
2896
  0
SORTENTSTABLE
  5
307B
102
{ACAD_REACTORS
330
307A
102
}
330
307A
100
AcDbSortentsTable
330
306C
  0
LAYOUT
  5
22
102
{ACAD_XDICTIONARY
360
2A4A
102
}
102
{ACAD_REACTORS
330
1A
102
}
330
1A
100
AcDbPlotSettings
  1

  2
RICOH imagio MP 5000 RPCS
  4
A3
  6
AM_VIEW1
 40
5.873749732971191
 41
5.873747825622558
 42
5.873748779296875
 43
5.873748779296875
 44
296.9259948730469
 45
419.9466552734374
 46
-5.910751819610652
 47
-5.921849237169567
 48
0.0
 49
0.0
140
0.0
141
0.0
142
1.0
143
0.5
 70
 11956
 72
     1
 73
     1
 74
     2
  7
IMAGIO.ctb
 75
    27
147
2.0
148
-115.2696222226474
149
-247.1175262532765
100
AcDbLayout
  1
Model
 70
     1
 71
     0
 10
0.0
 20
0.0
 11
12.0
 21
9.0
 12
0.0
 22
0.0
 32
0.0
 14
0.0
 24
0.0
 34
0.0
 15
0.0
 25
0.0
 35
0.0
146
0.0
 13
0.0
 23
0.0
 33
0.0
 16
1.0
 26
0.0
 36
0.0
 17
0.0
 27
1.0
 37
0.0
 76
     0
330
1F
331
1E18
1001
ACAD_PSEXT
1000
RICOH imagio MP 5000 RPCS
1000
RICOH imagio MP 5000 RPCS
1000
192.168.1.151@
1000
RPCS Driver (Windows 2000/XP/Server 2003/Vista)
1070
     0
  0
LAYOUT
  5
1E
102
{ACAD_XDICTIONARY
360
3199
102
}
102
{ACAD_REACTORS
330
1A
102
}
330
1A
100
AcDbPlotSettings
  1

  2
MF2730
  4

  6

 40
0.0
 41
0.0
 42
0.0
 43
0.0
 44
0.0
 45
0.0
 46
0.0
 47
0.0
 48
0.0
 49
0.0
140
0.0
141
0.0
142
1.0
143
1.0
 70
   688
 72
     0
 73
     0
 74
     5
  7
IMAGIO.ctb
 75
    16
147
1.0
148
0.0
149
0.0
100
AcDbLayout
  1
ﾚｲｱｳﾄ1
 70
     1
 71
     1
 10
0.0
 20
0.0
 11
420.0
 21
297.0
 12
0.0
 22
0.0
 32
0.0
 14
1.000000000000000E+20
 24
1.000000000000000E+20
 34
1.000000000000000E+20
 15
-1.000000000000000E+20
 25
-1.000000000000000E+20
 35
-1.000000000000000E+20
146
0.0
 13
0.0
 23
0.0
 33
0.0
 16
1.0
 26
0.0
 36
0.0
 17
0.0
 27
1.0
 37
0.0
 76
     0
330
1B
  0
LAYOUT
  5
26
102
{ACAD_XDICTIONARY
360
319C
102
}
102
{ACAD_REACTORS
330
1A
102
}
330
1A
100
AcDbPlotSettings
  1

  2
MF2730
  4

  6

 40
0.0
 41
0.0
 42
0.0
 43
0.0
 44
0.0
 45
0.0
 46
0.0
 47
0.0
 48
0.0
 49
0.0
140
0.0
141
0.0
142
1.0
143
1.0
 70
   688
 72
     0
 73
     0
 74
     5
  7
IMAGIO.ctb
 75
    16
147
1.0
148
0.0
149
0.0
100
AcDbLayout
  1
ﾚｲｱｳﾄ2
 70
     1
 71
     2
 10
0.0
 20
0.0
 11
12.0
 21
9.0
 12
0.0
 22
0.0
 32
0.0
 14
0.0
 24
0.0
 34
0.0
 15
0.0
 25
0.0
 35
0.0
146
0.0
 13
0.0
 23
0.0
 33
0.0
 16
1.0
 26
0.0
 36
0.0
 17
0.0
 27
1.0
 37
0.0
 76
     0
330
23
  0
MATERIAL
  5
1AC5
102
{ACAD_XDICTIONARY
360
31A0
102
}
102
{ACAD_REACTORS
330
1AC3
102
}
330
1AC3
100
AcDbMaterial
  1
ByBlock
 73
     1
 78
     1
172
     1
176
     1
270
     1
274
     1
  0
MATERIAL
  5
1AC4
102
{ACAD_XDICTIONARY
360
319E
102
}
102
{ACAD_REACTORS
330
1AC3
102
}
330
1AC3
100
AcDbMaterial
  1
ByLayer
 73
     1
 78
     1
172
     1
176
     1
270
     1
274
     1
  0
MATERIAL
  5
1AC6
102
{ACAD_XDICTIONARY
360
31A2
102
}
102
{ACAD_REACTORS
330
1AC3
102
}
330
1AC3
100
AcDbMaterial
  1
Global
 73
     1
 78
     1
172
     1
176
     1
270
     1
274
     1
  0
MLEADERSTYLE
  5
277C
102
{ACAD_REACTORS
330
277B
102
}
330
277B
100
AcDbMLeaderStyle
170
     2
171
     1
172
     0
 90
        2
 40
0.0
 41
0.0
173
     1
 91
-1056964608
340
14
 92
       -2
290
     1
 42
2.0
291
     1
 43
0.36
  3
Standard
 44
4.0
300

342
11
174
     1
178
     6
175
     1
176
     0
 93
-1056964608
 45
4.0
292
     0
297
     0
 46
4.0
 94
-1056964608
 47
1.0
 49
1.0
140
1.0
293
     1
141
0.0
294
     1
177
     0
142
1.0
295
     0
296
     0
143
0.125
1001
ACAD_MLEADERVER
1070
     2
  0
MLINESTYLE
  5
18
102
{ACAD_REACTORS
330
17
102
}
330
17
100
AcDbMlineStyle
  2
STANDARD
 70
     0
  3

 62
   256
 51
90.0
 52
90.0
 71
     2
 49
0.5
 62
   256
  6
BYLAYER
 49
-0.5
 62
   256
  6
BYLAYER
  0
ACDBPLACEHOLDER
  5
F
102
{ACAD_REACTORS
330
E
102
}
330
E
  0
SCALE
  5
276A
102
{ACAD_REACTORS
330
2769
102
}
330
2769
100
AcDbScale
 70
     0
300
1:1
140
1.0
141
1.0
290
     1
  0
SCALE
  5
276B
102
{ACAD_REACTORS
330
2769
102
}
330
2769
100
AcDbScale
 70
     0
300
1:2
140
1.0
141
2.0
290
     0
  0
SCALE
  5
276C
102
{ACAD_REACTORS
330
2769
102
}
330
2769
100
AcDbScale
 70
     0
300
1:4
140
1.0
141
4.0
290
     0
  0
SCALE
  5
276D
102
{ACAD_REACTORS
330
2769
102
}
330
2769
100
AcDbScale
 70
     0
300
1:5
140
1.0
141
5.0
290
     0
  0
SCALE
  5
276E
102
{ACAD_REACTORS
330
2769
102
}
330
2769
100
AcDbScale
 70
     0
300
1:8
140
1.0
141
8.0
290
     0
  0
SCALE
  5
276F
102
{ACAD_REACTORS
330
2769
102
}
330
2769
100
AcDbScale
 70
     0
300
1:10
140
1.0
141
10.0
290
     0
  0
SCALE
  5
2770
102
{ACAD_REACTORS
330
2769
102
}
330
2769
100
AcDbScale
 70
     0
300
1:16
140
1.0
141
16.0
290
     0
  0
SCALE
  5
2771
102
{ACAD_REACTORS
330
2769
102
}
330
2769
100
AcDbScale
 70
     0
300
1:20
140
1.0
141
20.0
290
     0
  0
SCALE
  5
2772
102
{ACAD_REACTORS
330
2769
102
}
330
2769
100
AcDbScale
 70
     0
300
1:30
140
1.0
141
30.0
290
     0
  0
SCALE
  5
2773
102
{ACAD_REACTORS
330
2769
102
}
330
2769
100
AcDbScale
 70
     0
300
1:40
140
1.0
141
40.0
290
     0
  0
SCALE
  5
2774
102
{ACAD_REACTORS
330
2769
102
}
330
2769
100
AcDbScale
 70
     0
300
1:50
140
1.0
141
50.0
290
     0
  0
SCALE
  5
2775
102
{ACAD_REACTORS
330
2769
102
}
330
2769
100
AcDbScale
 70
     0
300
1:100
140
1.0
141
100.0
290
     0
  0
SCALE
  5
2776
102
{ACAD_REACTORS
330
2769
102
}
330
2769
100
AcDbScale
 70
     0
300
2:1
140
2.0
141
1.0
290
     0
  0
SCALE
  5
2777
102
{ACAD_REACTORS
330
2769
102
}
330
2769
100
AcDbScale
 70
     0
300
4:1
140
4.0
141
1.0
290
     0
  0
SCALE
  5
2778
102
{ACAD_REACTORS
330
2769
102
}
330
2769
100
AcDbScale
 70
     0
300
8:1
140
8.0
141
1.0
290
     0
  0
SCALE
  5
2779
102
{ACAD_REACTORS
330
2769
102
}
330
2769
100
AcDbScale
 70
     0
300
10:1
140
10.0
141
1.0
290
     0
  0
SCALE
  5
277A
102
{ACAD_REACTORS
330
2769
102
}
330
2769
100
AcDbScale
 70
     0
300
100:1
140
100.0
141
1.0
290
     0
  0
TABLESTYLE
  5
1ADA
102
{ACAD_XDICTIONARY
360
2A4C
102
}
102
{ACAD_REACTORS
330
1AD9
102
}
330
1AD9
100
AcDbTableStyle
  3
Standard
 70
     0
 71
     0
 40
1.5
 41
1.5
280
     0
281
     0
  7
STANDARD
140
4.5
170
     2
 62
     0
 63
     7
283
     0
274
    -2
284
     1
 64
     0
275
    -2
285
     1
 65
     0
276
    -2
286
     1
 66
     0
277
    -2
287
     1
 67
     0
278
    -2
288
     1
 68
     0
279
    -2
289
     1
 69
     0
  7
STANDARD
140
6.0
170
     5
 62
     0
 63
     7
283
     0
274
    -2
284
     1
 64
     0
275
    -2
285
     1
 65
     0
276
    -2
286
     1
 66
     0
277
    -2
287
     1
 67
     0
278
    -2
288
     1
 68
     0
279
    -2
289
     1
 69
     0
  7
STANDARD
140
4.5
170
     5
 62
     0
 63
     7
283
     0
274
    -2
284
     1
 64
     0
275
    -2
285
     1
 65
     0
276
    -2
286
     1
 66
     0
277
    -2
287
     1
 67
     0
278
    -2
288
     1
 68
     0
279
    -2
289
     1
 69
     0
  0
VISUALSTYLE
  5
1ACD
102
{ACAD_XDICTIONARY
360
31AE
102
}
102
{ACAD_REACTORS
330
1AC7
102
}
330
1AC7
100
AcDbVisualStyle
  2
2dWireframe
 70
     4
 71
     0
 72
     2
 73
     0
 90
        0
 40
-0.6
 41
-30.0
 62
     5
 63
     7
 74
     1
 91
        4
 64
     7
 65
   257
 75
     1
175
     1
 42
1.0
 92
        0
 66
   257
 43
1.0
 76
     1
 77
     6
 78
     2
 67
     7
 79
     5
170
     0
171
     0
290
     0
174
     0
 93
        1
 44
0.0
173
     0
291
     0
 45
0.0
1001
ACAD
1000
AcDbSavedByObjectVersion
1070
     0
  0
VISUALSTYLE
  5
1ACF
102
{ACAD_XDICTIONARY
360
31B2
102
}
102
{ACAD_REACTORS
330
1AC7
102
}
330
1AC7
100
AcDbVisualStyle
  2
3D Hidden
 70
     6
 71
     1
 72
     2
 73
     2
 90
        0
 40
-0.6
 41
-30.0
 62
     5
 63
     7
 74
     2
 91
        2
 64
     7
 65
   257
 75
     2
175
     1
 42
40.0
 92
        0
 66
   257
 43
1.0
 76
     1
 77
     6
 78
     2
 67
     7
 79
     3
170
     0
171
     0
290
     0
174
     0
 93
        1
 44
0.0
173
     0
291
     0
 45
0.0
1001
ACAD
1000
AcDbSavedByObjectVersion
1070
     0
  0
VISUALSTYLE
  5
1ACE
102
{ACAD_XDICTIONARY
360
31B0
102
}
102
{ACAD_REACTORS
330
1AC7
102
}
330
1AC7
100
AcDbVisualStyle
  2
3dWireframe
 70
     5
 71
     0
 72
     2
 73
     0
 90
        0
 40
-0.6
 41
-30.0
 62
     5
 63
     7
 74
     1
 91
        4
 64
     7
 65
   257
 75
     1
175
     1
 42
1.0
 92
        0
 66
   257
 43
1.0
 76
     1
 77
     6
 78
     2
 67
     7
 79
     5
170
     0
171
     0
290
     0
174
     0
 93
        1
 44
0.0
173
     0
291
     0
 45
0.0
1001
ACAD
1000
AcDbSavedByObjectVersion
1070
     0
  0
VISUALSTYLE
  5
1ACC
102
{ACAD_XDICTIONARY
360
31AC
102
}
102
{ACAD_REACTORS
330
1AC7
102
}
330
1AC7
100
AcDbVisualStyle
  2
Basic
 70
     7
 71
     1
 72
     0
 73
     1
 90
        0
 40
-0.6
 41
-30.0
 62
     5
 63
     7
 74
     0
 91
        4
 64
     7
 65
   257
 75
     1
175
     1
 42
1.0
 92
        8
 66
     7
 43
1.0
 76
     1
 77
     6
 78
     2
 67
     7
 79
     5
170
     0
171
     0
290
     0
174
     0
 93
        1
 44
0.0
173
     0
291
     1
 45
0.0
1001
ACAD
1000
AcDbSavedByObjectVersion
1070
     0
  0
VISUALSTYLE
  5
1AD3
102
{ACAD_XDICTIONARY
360
31BA
102
}
102
{ACAD_REACTORS
330
1AC7
102
}
330
1AC7
100
AcDbVisualStyle
  2
Brighten
 70
    12
 71
     2
 72
     2
 73
     0
 90
        0
 40
-0.6
 41
-30.0
 62
     5
 63
     7
 74
     1
 91
        4
 64
     7
 65
   257
 75
     1
175
     1
 42
1.0
 92
        8
 66
     7
 43
1.0
 76
     1
 77
     6
 78
     2
 67
     7
 79
     5
170
     0
171
     0
290
     0
174
     0
 93
        1
 44
50.0
173
     0
291
     1
 45
0.0
1001
ACAD
1000
AcDbSavedByObjectVersion
1070
     0
  0
VISUALSTYLE
  5
1AD7
102
{ACAD_XDICTIONARY
360
31C2
102
}
102
{ACAD_REACTORS
330
1AC7
102
}
330
1AC7
100
AcDbVisualStyle
  2
ColorChange
 70
    16
 71
     2
 72
     2
 73
     3
 90
        0
 40
-0.6
 41
-30.0
 62
     5
 63
     8
 74
     1
 91
        4
 64
     7
 65
   257
 75
     1
175
     1
 42
1.0
 92
        8
 66
     8
 43
1.0
 76
     1
 77
     6
 78
     2
 67
     7
 79
     5
170
     0
171
     0
290
     0
174
     0
 93
        1
 44
0.0
173
     0
291
     1
 45
0.0
1001
ACAD
1000
AcDbSavedByObjectVersion
1070
     0
  0
VISUALSTYLE
  5
1AD0
102
{ACAD_XDICTIONARY
360
31B4
102
}
102
{ACAD_REACTORS
330
1AC7
102
}
330
1AC7
100
AcDbVisualStyle
  2
Conceptual
 70
     9
 71
     3
 72
     2
 73
     0
 90
        0
 40
-0.6
 41
-30.0
 62
     5
 63
     7
 74
     2
 91
        2
 64
     7
 65
   257
 75
     1
175
     1
 42
40.0
 92
        8
 66
     7
 43
1.0
 76
     1
 77
     6
 78
     2
 67
     7
 79
     3
170
     0
171
     0
290
     0
174
     0
 93
        1
 44
0.0
173
     0
291
     0
 45
0.0
1001
ACAD
1000
AcDbSavedByObjectVersion
1070
     0
  0
VISUALSTYLE
  5
1AD2
102
{ACAD_XDICTIONARY
360
31B8
102
}
102
{ACAD_REACTORS
330
1AC7
102
}
330
1AC7
100
AcDbVisualStyle
  2
Dim
 70
    11
 71
     2
 72
     2
 73
     0
 90
        0
 40
-0.6
 41
-30.0
 62
     5
 63
     7
 74
     1
 91
        4
 64
     7
 65
   257
 75
     1
175
     1
 42
1.0
 92
        8
 66
     7
 43
1.0
 76
     1
 77
     6
 78
     2
 67
     7
 79
     5
170
     0
171
     0
290
     0
174
     0
 93
        1
 44
-50.0
173
     0
291
     1
 45
0.0
1001
ACAD
1000
AcDbSavedByObjectVersion
1070
     0
  0
VISUALSTYLE
  5
2768
102
{ACAD_XDICTIONARY
360
31D7
102
}
102
{ACAD_REACTORS
330
1AC7
102
}
330
1AC7
100
AcDbVisualStyle
  2
EdgeColorOff
 70
    22
 71
     2
 72
     2
 73
     0
 90
        0
 40
-0.6
 41
-30.0
 62
     5
 63
     7
 74
     1
 91
        4
 64
     7
 65
   257
 75
     1
175
     1
 42
1.0
 92
        8
 66
     7
 43
1.0
 76
     1
 77
     6
 78
     2
 67
     7
 79
     5
170
     0
171
     0
290
     0
174
     0
 93
        1
 44
0.0
173
     0
291
     1
 45
0.0
1001
ACAD
1000
AcDbSavedByObjectVersion
1070
     0
  0
VISUALSTYLE
  5
1AD6
102
{ACAD_XDICTIONARY
360
31C0
102
}
102
{ACAD_REACTORS
330
1AC7
102
}
330
1AC7
100
AcDbVisualStyle
  2
Facepattern
 70
    15
 71
     2
 72
     2
 73
     0
 90
        0
 40
-0.6
 41
-30.0
 62
     5
 63
     7
 74
     1
 91
        4
 64
     7
 65
   257
 75
     1
175
     1
 42
1.0
 92
        8
 66
     7
 43
1.0
 76
     1
 77
     6
 78
     2
 67
     7
 79
     5
170
     0
171
     0
290
     0
174
     0
 93
        1
 44
0.0
173
     0
291
     1
 45
0.0
1001
ACAD
1000
AcDbSavedByObjectVersion
1070
     0
  0
VISUALSTYLE
  5
1AC8
102
{ACAD_XDICTIONARY
360
31A4
102
}
102
{ACAD_REACTORS
330
1AC7
102
}
330
1AC7
100
AcDbVisualStyle
  2
Flat
 70
     0
 71
     2
 72
     1
 73
     1
 90
        2
 40
-0.6
 41
30.0
 62
     5
 63
     7
 74
     0
 91
        4
 64
     7
 65
   257
 75
     1
175
     1
 42
1.0
 92
        8
 66
     7
 43
1.0
 76
     1
 77
     6
 78
     2
 67
     7
 79
     5
170
     0
171
     0
290
     0
174
     0
 93
       13
 44
0.0
173
     0
291
     1
 45
0.0
1001
ACAD
1000
AcDbSavedByObjectVersion
1070
     0
  0
VISUALSTYLE
  5
1AC9
102
{ACAD_XDICTIONARY
360
31A6
102
}
102
{ACAD_REACTORS
330
1AC7
102
}
330
1AC7
100
AcDbVisualStyle
  2
FlatWithEdges
 70
     1
 71
     2
 72
     1
 73
     1
 90
        2
 40
-0.6
 41
30.0
 62
     5
 63
     7
 74
     1
 91
        4
 64
     7
 65
   257
 75
     1
175
     1
 42
1.0
 92
        0
 66
   257
 43
1.0
 76
     1
 77
     6
 78
     2
 67
     7
 79
     5
170
     0
171
     0
290
     0
174
     0
 93
       13
 44
0.0
173
     0
291
     1
 45
0.0
1001
ACAD
1000
AcDbSavedByObjectVersion
1070
     0
  0
VISUALSTYLE
  5
1ACA
102
{ACAD_XDICTIONARY
360
31A8
102
}
102
{ACAD_REACTORS
330
1AC7
102
}
330
1AC7
100
AcDbVisualStyle
  2
Gouraud
 70
     2
 71
     2
 72
     2
 73
     1
 90
        2
 40
-0.6
 41
30.0
 62
     5
 63
     7
 74
     0
 91
        4
 64
     7
 65
   257
 75
     1
175
     1
 42
1.0
 92
        0
 66
     7
 43
1.0
 76
     1
 77
     6
 78
     2
 67
     7
 79
     5
170
     0
171
     0
290
     0
174
     0
 93
       13
 44
0.0
173
     0
291
     1
 45
0.0
1001
ACAD
1000
AcDbSavedByObjectVersion
1070
     0
  0
VISUALSTYLE
  5
1ACB
102
{ACAD_XDICTIONARY
360
31AA
102
}
102
{ACAD_REACTORS
330
1AC7
102
}
330
1AC7
100
AcDbVisualStyle
  2
GouraudWithEdges
 70
     3
 71
     2
 72
     2
 73
     1
 90
        2
 40
-0.6
 41
30.0
 62
     5
 63
     7
 74
     1
 91
        4
 64
     7
 65
   257
 75
     1
175
     1
 42
1.0
 92
        0
 66
   257
 43
1.0
 76
     1
 77
     6
 78
     2
 67
     7
 79
     5
170
     0
171
     0
290
     0
174
     0
 93
       13
 44
0.0
173
     0
291
     1
 45
0.0
1001
ACAD
1000
AcDbSavedByObjectVersion
1070
     0
  0
VISUALSTYLE
  5
2760
102
{ACAD_XDICTIONARY
360
31C7
102
}
102
{ACAD_REACTORS
330
1AC7
102
}
330
1AC7
100
AcDbVisualStyle
  2
Hidden
 70
     6
 71
     1
 72
     2
 73
     2
 90
        0
 40
-0.6
 41
-30.0
 62
     5
 63
     7
 74
     2
 91
        2
 64
     7
 65
   257
 75
     2
175
     1
 42
40.0
 92
        0
 66
   257
 43
1.0
 76
     1
 77
     6
 78
     2
 67
     7
 79
     3
170
     0
171
     0
290
     0
174
     0
 93
        1
 44
0.0
173
     0
291
     0
 45
0.0
1001
ACAD
1000
AcDbSavedByObjectVersion
1070
     0
  0
VISUALSTYLE
  5
2766
102
{ACAD_XDICTIONARY
360
31D3
102
}
102
{ACAD_REACTORS
330
1AC7
102
}
330
1AC7
100
AcDbVisualStyle
  2
JitterOff
 70
    20
 71
     2
 72
     2
 73
     0
 90
        0
 40
-0.6
 41
-30.0
 62
     5
 63
     7
 74
     1
 91
        4
 64
     7
 65
   257
 75
     1
175
     1
 42
1.0
 92
       10
 66
     7
 43
1.0
 76
     1
 77
     6
 78
     2
 67
     7
 79
     5
170
     0
171
     0
290
     0
174
     0
 93
        1
 44
0.0
173
     0
291
     1
 45
0.0
1001
ACAD
1000
AcDbSavedByObjectVersion
1070
     0
  0
VISUALSTYLE
  5
1AD5
102
{ACAD_XDICTIONARY
360
31BE
102
}
102
{ACAD_REACTORS
330
1AC7
102
}
330
1AC7
100
AcDbVisualStyle
  2
Linepattern
 70
    14
 71
     2
 72
     2
 73
     0
 90
        0
 40
-0.6
 41
-30.0
 62
     5
 63
     7
 74
     1
 91
        4
 64
     7
 65
   257
 75
     7
175
     7
 42
1.0
 92
        8
 66
     7
 43
1.0
 76
     1
 77
     6
 78
     2
 67
     7
 79
     5
170
     0
171
     0
290
     0
174
     0
 93
        1
 44
0.0
173
     0
291
     1
 45
0.0
1001
ACAD
1000
AcDbSavedByObjectVersion
1070
     0
  0
VISUALSTYLE
  5
2767
102
{ACAD_XDICTIONARY
360
31D5
102
}
102
{ACAD_REACTORS
330
1AC7
102
}
330
1AC7
100
AcDbVisualStyle
  2
OverhangOff
 70
    21
 71
     2
 72
     2
 73
     0
 90
        0
 40
-0.6
 41
-30.0
 62
     5
 63
     7
 74
     1
 91
        4
 64
     7
 65
   257
 75
     1
175
     1
 42
1.0
 92
        9
 66
     7
 43
1.0
 76
     1
 77
     6
 78
     2
 67
     7
 79
     5
170
     0
171
     0
290
     0
174
     0
 93
        1
 44
0.0
173
     0
291
     1
 45
0.0
1001
ACAD
1000
AcDbSavedByObjectVersion
1070
     0
  0
VISUALSTYLE
  5
1AD1
102
{ACAD_XDICTIONARY
360
31B6
102
}
102
{ACAD_REACTORS
330
1AC7
102
}
330
1AC7
100
AcDbVisualStyle
  2
Realistic
 70
     8
 71
     2
 72
     2
 73
     0
 90
        0
 40
-0.6
 41
-30.0
 62
     5
 63
     7
 74
     1
 91
        0
 64
     7
 65
   257
 75
     1
175
     1
 42
1.0
 92
        8
 66
     8
 43
1.0
 76
     1
 77
     6
 78
     2
 67
     7
 79
     5
170
     0
171
     0
290
     0
174
     0
 93
       13
 44
0.0
173
     0
291
     0
 45
0.0
1001
ACAD
1000
AcDbSavedByObjectVersion
1070
     0
  0
VISUALSTYLE
  5
2765
102
{ACAD_XDICTIONARY
360
31D1
102
}
102
{ACAD_REACTORS
330
1AC7
102
}
330
1AC7
100
AcDbVisualStyle
  2
Shaded
 70
    27
 71
     2
 72
     2
 73
     1
 90
        2
 40
-0.6
 41
30.0
 62
     5
 63
     7
 74
     0
 91
        4
 64
     7
 65
   257
 75
     1
175
     1
 42
1.0
 92
        8
 66
   257
 43
1.0
 76
     1
 77
     6
 78
     2
 67
     8
 79
     3
170
     0
171
     0
290
     0
174
     0
 93
        5
 44
0.0
173
     0
291
     0
 45
0.0
1001
ACAD
1000
AcDbSavedByObjectVersion
1070
     0
  0
VISUALSTYLE
  5
2764
102
{ACAD_XDICTIONARY
360
31CF
102
}
102
{ACAD_REACTORS
330
1AC7
102
}
330
1AC7
100
AcDbVisualStyle
  2
Shaded with edges
 70
    26
 71
     2
 72
     2
 73
     1
 90
        2
 40
-0.6
 41
30.0
 62
     5
 63
     7
 74
     1
 91
       10
 64
     7
 65
   257
 75
     2
175
     1
 42
1.0
 92
        8
 66
   257
 43
1.0
 76
     1
 77
     6
 78
     2
 67
     7
 79
     3
170
     0
171
     0
290
     0
174
     0
 93
        5
 44
0.0
173
     0
291
     0
 45
0.0
1001
ACAD
1000
AcDbSavedByObjectVersion
1070
     0
  0
VISUALSTYLE
  5
2761
102
{ACAD_XDICTIONARY
360
31C9
102
}
102
{ACAD_REACTORS
330
1AC7
102
}
330
1AC7
100
AcDbVisualStyle
  2
Shades of Gray
 70
    23
 71
     2
 72
     2
 73
     3
 90
        0
 40
-0.6
 41
-30.0
 62
     5
 63
     7
 74
     2
 91
        2
 64
     7
 65
     7
 75
     1
175
     1
 42
40.0
 92
        8
 66
     7
 43
1.0
 76
     1
 77
     6
 78
     2
 67
     7
 79
     3
170
     0
171
     0
290
     0
174
     0
 93
        1
 44
0.0
173
     0
291
     0
 45
0.0
1001
ACAD
1000
AcDbSavedByObjectVersion
1070
     0
  0
VISUALSTYLE
  5
2762
102
{ACAD_XDICTIONARY
360
31CB
102
}
102
{ACAD_REACTORS
330
1AC7
102
}
330
1AC7
100
AcDbVisualStyle
  2
Sketchy
 70
    24
 71
     1
 72
     2
 73
     2
 90
        0
 40
-0.6
 41
-30.0
 62
     5
 63
     7
 74
     2
 91
        2
 64
     7
 65
     7
 75
     1
175
     1
 42
40.0
 92
       11
 66
     7
 43
1.0
 76
     1
 77
     6
 78
     2
 67
     7
 79
     6
170
     0
171
     0
290
     0
174
     0
 93
        1
 44
0.0
173
     0
291
     0
 45
0.0
1001
ACAD
1000
AcDbSavedByObjectVersion
1070
     0
  0
VISUALSTYLE
  5
1AD4
102
{ACAD_XDICTIONARY
360
31BC
102
}
102
{ACAD_REACTORS
330
1AC7
102
}
330
1AC7
100
AcDbVisualStyle
  2
Thicken
 70
    13
 71
     2
 72
     2
 73
     0
 90
        0
 40
-0.6
 41
-30.0
 62
     5
 63
     7
 74
     1
 91
        4
 64
     7
 65
   257
 75
     1
175
     1
 42
1.0
 92
       12
 66
     7
 43
1.0
 76
     1
 77
     6
 78
     2
 67
     7
 79
     5
170
     0
171
     0
290
     0
174
     0
 93
        1
 44
0.0
173
     0
291
     1
 45
0.0
1001
ACAD
1000
AcDbSavedByObjectVersion
1070
     0
  0
VISUALSTYLE
  5
275F
102
{ACAD_XDICTIONARY
360
31C5
102
}
102
{ACAD_REACTORS
330
1AC7
102
}
330
1AC7
100
AcDbVisualStyle
  2
Wireframe
 70
     5
 71
     0
 72
     2
 73
     0
 90
        0
 40
-0.6
 41
-30.0
 62
     5
 63
     7
 74
     1
 91
        4
 64
     7
 65
   257
 75
     1
175
     1
 42
1.0
 92
        0
 66
   257
 43
1.0
 76
     1
 77
     6
 78
     2
 67
     7
 79
     3
170
     0
171
     0
290
     0
174
     0
 93
        1
 44
0.0
173
     0
291
     0
 45
0.0
1001
ACAD
1000
AcDbSavedByObjectVersion
1070
     0
  0
VISUALSTYLE
  5
2763
102
{ACAD_XDICTIONARY
360
31CD
102
}
102
{ACAD_REACTORS
330
1AC7
102
}
330
1AC7
100
AcDbVisualStyle
  2
X-Ray
 70
    25
 71
     2
 72
     2
 73
     1
 90
        1
 40
0.5
 41
-30.0
 62
     5
 63
     7
 74
     1
 91
        0
 64
     7
 65
   257
 75
     1
175
     1
 42
1.0
 92
        8
 66
     7
 43
1.0
 76
     1
 77
     6
 78
     2
 67
     7
 79
     3
170
     0
171
     0
290
     0
174
     0
 93
       13
 44
0.0
173
     0
291
     0
 45
0.0
1001
ACAD
1000
AcDbSavedByObjectVersion
1070
     0
  0
DICTIONARYVAR
  5
2A99
102
{ACAD_REACTORS
330
34
102
}
330
34
100
DictionaryVariables
280
     0
  1
1:1
  0
DICTIONARYVAR
  5
2A98
102
{ACAD_REACTORS
330
34
102
}
330
34
100
DictionaryVariables
280
     0
  1
STANDARD
  0
DICTIONARYVAR
  5
1D4A
102
{ACAD_REACTORS
330
34
102
}
330
34
100
DictionaryVariables
280
     0
  1
STANDARD
  0
DICTIONARYVAR
  5
3195
102
{ACAD_REACTORS
330
34
102
}
330
34
100
DictionaryVariables
280
     0
  1
2
  0
DICTIONARYVAR
  5
35
102
{ACAD_REACTORS
330
34
102
}
330
34
100
DictionaryVariables
280
     0
  1
0
  0
DICTIONARYVAR
  5
17E2
102
{ACAD_REACTORS
330
34
102
}
330
34
100
DictionaryVariables
280
     0
  1
127
  0
DICTIONARYVAR
  5
3194
102
{ACAD_REACTORS
330
34
102
}
330
34
100
DictionaryVariables
280
     0
  1
0
  0
DICTIONARY
  5
1435
102
{ACAD_REACTORS
330
43
102
}
330
43
100
AcDbDictionary
281
     1
  0
DICTIONARY
  5
15F
102
{ACAD_REACTORS
330
43
102
}
330
43
100
AcDbDictionary
281
     1
  0
XRECORD
  5
1B3B
102
{ACAD_REACTORS
330
43
102
}
330
43
100
AcDbXrecord
280
     1
 90
-1023410169
  0
DICTIONARY
  5
2A4A
330
22
100
AcDbDictionary
280
     1
281
     1
  3
ACAD_XREC_ROUNDTRIP
360
319B
  3
ADSK_XREC_LAYOUTTHUMBNAIL
360
2A4B
  0
DICTIONARY
  5
3199
330
1E
100
AcDbDictionary
280
     1
281
     1
  3
ACAD_XREC_ROUNDTRIP
360
319A
  0
DICTIONARY
  5
319C
330
26
100
AcDbDictionary
280
     1
281
     1
  3
ACAD_XREC_ROUNDTRIP
360
319D
  0
DICTIONARY
  5
31A0
330
1AC5
100
AcDbDictionary
280
     1
281
     1
  3
ACAD_XREC_ROUNDTRIP
360
31A1
  0
DICTIONARY
  5
319E
330
1AC4
100
AcDbDictionary
280
     1
281
     1
  3
ACAD_XREC_ROUNDTRIP
360
319F
  0
DICTIONARY
  5
31A2
330
1AC6
100
AcDbDictionary
280
     1
281
     1
  3
ACAD_XREC_ROUNDTRIP
360
31A3
  0
DICTIONARY
  5
2A4C
330
1ADA
100
AcDbDictionary
280
     1
281
     1
  3
ACAD_ROUNDTRIP_2008_TABLESTYLE_CELLSTYLEMAP
360
3196
  3
ACAD_XREC_ROUNDTRIP
360
31C4
  0
DICTIONARY
  5
31AE
330
1ACD
100
AcDbDictionary
280
     1
281
     1
  3
ACAD_XREC_ROUNDTRIP
360
31AF
  0
DICTIONARY
  5
31B2
330
1ACF
100
AcDbDictionary
280
     1
281
     1
  3
ACAD_XREC_ROUNDTRIP
360
31B3
  0
DICTIONARY
  5
31B0
330
1ACE
100
AcDbDictionary
280
     1
281
     1
  3
ACAD_XREC_ROUNDTRIP
360
31B1
  0
DICTIONARY
  5
31AC
330
1ACC
100
AcDbDictionary
280
     1
281
     1
  3
ACAD_XREC_ROUNDTRIP
360
31AD
  0
DICTIONARY
  5
31BA
330
1AD3
100
AcDbDictionary
280
     1
281
     1
  3
ACAD_XREC_ROUNDTRIP
360
31BB
  0
DICTIONARY
  5
31C2
330
1AD7
100
AcDbDictionary
280
     1
281
     1
  3
ACAD_XREC_ROUNDTRIP
360
31C3
  0
DICTIONARY
  5
31B4
330
1AD0
100
AcDbDictionary
280
     1
281
     1
  3
ACAD_XREC_ROUNDTRIP
360
31B5
  0
DICTIONARY
  5
31B8
330
1AD2
100
AcDbDictionary
280
     1
281
     1
  3
ACAD_XREC_ROUNDTRIP
360
31B9
  0
DICTIONARY
  5
31D7
330
2768
100
AcDbDictionary
280
     1
281
     1
  3
ACAD_XREC_ROUNDTRIP
360
31D8
  0
DICTIONARY
  5
31C0
330
1AD6
100
AcDbDictionary
280
     1
281
     1
  3
ACAD_XREC_ROUNDTRIP
360
31C1
  0
DICTIONARY
  5
31A4
330
1AC8
100
AcDbDictionary
280
     1
281
     1
  3
ACAD_XREC_ROUNDTRIP
360
31A5
  0
DICTIONARY
  5
31A6
330
1AC9
100
AcDbDictionary
280
     1
281
     1
  3
ACAD_XREC_ROUNDTRIP
360
31A7
  0
DICTIONARY
  5
31A8
330
1ACA
100
AcDbDictionary
280
     1
281
     1
  3
ACAD_XREC_ROUNDTRIP
360
31A9
  0
DICTIONARY
  5
31AA
330
1ACB
100
AcDbDictionary
280
     1
281
     1
  3
ACAD_XREC_ROUNDTRIP
360
31AB
  0
DICTIONARY
  5
31C7
330
2760
100
AcDbDictionary
280
     1
281
     1
  3
ACAD_XREC_ROUNDTRIP
360
31C8
  0
DICTIONARY
  5
31D3
330
2766
100
AcDbDictionary
280
     1
281
     1
  3
ACAD_XREC_ROUNDTRIP
360
31D4
  0
DICTIONARY
  5
31BE
330
1AD5
100
AcDbDictionary
280
     1
281
     1
  3
ACAD_XREC_ROUNDTRIP
360
31BF
  0
DICTIONARY
  5
31D5
330
2767
100
AcDbDictionary
280
     1
281
     1
  3
ACAD_XREC_ROUNDTRIP
360
31D6
  0
DICTIONARY
  5
31B6
330
1AD1
100
AcDbDictionary
280
     1
281
     1
  3
ACAD_XREC_ROUNDTRIP
360
31B7
  0
DICTIONARY
  5
31D1
330
2765
100
AcDbDictionary
280
     1
281
     1
  3
ACAD_XREC_ROUNDTRIP
360
31D2
  0
DICTIONARY
  5
31CF
330
2764
100
AcDbDictionary
280
     1
281
     1
  3
ACAD_XREC_ROUNDTRIP
360
31D0
  0
DICTIONARY
  5
31C9
330
2761
100
AcDbDictionary
280
     1
281
     1
  3
ACAD_XREC_ROUNDTRIP
360
31CA
  0
DICTIONARY
  5
31CB
330
2762
100
AcDbDictionary
280
     1
281
     1
  3
ACAD_XREC_ROUNDTRIP
360
31CC
  0
DICTIONARY
  5
31BC
330
1AD4
100
AcDbDictionary
280
     1
281
     1
  3
ACAD_XREC_ROUNDTRIP
360
31BD
  0
DICTIONARY
  5
31C5
330
275F
100
AcDbDictionary
280
     1
281
     1
  3
ACAD_XREC_ROUNDTRIP
360
31C6
  0
DICTIONARY
  5
31CD
330
2763
100
AcDbDictionary
280
     1
281
     1
  3
ACAD_XREC_ROUNDTRIP
360
31CE
  0
XRECORD
  5
319B
102
{ACAD_REACTORS
330
2A4A
102
}
330
2A4A
100
AcDbXrecord
280
     1
102
SHADEPLOT
 70
     0
102
SHADEPLOTRESLEVEL
 70
     2
102
SHADEPLOTCUSTOMDPI
 70
   300
  0
XRECORD
  5
2A4B
102
{ACAD_REACTORS
330
2A4A
102
}
330
2A4A
100
AcDbXrecord
280
     1
310
28000000000100007B0000000100080000000000007B0000000000000000000000010000000000000000000000000000FFFFFF000000000000000000000000000000000000000000000000000000000000000000330000006600000099000000CC000000FF00000000330000333300006633000099330000CC330000FF3300
310
0000660000336600006666000099660000CC660000FF66000000990000339900006699000099990000CC990000FF99000000CC000033CC000066CC000099CC0000CCCC0000FFCC000000FF000033FF000066FF000099FF0000CCFF0000FFFF000000003300330033006600330099003300CC003300FF003300003333003333
310
33006633330099333300CC333300FF33330000663300336633006666330099663300CC663300FF66330000993300339933006699330099993300CC993300FF99330000CC330033CC330066CC330099CC3300CCCC3300FFCC330000FF330033FF330066FF330099FF3300CCFF3300FFFF330000006600330066006600660099
310
006600CC006600FF00660000336600333366006633660099336600CC336600FF33660000666600336666006666660099666600CC666600FF66660000996600339966006699660099996600CC996600FF99660000CC660033CC660066CC660099CC6600CCCC6600FFCC660000FF660033FF660066FF660099FF6600CCFF6600
310
FFFF660000009900330099006600990099009900CC009900FF00990000339900333399006633990099339900CC339900FF33990000669900336699006666990099669900CC669900FF66990000999900339999006699990099999900CC999900FF99990000CC990033CC990066CC990099CC9900CCCC9900FFCC990000FF99
310
0033FF990066FF990099FF9900CCFF9900FFFF99000000CC003300CC006600CC009900CC00CC00CC00FF00CC000033CC003333CC006633CC009933CC00CC33CC00FF33CC000066CC003366CC006666CC009966CC00CC66CC00FF66CC000099CC003399CC006699CC009999CC00CC99CC00FF99CC0000CCCC0033CCCC0066CC
310
CC0099CCCC00CCCCCC00FFCCCC0000FFCC0033FFCC0066FFCC0099FFCC00CCFFCC00FFFFCC000000FF003300FF006600FF009900FF00CC00FF00FF00FF000033FF003333FF006633FF009933FF00CC33FF00FF33FF000066FF003366FF006666FF009966FF00CC66FF00FF66FF000099FF003399FF006699FF009999FF00CC
310
99FF00FF99FF0000CCFF0033CCFF0066CCFF0099CCFF00CCCCFF00FFCCFF0000FFFF0033FFFF0066FFFF0099FFFF00CCFFFF00FFFFFF00000000000D0D0D001A1A1A00282828003535350043434300505050005D5D5D006B6B6B00787878008686860093939300A1A1A100AEAEAE00BBBBBB00C9C9C900D6D6D600E4E4E400
310
F1F1F100FFFFFF000000000000000000000000000000000000000000000000000000000000000000000000000000000000000000000000000000000000000000000000000000000000000000000000000000000000000000000000000000000000000000000000000000000000000000000000000000000000000000000000
310
000000000000000000000000000000000000000000002D0000000000000000000000000000000000000000000000000000000000000000000000000000000000000000000000000000000000000000000000000000000000000000000000000000000000000000000000000000000000000000000000000000000000000000
310
00000000000000000000000000000000000000000000000000000000000000000000000000000000000000000000000000000000000000000000000000000000000000000000000000000000000000000000000000000000000000000000000000000000000000000000000000000000000000000000000000000000000000
310
0000000000000000000000000000000000000000000000002D000000000000000000000000000000000000000000000000000000000000000000000000000000000000000000000000000000000000000000000000000000000000000000000000000000000000000000002D00000000000000000000000000000000000000
310
00000000000000000000000000000000000000000000000000000000000000000000000000000000000000000000000000000000000000000000000000000000000000000000000000000000000000000000000000000000000000000000000000000000000000000000000000000000000000000000000000000000000000
310
000000000000000000000000000000000000000000F5F5F5F5F5F5F5F5F5F5F5000000000000000000000000000000000000000000000000000000000000000000000000000000000000000000000000000000000000000000000000000000000000000000000000F5F5F5F5F5F5F5F5F5F5F5000000000000000000000000
310
00000000000000000000000000000000000000000000000000000000000000000000000000000000000000000000000000000000000000000000000000000000000000000000000000000000000000000000000000000000000000000000000000000000000000000000000000000000000000000000000000000000F5F5F5
310
F5F5F5F5F5F5F500000000000000000000000000000000F5000000002D00000000F5000000000000000000000000000000F5F5F5F5F5F5F5F5F5F5F5000000000000000000000000000000000000000000000000000000000000000000000000000000000000000000F50000000000F500000000F500000000000000000000
310
0000000000000000000000000000000000000000000000000000000000000000000000000000000000000000000000000000000000000000000000000000000000000000000000000000000000000000000000000000000000000000000000000000000000000000000000000000000000000000000000000000000000F500
310
000000000000000000F5000000000000000000000000000000F5000000002D0000000000F50000000000000000000000000000F500000000000000000000F50000000000000000000000000000000000000000000000000000000000000000000000000000000000000000F5000000F5F52DF5F50000F50000000000000000
310
00000000000000000000000000000000000000000000000000000000000000000000000000000000000000000000000000000000000000000000000000000000000000000000000000000000000000000000000000000000000000000000000000000000000000000000000000000000000000000000000000000000F5F5F5
310
F500000000000000000000F5F50000000000000000000000000000F5000000002D0000000000F5F5F50000000000000000000000F50000000000000000000000F5F5F5000000000000000000000000000000000000000000000000000000000000000000000000000000000000F500F5F500F5F50000F500F5000000000000
310
000000000000000000000000000000000000000000000000000000000000000000000000000000000000000000000000000000000000000000000000000000000000000000000000000000000000000000000000000000000000000000000000000000000000000000000000000000000000000000000000F5F5F5F5F5F500
310
00F5F50000000000000000000000F50000000000000000000000000000F5000000002D0000000000000000F5F5F5F5F5F50000000000F50000000000000000000000F50000F5F5F5F5F5F5000000000000000000000000000000000000000000000000000000000000000000000000F5F5F5F5F5002DF5F5F5F5F500000000
310
0000000000000000000000000000000000000000000000000000000000000000000000000000000000000000000000000000000000000000000000000000000000000000000000000000000000000000000000000000000000000000000000000000000000000000000000000000000000000000000000F5F5F50000000000
310
000000F5000000000000000000000000F500F5F5F5F5F5F5F5F5F5F5F5F5F500000000002D0000000000F50000000000000000F5F5F5F500F50000000000000000000000F50000000000000000F5F5F5F500000000000000000000000000000000000000000000000000000000000000F5F50000000000F50000000000F5F5
310
000000000000000000000000000000000000000000000000000000000000000000000000000000000000000000000000000000000000000000000000000000000000000000000000000000000000000000000000000000000000000000000000000000000000000000000000000000000000000000000000F5F50000000000
310
0000000000F5F500000000000000000000F5F5F5F5000000000000000000000000F5000000002D00000000F5000000000000000000000000F5F5F5F500000000000000000000F50000000000000000000000F50000000000000000000000000000000000000000000000000000000000F5F5F5000000F5F5F5F5F5F5000000
310
00F5F50000000000000000000000000000000000000000000000000000000000000000000000000000000000000000000000000000000000000000000000000000000000000000000000000000000000000000000000000000000000000000000000000000000000000000000000000000000000000000000000F5F5000000
310
00000000000000F5F500000000000000000000F5F528F5000000000000000000000000F5000000002D00000000F5000000000000000000000000F528F5F500000000000000000000F50000000000000000000000F5000000000000000000000000000000000000000000000000000000F5F5F5F50000F5F5F5F5F52DF5F5F5
310
F5000000F5F5F5000000000000000000000000000000000000000000000000000000000000000000000000000000000000000000000000000000000000000000000000000000000000000000000000000000000000000000000000000000000000000000000000000000000000000000000000000000000000000000F5F500
310
000000000000000000F5F5F5F5F5F5F5F5F5F5F5F500F500F5F5F5F5F5F5F5F50000000000F5000000002D00000000F500000000F5F5F5F5F5F5F5F5F500F5F5F5F5F5F5F5F5F5F5F5F5F50000000000000000000000F50000000000000000000000000000000000000000000000000000F50000F50000F5F5000000002D00
310
000000F5F50000F500F50000000000000000000000000000000000000000000000000000000000000000000000000000000000000000000000000000000000000000000000000000000000000000000000000000000000000000000000000000000000000000000000000000000000000000000000000000000000000000F5
310
F500000000000000000000F5F5000000000000000000F500F500F500000000000000F500000000F5000000002D00000000F500000000F500000000000000F500F5F5000000000000000000F5F50000000000000000000000F50000000000000000000000000000000000000000000000000000F500F50000F5F5000000F5F5
310
F5F500000000F5F50000F5F500000000000000000000000000000000000000000000000000000000000000000000000000000000000000000000000000000000000000000000000000000000000000000000000000000000000000000000000000000000000000000000000000000000000000000000000000000000000000
310
00F5F500000000000000000000F5F500000000000000000000F5F500F500000000000000F500000000F5000000002D00000000F500000000F500000000000000F500F5F500000000000000000000F50000000000000000000000F50000000000000000000000000000000000000000000000000000F500F500F5F5000000F5
310
0000F500F5F5000000F50000F5F50000000000000000000000000000000000000000000000000000000000000000000000000000000000000000000000000000000000000000000000000000000000000000000000000000000000000000000000000000000000000000000000000000000000000000000000000000000000
310
000000F5F500000000000000000000F5F500000000000000000000F5F500F500000000000000F500000000F500F5F5002D00F5F500F500000000F500000000000000F500F5F500000000000000000000F50000000000000000000000F50000000000000000000000000000000000000000000000000000F5F50000F5F500F5
310
F5F5F5F52DF5F5F5F5000000F50000F5000000000000000000000000000000000000000000000000000000000000000000000000000000000000000000000000000000000000000000000000000000000000000000000000000000000000000000000000000000000000000000000000000000000000000000000000000000
310
0000000000F5F500000000000000000000F5F500000000000000000000F5F500F500000000000000F500000000F500F500F5F5F500F500F500000000F500000000000000F500F5F500000000000000000000F50000000000000000000000F50000000000000000000000000000000000000000000000000000F5F500F5F500
310
00F500F500F5F5F50000F5F50000F50000F500000000000000000000000000000000000000000000000000000000000000000000000000000000000000000000000000000000000000000000000000000000000000000000000000000000000000000000000000000000000000000000000000000000000000000000000000
310
00000000000000F5F500000000000000000000F5000000000000000000000000F500F500000000000000F500000000F500F5F5F5F5F5F5F500F500000000F500000000000000F500F50000000000000000000000F50000000000000000000000F50000000000000000000000000000000000000000000000000000F5F500F5
310
F50000F5F500F5002D00F500F5F50000F5F500F50000000000000000000000000000000000000000000000000000000000000000000000000000000000000000000000000000000000000000000000000000000000000000000000000000000000000000000000000000000000000000000000000000000000000000000000
310
000000000000002D2DF5F52D2D2D2D2D2D2D2D2D2DF52D2D2D2D2D2D2D2D2D2D2D2DF52DF52D2D2D2D2D2D2DF52D2D2D2DF52D2DF5F52DF5F52D2DF52D2D2D2DF52D2D2D2D2D2D2DF52DF52D2D2D2D2D2D2D2D2D2D2DF52D2D2D2D2D2D2D2D2D2D2DF52D2D00000000000000000000000000000000000000000000002DF5F5
310
2DF5F52DF52DF5F52D2D2D2DF52DF5F52D2DF5F52DF52D0000000000000000000000000000000000000000000000000000000000000000000000000000000000000000000000000000000000000000000000000000000000000000000000000000000000000000000000000000000000000000000000000000000000000000
310
0000000000000000000000F5F500000000000000000000F5000000000000000000000000F500F500000000000000F500000000F50000F500F5F5000000F500000000F500000000000000F500F50000000000000000000000F50000000000000000000000F50000000000000000000000000000000000000000000000000000
310
F5F500F5F50000F5F500F5002D00F500F5F50000F5F500F500000000000000000000000000000000000000000000000000000000000000000000000000000000000000000000000000000000000000000000000000000000000000000000000000000000000000000000000000000000000000000000000000000000000000
310
00000000000000000000000000F5F500000000000000000000F5F50000000000000000000000F500F500000000000000F500000000F5000000F5F5F5000000F500000000F500000000000000F500F5F500000000000000000000F50000000000000000000000F5000000000000000000000000000000000000000000000000
310
0000F5F500F5F50000F5F50000F52DF50000F5F50000F50000F50000000000000000000000000000000000000000000000000000000000000000000000000000000000000000000000000000000000000000000000000000000000000000000000000000000000000000000000000000000000000000000000000000000000
310
000000000000000000000000000000F5F500000000000000000000F5F500000000000000000000F5F500F500000000000000F500000000F5000000F5F500000000F500000000F500000000000000F500F5F500000000000000000000F50000000000000000000000F500000000000000000000000000000000000000000000
310
00000000F5F500F500F500F500F50000F50000F5F5000000F50000F5000000000000000000000000000000000000000000000000000000000000000000000000000000000000000000000000000000000000000000000000000000000000000000000000000000000000000000000000000000000000000000000000000000
310
0000000000000000000000000000000000F5F500000000000000000000F5F500000000000000000000F5F500F500000000000000F500000000F5000000F5F500000000F500000000F500000000000000F500F5F500000000000000000000F50000000000000000000000F50000000000000000000000000000000000000000
310
000000000000F500F500F5F50000F500F5F5F5F5F500F50000F5F50000F500000000000000000000000000000000000000000000000000000000000000000000000000000000000000000000000000000000000000000000000000000000000000000000000000000000000000000000000000000000000000000000000000
310
00000000000000000000000000000000000000F5F500000000000000000000F5F500000000000000000000F5F500F500000000000000F500000000F500000000F500000000F500000000F500000000000000F500F5F500000000000000000000F50000000000000000000000F5000000000000000000000000000000000000
310
0000000000000000F500F500F500F50000F5F5002DF5F5F5000000F50000F5F50000000000000000000000000000000000000000000000000000000000000000000000000000000000000000000000000000000000000000000000000000000000000000000000000000000000000000000000000000000000000000000000
310
000000000000000000000000000000000000000000F5F500000000000000000000F5F5000000000000000000F500F500F5000000000000F5F500000000F5000000002D00000000F500000000F500000000000000F500F5F5000000000000000000F5F50000000000000000000000F500000000000000000000000000000000
310
00000000000000000000F50000F500F5F500000000F5F50000000000F50000F500F5000000000000000000000000000000000000000000000000000000000000000000000000000000000000000000000000000000000000000000000000000000000000000000000000000000000000000000000000000000000000000000
310
0000000000000000000000000000000000000000000000F5F500000000000000000000F5F5F5F5F5F5F5F5F5F5F5F500F500F5F5F5F5F5F5F5000000000000F5000000002D00000000F50000000000F5F5F5F5F5F5F5F500F5F5F5F5F5F5F5F5F5F5F5F5F50000000000000000000000F50000000000000000000000000000
310
000000000000000000000000F50000F5000000F5F50000002D000000F5F50000F50000F500000000000000000000000000000000000000000000000000000000000000000000000000000000000000000000000000000000000000000000000000000000000000000000000000000000000000000000000000000000000000
310
00000000000000000000000000000000000000000000000000F5F500000000000000000000F5F500000000000000000000F5F500F5000000000000000000000000F5000000002D00000000F5000000000000000000000000F500F5F500000000000000000000F50000000000000000000000F5000000000000000000000000
310
000000000000000000000000000000F5F500F50000F5F5F5F5F5F5F5F5F5F5000000F5F5F5000000000000000000000000000000000000000000000000000000000000000000000000000000000000000000000000000000000000000000000000000000000000000000000000000000000000000000000000000000000000
310
00000000000000000000000000000000000000000000000000000000F5F5F50000000000000000F5F50000000000000000000000F5F5F5F50000000000000000000000F5000000002D00000000F5000000000000000000000000F5F5F5F500000000000000000000F5000000000000000000F5F5F500000000000000000000
310
00000000000000000000000000000000000000F5F5F5000000F5F5F5F5F5F5F5000000F5F5000000000000000000000000000000000000000000000000000000000000000000000000000000000000000000000000000000000000000000000000000000000000000000000000000000000000000000000000000000000000
310
000000000000000000000000000000000000000000000000000000000000000000F5F5F5F5F5F50000F5000000000000000000000000F5000000F5F5F50000000000F5F5F500000000002D0000000000F5F5F5F5F5F5F5F5F5F5F5F5F500F50000000000000000000000F5000000F5F5F5F5F5F50000000000000000000000
310
00000000000000000000000000000000000000000000F5F5F5F5000000002D000000F5F5F5F50000000000000000000000000000000000000000000000000000000000000000000000000000000000000000000000000000000000000000000000000000000000000000000000000000000000000000000000000000000000
310
0000000000000000000000000000000000000000000000000000000000000000000000000000000000F5F5F5F50000000000000000000000F5000000000000F5F5F5000000000000000000002D000000000000F5000000000000000000000000F50000000000000000000000F5F5F5F5000000000000000000000000000000
310
000000000000000000000000000000000000000000000000F50000F5F5F5F5F5F5F5F5F5F50000F5000000000000000000000000000000000000000000000000000000000000000000000000000000000000000000000000000000000000000000000000000000000000000000000000000000000000000000000000000000
310
00000000000000000000000000000000000000000000000000000000000000000000000000000000000000000000F500000000000000000000F500000000000000000000F5F5F5000000000000002D000000000000F5000000000000000000000000F5F500000000000000000000F500000000000000000000000000000000
310
0000000000000000000000000000000000000000000000000000F500000000F5F5002DF5F500000000F500000000000000000000000000000000000000000000000000000000000000000000000000000000000000000000000000000000000000000000000000000000000000000000000000000000000000000000000000
310
00000000000000000000000000000000000000000000000000000000000000000000000000000000000000000000000000F5F5F5F5F5F5F5F5F5F500000000000000000000000000F5000000000000002D000000000000F500000000000000000000000000F5F5F5F5F5F5F5F5F5F5F5000000000000000000000000000000
310
00000000000000000000000000000000000000000000000000000000F5000000000000F5F5000000000000F50000000000000000000000000000000000000000000000000000000000000000000000000000000000000000000000000000000000000000000000000000000000000000000000000000000000000000000000
310
0000000000000000000000000000000000000000000000000000000000000000000000000000000000000000000000000000000000000000000000000000000000000000000000000000F5000000000000002D000000000000F500000000000000000000000000000000000000000000000000000000000000000000000000
310
000000000000000000000000000000000000000000000000000000000000F5000000000000002D000000000000F5000000000000000000000000000000000000000000000000000000000000000000000000000000000000000000000000000000000000000000000000000000000000000000000000000000000000000000
310
00000000000000000000000000000000000000000000000000000000000000000000000000000000000000000000000000000000000000000000000000000000000000000000000000000000F5000000000000002D000000000000F50000000000000000000000000000000000000000000000000000000000000000000000
310
0000000000000000000000000000000000000000000000000000000000000000F5000000000000002D000000000000F500000000000000000000000000000000000000000000000000000000000000000000000000000000000000000000000000000000000000000000000000000000000000000000000000000000000000
310
000000000000000000000000000000000000000000000000000000000000000000000000000000000000000000000000000000000000000000000000000000000000000000000000000000000000F5000000000000002D000000000000F5000000000000000000000000000000000000000000000000000000000000000000
310
00000000000000000000000000000000000000000000000000000000000000000000F5000000000000002D000000000000F50000000000000000000000000000000000000000000000000000000000000000000000000000000000000000000000000000000000000000000000000000000000000000000000000000000000
310
0000000000000000000000000000000000000000000000000000000000000000000000000000000000000000000000000000000000000000000000000000000000000000000000000000000000000000F5000000000000002D000000000000F500000000000000000000000000000000000000000000000000000000000000
310
000000000000000000000000000000000000000000000000000000000000000000000000F5000000000000002D000000000000F5000000000000000000000000000000000000000000000000000000000000000000000000000000000000000000000000000000000000000000000000000000000000000000000000000000
310
00000000000000000000000000000000000000000000000000000000000000000000000000000000000000000000000000000000000000000000000000000000000000000000000000000000000000000000F5000000000000002D000000000000F50000000000000000000000000000000000000000000000000000000000
310
0000000000000000000000000000000000000000000000000000000000000000000000000000F5000000000000002D000000000000F500000000000000000000000000000000000000000000000000000000000000000000000000000000000000000000000000000000000000000000000000000000000000000000000000
310
000000000000000000000000000000000000000000000000000000000000000000000000000000000000000000000000000000000000000000000000000000000000000000000000000000000000000000000000F5F5F5F5F5F5F5F5F5F5F5F5F5F5F5F5000000000000000000000000000000000000000000000000000000
310
00000000000000000000000000000000000000000000000000000000000000000000000000000000F5F5F5F5F5F5F5F5F5F5F5F5F5F5F5F50000000000000000000000000000000000000000000000000000000000000000000000000000000000000000000000000000000000000000000000000000000000000000000000
310
0000000000000000000000000000000000000000000000000000000000000000000000000000000000000000000000000000000000000000000000000000000000000000000000000000000000000000000000000028F5000000000000002D00000000000000F5280000000000000000000000000000000000000000000000
310
000000000000000000000000000000000000000000000000000000000000000000000000000000000028F5000000000000002D00000000000000280000000000000000000000000000000000000000000000000000000000000000000000000000000000000000000000000000000000000000000000000000000000000000
310
0000000000000000000000000000000000000000000000000000000000000000000000000000000000000000000000000000000000000000000000000000000000000000000000000000000000000000000000000000F5F5F5F5F5F5F5F5F5F5F5F5F5F5F5F5F5F5F5F5000000000000000000000000000000000000000000
310
000000000000000000000000000000000000000000000000000000000000000000000000000000000000F5F5F5F5F5F5F5F5F5F5F5F5F5F5F5F5F5F5F5F50000000000000000000000000000000000000000000000000000000000000000000000000000000000000000000000000000000000000000000000000000000000
310
000000000000000000000000000000000000000000000000000000000000000000000000000000000000000000000000000000000000000000000000000000000000000000000000000000000000000000000000000000F5F5F5F5F5F5F5F5F5F5F5F5F5F5F5F5F5F5F5F5F5F5F50000000000000000000000000000000000
310
00000000000000000000000000000000000000000000000000000000000000000000000000000000000000F5F5F5F5F5F5F5F5F5F5F5F5F5F5F5F5F5F5F5F5F5F5F500000000000000000000000000000000000000000000000000000000000000000000000000000000000000000000000000000000000000000000000000
310
0000000000000000000000000000000000000000000000000000000000000000000000000000000000000000000000000000000000000000000000000000000000000000000000000000000000000000000000000000000000F5000000000000000000002D00000000000000000000F5000000000000000000000000000000
310
000000000000000000000000000000000000000000000000000000000000000000000000000000000000000000F5000000000000000000002D00000000000000000000F50000000000000000000000000000000000000000000000000000000000000000000000000000000000000000000000000000000000000000000000
310
00000000000000000000000000000000000000000000000000000000000000000000000000000000000000000000000000000000000000000000000000000000000000000000000000000000000000000000000000000000000000F5F5F5F5F5F5F5F5F5F5F5F5F5F5F5F5F5F5F5F5F5F5F500000000000000000000000000
310
0000000000000000000000000000000000000000000000000000000000000000000000000000000000000000000000F5F5F5F5F5F5F5F5F5F5F5F5F5F5F5F5F5F5F5F5F5F5F5000000000000000000000000000000000000000000000000000000000000000000000000000000000000000000000000000000000000000000
310
00000000000000000000000000000000000000000000000000000000000000000000000000000000000000000000000000000000000000000000000000000000000000000000000000000000000000000000000000000000000000F5F5F5F5F5F5F5F5F5F5F5F5F5F5F5F5F5F5F5F5F5F5F5F5F5F500000000000000000000
310
000000000000000000000000000000000000000000000000000000000000000000000000000000000000000000000000F5F5F5F5F5F5F5F5F5F5F5F5F5F5F5F5F5F5F5F5F5F5F5F500000000000000000000000000000000000000000000000000000000000000000000000000000000000000000000000000000000000000
310
000000000000000000000000000000000000000000000000000000000000000000000000000000000000000000000000000000000000000000000000000000000000000000000000000000000000000000000000000000000000000000F50000000000F500F5000000002D00000000F500F500000000F50000000000000000
310
0000000000000000000000000000000000000000000000000000000000000000000000000000000000000000000000000000F500F50000000000000000F52DF50000000000000000F5F50000000000000000000000000000000000000000000000000000000000000000000000000000000000000000000000000000000000
310
0000000000000000000000000000000000000000000000000000000000000000000000000000000000000000000000000000000000000000000000000000000000000000000000000000000000000000000000000000000000000000000000F50000000000F500F5000000002D00000000F500F500000000F5000000000000
310
00000000000000000000000000000000000000000000000000000000000000000000000000000000000000000000000000000000F500F50000000000000000F52DF50000000000000000F5F5000000000000000000000000000000000000000000000000000000000000000000000000000000000000000000000000000000
310
00000000000000000000000000000000000000000000000000000000000000000000000000000000000000000000000000000000000000000000000000000000000000000000000000000000000000000000000000000000000000000000000000F50000000000F500F5000000002D00000000F500F500000000F500000000
310
000000000000000000000000000000000000000000000000000000000000000000000000000000000000000000000000000000000000F500F50000000000000000F52DF50000000000000000F5F500000000000000000000000000000000000000000000000000000000000000000000000000000000000000000000000000
310
000000000000000000000000000000000000000000000000000000000000000000000000000000000000000000000000000000000000000000000000000000000000000000000000000000000000000000000000000000000000000000000000000000F50000000000F500F5000000002D00000000F500F500000000F50000
310
0000000000000000000000000000000000000000000000000000000000000000000000000000000000000000000000000000000000000000F500F50000000000000000F52DF50000000000000000F5F50000000000000000000000000000000000000000000000000000000000000000000000000000000000000000000000
310
0000000000000000000000000000000000000000000000000000000000000000000000000000000000000000000000000000000000000000000000000000000000000000000000000000000000000000000000000000000000000000000000000000000000F50000000000F500F5000000002D00000000F500F500000000F5
310
00000000000000000000000000000000000000000000000000000000000000000000000000000000000000000000000000000000000000000000F500F50000000000000000F52DF50000000000000000F5F5000000000000000000000000000000000000000000000000000000000000000000000000000000000000000000
310
00000000000000000000000000000000000000000000000000000000000000000000000000000000000000000000000000000000000000000000000000000000000000000000000000000000000000000000000000000000000000000000000000000000000000F50000000000F500F5000000002D00000000F500F5000000
310
00F500000000000000000000000000000000000000000000000000000000000000000000000000000000000000000000000000000000000000000000F500F50000000000000000F52DF50000000000000000F5F500000000000000000000000000000000000000000000000000000000000000000000000000000000000000
310
000000000000000000000000000000000000000000000000000000000000000000000000000000000000000000000000000000000000000000000000000000000000000000000000000000000000000000000000000000000000000000000000000000000000000000F50000000000F5F5F5F50000002D000000F5F5F5F500
310
000000F500000000000000000000000000000000000000000000000000000000000000000000000000000000000000000000000000000000000000000000F5F5F5F5000000000000F5F5F5F5F5000000000000F5F5F50000000000000000000000000000000000000000000000000000000000000000000000000000000000
310
000000000000000000000000000000000000000000000000000000000000000000000000000000000000000000000000000000000000000000000000000000000000000000000000000000000000000000000000000000000000000000000000000000000000000000000000F5F5F5F5F5F5F5F5F5F5F5F5F5F5F5F5F5F5F5
310
F5F5F5F5F5000000000000000000000000000000000000000000000000000000000000000000000000000000000000000000000000000000000000000000000000F5F5F5F5F5F5F5F5F5F5F5F5F5F5F5F5F5F5F5F5F5F5F5000000000000000000000000000000000000000000000000000000000000000000000000000000
310
00000000000000000000000000000000000000000000000000000000000000000000000000000000000000000000000000000000000000000000000000000000000000000000000000000000000000000000000000000000000000000000000000000000000000000000000000000000000000000000F50000002D000000F5
310
0000000000000000000000000000000000000000000000000000000000000000000000000000000000000000000000000000000000000000000000000000000000000000000000000000F50000002D000000F50000000000000000000000000000000000000000000000000000000000000000000000000000000000000000
310
000000000000000000000000000000000000000000000000000000000000000000000000000000000000000000000000000000000000000000000000000000000000000000000000000000000000000000000000000000000000000000000000000000000000000000000000000000000000000000000000F50000002D0000
310
00F50000000000000000000000000000000000000000000000000000000000000000000000000000000000000000000000000000000000000000000000000000000000000000000000000000F50000002D000000F5000000000000000000000000000000000000000000000000000000000000000000000000000000000000
310
0000000000000000000000000000000000000000000000000000000000000000000000000000000000000000000000000000000000000000000000000000000000000000000000000000000000000000000000000000000000000000000000000000000000000000000000000000000000000000000000000000F50000002D
310
000000F50000000000000000000000000000000000000000000000000000000000000000000000000000000000000000000000000000000000000000000000000000000000000000000000000000F50000002D000000F500000000000000000000000000000000000000000000000000000000000000000000000000000000
310
00000000000000000000000000000000000000000000000000000000000000000000000000000000000000000000000000000000000000000000000000000000000000000000000000000000000000000000000000000000000000000000000000000000000000000000000000000000000000000000000000000000F50000
310
002D000000F50000000000000000000000000000000000000000000000000000000000000000000000000000000000000000000000000000000000000000000000000000000000000000000000000000F50000002D000000F50000000000000000000000000000000000000000000000000000000000000000000000000000
310
000000000000000000000000000000000000000000000000000000000000000000000000000000000000000000000000000000000000000000000000000000000000000000000000000000000000000000000000000000000000000000000000000000000000000000000000000000000000000000000000000000000000F5
310
0000002D000000F50000000000000000000000000000000000000000000000000000000000000000000000000000000000000000000000000000000000000000000000000000000000000000000000000000F50000002D000000F5000000000000000000000000000000000000000000000000000000000000000000000000
310
00000000000000000000000000000000000000000000000000000000000000000000000000000000000000000000000000000000000000000000000000000000000000000000000000000000000000000000000000000000000000000000000000000000000000000000000000000000000000000000000000000000000000
310
00F50000002D000000F50000000000000000000000000000000000000000000000000000000000000000000000000000000000000000000000000000000000000000000000000000000000000000000000000000F50000002D000000F500000000000000000000000000000000000000000000000000000000000000000000
310
000000000000000000000000000000000000000000000000000000000000000000000000000000000000000000000000000000000000000000000000000000000000000000000000000000000000000000000000000000000000000000000000000000000000000000000000000000000000000000000000F5F5F5F5F5F5F5
310
F5F5F5F5F5F5F5F5F5F5F5F5F5F5F5F5F5F5F5F5F5F5000000000000000000000000000000000000000000000000000000000000000000000000000000000000000000000000000000000000F5F5F5F5F5F5F5F5F5F5F5F5F5F5F5F5F5F5F5F5F5F5F5F5F5F5F5F5F500000000000000000000000000000000000000000000
310
0000000000000000000000000000000000000000000000000000000000000000000000000000000000000000000000000000000000000000000000000000000000000000000000000000000000000000000000000000000000000000000000000000000000000000000000000000000000000000000000000000F500000000
310
0000000000000000002D00000000000000000000000000F5000000000000000000000000000000000000000000000000000000000000000000000000000000000000000000000000000000000000F5000000000000000000000000002D00000000000000000000000000F50000000000000000000000000000000000000000
310
00000000000000000000000000000000000000000000000000000000000000000000000000000000000000000000000000000000000000000000000000000000000000000000000000000000000000000000000000000000000000000000000000000000000000000000000000000000000000000000000000F5F5F5F5F5F5
310
F5F5F5F5F5F5F5F5F5F5F5F5F5F5F5F5F5F5F5F5F5F5F5F5F5F5F5F5F5000000000000000000000000000000000000000000000000000000000000000000000000000000000000000000000000F5F5F5F5F5F5F5F5F5F5F5F5F5F5F5F5F5F5F5F5F5F5F5F5F5F5F5F5F5F5F5F5F5F5F5000000000000000000000000000000
310
000000000000000000000000000000000000000000000000000000000000000000000000000000000000000000000000000000000000000000000000000000000000000000000000000000000000000000000000000000000000000000000000000000000000000000000000000000000000000000000000000000F5F50000
310
0000F500F500000000000000F52DF500000000000000F500F5000000F500F5000000000000000000000000000000000000000000000000000000000000000000000000000000000000000000000000F5000000F5000000000000F500F50000002D000000F500F5000000000000F5000000F500000000000000000000000000
310
0000000000000000000000000000000000000000000000000000000000000000000000000000000000000000000000000000000000000000000000000000000000000000000000000000000000000000000000000000000000000000000000000000000000000000000000000000000000000000000000000000000000F5F5
310
00000000F500F500000000000000F52DF500000000000000F500F5000000F500F5000000000000000000000000000000000000000000000000000000000000000000000000000000000000000000000000F5000000F5000000000000F500F50000002D000000F500F5000000000000F5000000F50000000000000000000000
310
00000000000000000000000000000000000000000000000000000000000000000000000000000000000000000000000000000000000000000000000000000000000000000000000000000000000000000000000000000000000000000000000000000000000000000000000000000000000000000000000000000000000000
310
F5F500000000F500F500000000000000F52DF500000000000000F500F5000000F500F5000000000000000000000000000000000000000000000000000000000000000000000000000000000000000000000000F5000000F5000000000000F500F50000002D000000F500F5000000000000F5000000F5000000000000000000
310
00000000000000000000000000000000000000000000000000000000000000000000000000000000000000000000000000000000000000000000000000000000000000000000000000000000000000000000000000000000000000000000000000000000000000000000000000000000000000000000000000000000000000
310
0000F5F500000000F500F500000000000000F52DF500000000000000F500F5000000F500F5000000000000000000000000000000000000000000000000000000000000000000000000000000000000000000000000F5000000F5000000000000F500F50000002D000000F500F5000000000000F5000000F500000000000000
310
00000000000000000000000000000000000000000000000000000000000000000000000000000000000000000000000000000000000000000000000000000000000000000000000000000000000000000000000000000000000000000000000000000000000000000000000000000000000000000000000000000000000000
310
00000000F5F500000000F500F500000000000000F52DF500000000000000F500F5000000F500F5000000000000000000000000000000000000000000000000000000000000000000000000000000000000000000000000F5000000F5000000000000F500F50000002D000000F500F5000000000000F5000000F50000000000
310
00000000000000000000000000000000000000000000000000000000000000000000000000000000000000000000000000000000000000000000000000000000000000000000000000000000000000000000000000000000000000000000000000000000000000000000000000000000000000000000000000000000000000
310
000000000000F5F500000000F500F500000000000000F52DF500000000000000F500F5000000F500F5000000000000000000000000000000000000000000000000000000000000000000000000000000000000000000000000F5000000F5000000000000F500F50000002D000000F500F5000000000000F5000000F5000000
310
00000000000000000000000000000000000000000000000000000000000000000000000000000000000000000000000000000000000000000000000000000000000000000000000000000000000000000000000000000000000000000000000000000000000000000000000000000000000000000000000000000000000000
310
0000000000000000F5F500000000F500F500000000000000F52DF500000000000000F500F5000000F500F5000000000000000000000000000000000000000000000000000000000000000000000000000000000000000000000000F5000000F5000000000000F500F50000002D000000F500F5000000000000F5000000F500
310
00000000000000000000000000000000000000000000000000000000000000000000000000000000000000000000000000000000000000000000000000000000000000000000000000000000000000000000000000000000000000000000000000000000000000000000000000000000000000000000000000000000000000
310
00000000000000000000F5F500000000F500F500000000000000F52DF500000000000000F500F5000000F500F5000000000000000000000000000000000000000000000000000000000000000000000000000000000000000000000000F5000000F5000000000000F500F50000002D000000F500F5000000000000F5000000
310
F5000000000000000000000000000000000000000000000000000000000000000000000000000000000000000000000000000000000000000000000000000000000000000000000000000000000000000000000000000000000000000000000000000000000000000000000000000000000000000000000000000000000000
310
000000000000000000000000F5F500000000F500F500000000000000F52DF500000000000000F500F5000000F500F5000000000000000000000000000000000000000000000000000000000000000000000000000000000000000000000000F5000000F5000000000000F500F50000002D000000F500F5000000000000F500
310
0000F500000000000000000000000000000000000000000000000000000000000000000000000000000000000000000000000000000000000000000000000000000000000000000000000000000000000000000000000000000000000000000000000000000000000000000000000000000000000000000000000000000000
310
0000000000000000000000000000F5F500000000F500F500000000000000F52DF500000000000000F500F5000000F500F5000000000000000000000000000000000000000000000000000000000000000000000000000000000000000000000000F5000000F5000000000000F500F50000002D000000F500F5000000000000
310
F5000000F50000000000000000000000000000000000000000000000000000000000000000000000000000000000000000000000000000000000000000000000000000000000000000000000000000000000000000000000000000000000000000000000000000000000000000000000000000000000000000000000000000
310
00000000000000000000000000000000F5F500000000F500F500000000000000F52DF500000000000000F500F5000000F500F5000000000000000000000000000000000000000000000000000000000000000000000000000000000000000000000000F5000000F5000000000000F500F50000002D000000F500F500000000
310
0000F5000000F5000000000000000000000000000000000000000000000000000000000000000000000000000000000000000000000000000000000000000000000000000000000000000000000000000000000000000000000000000000000000000000000000000000000000000000000000000000000000000000000000
310
000000000000000000000000000000000000F5F500000000F5F5F500000000000000F5F5F500000000000000F5F5F5000000F5F5F5000000000000000000000000000000000000000000000000000000000000000000000000000000000000000000000000F5F5F5F5F5000000000000F5F5F50000002D000000F5F5F50000
310
00000000F5F5F5F5F500000000000000000000000000000000000000000000000000000000000000000000000000000000000000000000000000000000000000000000000000000000000000000000000000000000000000000000000000000000000000000000000000000000000000000000000000000000000000000000
310
0000000000000000000000000000000000000000F5F5F5000000F50000F50000000000F5002D00F50000000000F50000F5000000F5F500000000000000000000000000000000000000000000000000000000000000000000000000000000000000000000000000F5F5000000F500000000F50000F50000002D0000F5000000
310
F500000000F5000000F5000000000000000000000000000000000000000000000000000000000000000000000000000000000000000000000000000000000000000000000000000000000000000000000000000000000000000000000000000000000000000000000000000000000000000000000000000000000000000000
310
000000000000000000000000000000000000000000000000F5F5F5F5F5F5F5F5F5F5F5F5F5F5F5F5F5F5F5F5F5F5F5F5F5F5F5F5F5F5F500000000000000000000000000000000000000000000000000000000000000000000000000000000000000000000000000000000F5F5F5F5F5F5F5F5F5F5F5F5F5F5F5F5F5F5F5F5
310
F5F5F5F5F5F5F5F5F5F5F50000000000000000000000000000000000000000000000000000000000000000000000000000000000000000000000000000000000000000000000000000000000000000000000000000000000000000000000000000000000000000000000000000000000000000000000000000000000000000
310
000000000000000000000000000000000000000000000000000000F5000000000000000000000000002D00000000000000000000000000F5000000000000000000000000000000000000000000000000000000000000000000000000000000000000000000000000000000000000F5000000000000000000000000002D0000
310
0000000000000000000000F500000000000000000000000000000000000000000000000000000000000000000000000000000000000000000000000000000000000000000000000000000000000000000000000000000000000000000000000000000000000000000000000000000000000000000000000000000000000000
310
0000000000000000000000000000000000000000000000000000000000F5000000000000000000000000002D00000000000000000000000000F5000000000000000000000000000000000000000000000000000000000000000000000000000000000000000000000000000000000000F5000000000000000000000000002D
310
00000000000000000000000000F50000000000000000000000000000000000000000000000000000000000000000000000000000000000000000000000000000000000000000000000000000000000000000000000000000000000000000000000000000000000000000000000000000000000000000000000000000000000
310
00000000000000000000000000000000000000000000000000000000000000F5F5F5F5F5F5F5F5F5F5F5F5F5F5F5F5F5F5F5F5F5F5F5F5F5F5F5F5F5000000000000000000000000000000000000000000000000000000000000000000000000000000000000000000000000000000000000F5F5F5F5F5F5F5F5F5F5F5F5F5
310
F5F5F5F5F5F5F5F5F5F5F5F5F5F5F5F5000000000000000000000000000000000000000000000000000000000000000000000000000000000000000000000000000000000000000000000000000000000000000000000000000000000000000000000000000000000000000000000000000000000000000000000000000000
310
00000000000000000000000000000000000000000000000000000000000000000000000000000000000000000000002D00000000000000000000000000000000000000000000000000000000000000000000000000000000000000000000000000000000000000000000000000000000000000000000000000000000000000
310
0000002D000000000000000000000000000000000000000000000000000000000000000000000000000000000000000000000000000000000000000000000000000000000000000000000000000000000000000000000000000000000000000000000000000000000000000000000000000000000000000000000000000000
310
000000000000000000000000000000000000000000000000000000000000000000000000000000000000000000000000002D0000000000000000000000000000000000000000000000000000000000000000000000000000000000000000000000000000000000000000000000000000000000000000000000000000000000
310
00000000002D00000000000000000000000000000000000000000000000000000000000000000000000000000000000000000000000000000000000000000000000000000000000000000000000000000000000000000000000000000000000000000000000000000000000000000000000000000000000000000000000000
310
0000000000000000000000000000000000000000000000000000000000000000000000000000000000000000000000000000002D000000000000000000000000000000000000000000000000000000000000000000000000000000000000000000000000000000000000000000000000000000000000000000000000000000
310
000000000000002D0000000000000000000000000000000000000000000000000000000000000000000000000000000000000000000000000000000000000000000000000000000000000000000000000000000000000000000000000000000000000000000000000000000000000000000000000000000000000000000000
310
00000000000000000000000000000000000000000000000000000000000000000000000000000000000000000000000000000000000000000000000000000000000000000000000000000000000000000000000000000000000000000000000000000000000000000000000000000000000000000000000000000000000000
310
00000000000000000000000000000000000000000000000000000000000000000000000000000000000000000000000000000000000000000000000000000000000000000000000000000000000000000000000000000000000000000000000000000000000000000000000000000000000000000000000000000000000000
310
00000000000000000000000000000000000000000000000000000000000000000000000000000000000000000000000000000000000000000000000000000000000000000000000000000000000000000000000000000000000000000000000000000000000000000000000000000000000000000000000000000000000000
310
00000000000000000000000000000000000000000000000000000000000000000000000000000000000000000000000000000000000000000000000000000000000000000000000000000000000000000000000000000000000000000000000000000000000000000000000000000000000000000000000000000000000000
310
00000000000000000000000000000000000000000000000000000000000000000000000000000000000000000000000000000000000000000000000000000000000000000000000000000000000000000000000000000000000000000000000000000000000000000000000000000000000000000000000000000000000000
310
00000000000000000000000000000000000000000000000000000000000000000000000000000000000000000000000000000000000000000000000000000000000000000000000000000000000000000000000000000000000000000000000000000000000000000000000000000000000000000000000000000000000000
310
00000000000000000000000000000000000000000000000000000000000000000000000000000000000000000000000000000000000000000000000000000000000000000000000000000000000000000000000000000000000000000000000000000000000000000000000000000000000000000000000000000000000000
310
00000000000000000000000000000000000000000000000000000000000000000000000000000000000000000000000000000000000000000000000000000000000000000000000000000000000000000000000000000000000000000000000000000000000000000000000000000000000000000000000000000000000000
310
00000000000000000000000000000000000000000000000000000000000000000000000000000000000000000000000000000000000000000000000000000000000000000000000000000000000000000000000000000000000000000000000000000000000000000000000000000000000000000000000000000000000000
310
00000000000000000000000000000000000000000000000000000000000000000000000000000000000000000000000000000000000000000000000000000000000000000000000000000000000000000000000000000000000000000000000000000000000000000000000000000000000000000000000000000000000000
310
00000000000000000000000000000000000000000000000000000000000000000000000000000000000000000000000000000000000000000000000000000000000000000000000000000000000000000000000000000000000000000000000000000000000000000000000000000000000000000000000000000000000000
310
00000000000000000000000000000000000000000000000000000000000000000000000000000000000000000000000000000000000000000000000000000000000000000000000000000000000000000000000000000000000000000000000000000000000000000000000000000000000000000000000000000000000000
310
00000000000000000000000000000000000000000000000000000000000000000000000000000000000000000000000000000000000000000000000000000000002D00000000000000000000000000000000000000000000000000000000000000000000000000000000000000000000000000000000000000000000000000
310
00000000000000000000000000000000000000000000000000000000000000000000000000000000000000000000000000000000000000000000000000000000000000000000000000000000000000000000000000000000000000000000000000000000000000000000000000000000000000000000000000000000000000
310
000000000000000000000000000000000000000000000000000000000000000000000000000000000000000000000000000000000000000000000000000000000000002D0000000000000000000000000000000000000000000000000000000000000000000000000000000000000000000000000000000000000000000000
310
00000000000000000000000000000000000000000000000000000000000000000000000000000000000000000000000000000000000000000000000000000000000000000000000000000000000000000000000000000000000000000000000000000000000000000000000000000000000000000000000000000000000000
310
00000000000000000000000000000000000000000000000000000000000000000000000000000000000000000000000000000000000000000000000000000000000000F5F52DF50000000000000000000000000000000000000000000000000000000000000000000000000000000000000000000000000000000000000000
310
00000000000000000000000000000000000000000000000000000000000000000000000000000000000000000000000000000000000000000000000000000000000000000000000000000000000000000000000000000000000000000000000000000000000000000000000000000000000000000000000000000000000000
310
000000000000000000000000000000000000000000000000000000000000000000000000000000000000000000000000000000000000000000000000000000000000000000F5002D00F50000000000000000000000000000000000000000000000000000000000000000000000000000000000000000000000000000000000
310
00000000000000000000000000000000000000000000000000000000000000000000000000000000000000000000000000000000000000000000000000000000000000000000000000000000000000000000000000000000000000000000000000000000000000000000000000000000000000000000000000000000000000
310
00000000000000000000000000000000000000000000000000000000000000000000000000000000000000000000000000000000000000000000000000000000F500000000F5F5F5F52DF5F5F500000000F5F50000000000000000000000000000000000000000000000000000000000000000000000000000000000000000
310
00000000000000000000000000000000000000000000000000000000000000000000000000000000000000000000000000000000000000000000000000000000000000000000000000000000000000000000000000000000000000000000000000000000000000000000000000000000000000000000000000000000000000
310
00000000000000000000000000000000000000000000000000000000000000000000000000000000000000000000000000000000000000000000000000000000F5F500F5F5F5F5F50000002D000000F5F5F5F50000F5F500000000000000000000000000000000000000000000000000000000000000000000000000000000
310
00000000000000000000000000000000000000000000000000000000000000000000000000000000000000000000000000000000000000000000000000000000000000000000000000000000000000000000000000000000000000000000000000000000000000000000000000000000000000000000000000000000000000
310
000000000000000000000000000000000000000000000000000000000000000000000000000000000000000000000000000000000000000000000000000000000000F50000F5F5000000F5F5F52DF5F5F5000000F5F50000F50000000000000000000000000000000000000000000000000000000000000000000000000000
310
00000000000000000000000000000000000000000000000000000000000000000000000000000000000000000000000000000000000000000000000000000000000000000000000000000000000000000000000000000000000000000000000000000000000000000000000000000000000000000000000000000000000000
310
0000000000000000000000000000000000000000000000000000000000000000000000000000000000000000000000000000000000000000000000000000000000000000F500F5000000F5F50000002D000000F5F5000000F5F500000000000000000000000000000000000000000000000000000000000000000000000000
310
00000000000000000000000000000000000000000000000000000000000000000000000000000000000000000000000000000000000000000000000000000000000000000000000000000000000000000000000000000000000000000000000000000000000000000000000000000000000000000000000000000000000000
310
00000000000000000000000000000000000000000000000000000000000000000000000000000000000000000000000000000000000000000000000000000000000000000000F5F50000F5F500000000002D0000000000F5F50000F5F500000000000000000000000000000000000000000000000000000000000000000000
310
00000000000000000000000000000000000000000000000000000000000000000000000000000000000000000000000000000000000000000000000000000000000000000000000000000000000000000000000000000000000000000000000000000000000000000000000000000000000000000000000000000000000000
310
000000000000000000000000000000000000000000000000000000000000000000000000000000000000000000000000000000000000000000000000000000000000000000000000F50000F5000000000000002D00000000000000F50000F50000000000000000000000000000000000000000000000000000000000000000
310
00000000000000000000000000000000000000000000000000000000000000000000000000000000000000000000000000000000000000000000000000000000000000000000000000000000000000000000000000000000000000000000000000000000000000000000000000000000000000000000000000000000000000
310
00000000000000000000000000000000000000000000000000000000000000000000000000000000000000000000000000000000000000000000000000000000000000000000000000F50000F500000000000000002D00000000000000F50000F5F50000000000000000000000000000000000000000000000000000000000
310
00000000000000000000000000000000000000000000000000000000000000000000000000000000000000000000000000000000000000000000000000000000000000000000000000000000000000000000000000000000000000000000000000000000000000000000000000000000000000000000000000000000000000
310
0000000000000000000000000000000000000000000000000000000000000000000000000000000000000000000000000000000000000000000000000000000000000000000000000000F5F500F50000000000000000002D0000000000000000F5F500F5000000000000000000000000000000000000000000000000000000
310
00000000000000000000000000000000000000000000000000000000000000000000000000000000000000000000000000000000000000000000000000000000000000000000000000000000000000000000000000000000000000000000000000000000000000000000000000000000000000000000000000000000000000
310
00000000000000000000000000000000000000000000000000000000000000000000000000000000000000000000000000000000000000000000000000000000000000000000000000F5F5F5F50000F50000000000000000002D0000000000000000F5F50000F5F5F5F5000000000000000000000000000000000000000000
310
00000000000000000000000000000000000000000000000000000000000000000000000000000000000000000000000000000000000000000000000000000000000000000000000000000000000000000000000000000000000000000000000000000000000000000000000000000000000000000000000000000000000000
310
000000000000000000000000000000000000000000000000000000000000000000000000000000000000000000000000000000000000000000000000000000000000000000000000000000F50000F500F5000000000000000000002D00000000000000F5F500F500F50000F500000000000000000000000000000000000000
310
00000000000000000000000000000000000000000000000000000000000000000000000000000000000000000000000000000000000000000000000000000000000000000000000000000000000000000000000000000000000000000000000000000000000000000000000000000000000000000000000000000000000000
310
0000000000000000000000000000000000000000000000000000000000000000000000000000000000000000000000000000000000000000000000000000000000000000000000000000000000F50000F500F5000000000000000000002D00000000000000F5F5F5F50000F500F50000000000000000000000000000000000
310
00000000000000000000000000000000000000000000000000000000000000000000000000000000000000000000000000000000000000000000000000000000000000000000000000000000000000000000000000000000000000000000000000000000000000000000000000000000000000000000000000000000000000
310
0000000000000000000000000000000000000000000000000000000000000000000000000000000000000000000000000000000000000000000000000000000000000000000000000000000000000000F5F50000F5000000000000000000002D00000000000000F5F5F500F500F5F500000000000000000000000000000000
310
00000000000000000000000000000000000000000000000000000000000000000000000000000000000000000000000000000000000000000000000000000000000000000000000000000000000000000000000000000000000000000000000000000000000000000000000000000000000000000000000000000000000000
310
0000000000000000000000000000000000000000000000000000000000000000000000000000000000000000000000000000000000000000000000000000000000000000000000000000000000000000000000F500F5F5F5F5F5F5F5F5F5F5F5F52DF5F5F5F5F5F5F5F5F5F5F5F500F5F50000000000000000000000000000
310
000000000000000000000000000000000000000000000000000000000000F5F5F5F5F5F5F5F5F5F5F5F5F5F5F5F5F5F5F5F5F5F5F5F5F5F5F5F5F5F5F5F5F5F5F5F5F5F50000000000000000000000000000000000000000000000000000000000000000000000000000000000000000000000000000000000000000000000
310
00000000000000000000000000000000000000000000000000000000000000000000000000000000000000000000000000000000000000000000000000000000000000000000000000000000000000000000000000F500F5F5F5F5F5F5F5F5F5F5F5F52DF5F5F5F5F5F5F5F5F5F5F5F500F500000000000000000000000000
310
0000000000000000000000000000000000000000000000000000000000000000F5F5F5F5F5F5F5F5F5F5F5F5F5F5F5F5F5F5F5F5F5F5F5F5F5F5F5F5F5F5F5F5F5F5F5F5F5F5000000000000000000000000000000000000000000000000000000000000000000000000000000000000000000000000000000000000000000
310
000000000000000000000000000000000000000000000000000000000000000000000000000000000000000000000000000000000000000000000000000000000000000000000000000000000000000000000000002D2D2D2D2D2D2D2D2D2D2D2D2D2D2D2D2D2D2D2D2D2D2D2D2D2D2D2D2D2D2D2D2D000000000000000000
310
00000000000000000000000000000000000000000000000000000000000000000000F5F5F5F5F5F5F5F5F5F5F5F5F5F5F5F5F5F5F5F5F5F5F5F5F5F5F5F5F5F5F5F5F5F5F5F5F5F500000000000000000000000000000000000000000000000000000000000000000000000000000000000000000000000000000000000000
310
0000000000000000000000000000000000000000000000000000000000000000000000000000000000000000000000000000000000000000000000000000000000000000000000000000000000000000000000000000000000F500F5F5F5F5F5F5F5F5F5F5F5F52DF5F5F5F5F5F5F5F5F5F5F5F500F5000000000000000000
310
00000000000000000000000000000000000000000000000000000000000000000000000000000000000000000000000000000000000000000000000000000000000000000000000000000000000000000000000000000000000000000000000000000000000000000000000000000000000000000000000000000000000000
310
00000000000000000000000000000000000000000000000000000000000000000000000000000000000000000000000000000000000000000000000000000000000000000000000000000000000000000000000000000000000000F500F5F5F5F5F5F5F5F5F5F5F5F52DF5F5F5F5F5F5F5F5F5F5F5F500F5F5000000000000
310
00000000000000000000000000000000000000000000000000000000000000000000000000000000000000000000000000000000000000000000000000000000000000000000000000000000000000000000000000000000000000000000000000000000000000000000000000000000000000000000000000000000000000
310
0000000000000000000000000000000000000000000000000000000000000000000000000000000000000000000000000000000000000000000000000000000000000000000000000000000000000000000000000000000000000000F5F500F5F5F5F5F5000000000000002D0000000000000000000000F500F5F500000000
310
00000000000000000000000000000000000000000000000000000000000000000000000000000000000000000000000000000000000000000000000000000000000000000000000000000000000000000000000000000000000000000000000000000000000000000000000000000000000000000000000000000000000000
310
000000000000000000000000000000000000000000000000000000000000000000000000000000000000000000000000000000000000000000000000000000000000000000000000000000000000000000000000000000000000000000F50000F500F5F5F500000000000000002D00000000000000000000F50000F500F500
310
00000000000000000000000000000000000000000000000000000000000000000000000000000000000000000000000000000000000000000000000000000000000000000000000000000000000000000000000000000000000000000000000000000000000000000000000000000000000000000000000000000000000000
310
0000000000000000000000000000000000000000000000000000000000000000000000000000000000000000000000000000000000000000000000000000000000000000000000000000000000000000000000000000000000000000000000F50000F500F5F5F500000000000000002D00000000000000000000F500F50000
310
F5000000000000000000000000000000000000000000000000000000000000000000000000000000000000000000000000000000000000000000000000000000000000000000000000000000000000000000000000000000000000000000000000000000000000000000000000000000000000000000000000000000000000
310
00000000000000000000000000000000000000000000000000000000000000000000000000000000000000000000000000000000000000000000000000000000000000000000000000000000000000000000000000000000000000000000000000F5F500F50000F5F500000000000000002D00000000000000000000F500F5
310
00F5F500000000000000000000000000000000000000000000000000000000000000000000000000000000000000000000000000000000000000000000000000000000000000000000000000000000000000000000000000000000000000000000000000000000000000000000000000000000000000000000000000000000
310
0000000000000000000000000000000000000000000000000000000000000000000000000000000000000000000000000000000000000000000000000000000000000000000000000000000000000000000000000000000000000000000000000000000000F5F5F500F50000000000000000002D000000000000000000F500
310
F5F5F500000000000000000000000000000000000000000000000000000000000000000000000000000000000000000000000000000000000000000000000000000000000000000000000000000000000000000000000000000000000000000000000000000000000000000000000000000000000000000000000000000000
310
000000000000000000000000000000000000000000000000000000000000000000000000000000000000000000000000000000000000000000000000000000000000000000000000000000000000000000000000000000000000000000000000000000000000000000F50000F500000000000000002D0000000000000000F5
310
00F5F500000000000000000000000000000000000000000000000000000000000000000000000000000000000000000000000000000000000000000000000000000000000000000000000000000000000000000000000000000000000000000000000000000000000000000000000000000000000000000000000000000000
310
000000000000000000000000000000000000000000000000000000000000000000000000000000000000000000000000000000000000000000000000000000000000000000000000000000000000000000000000000000000000000000000000000000000000000000000000F500F500000000000000002D00000000000000
310
F50000F5000000000000000000000000000000000000000000000000000000000000000000000000000000000000000000000000000000000000000000000000000000000000000000000000000000000000000000000000000000000000000000000000000000000000000000000000000000000000000000000000000000
310
0000000000000000000000000000000000000000000000000000000000000000000000000000000000000000000000000000000000000000000000000000000000000000000000000000000000000000000000000000000000000000000000000000000000000000000000000000F5F500F5F50000000000002D0000000000
310
00F50000F5F500000000000000000000000000000000000000000000000000000000000000000000000000000000000000000000000000000000000000000000000000000000000000000000000000000000000000000000000000000000000000000000000000000000000000000000000000000000000000000000000000
310
00000000000000000000000000000000000000000000000000000000000000000000000000000000000000000000000000000000000000000000000000000000000000000000000000000000000000000000000000000000000000000000000000000000000000000000000000000000F500F50000F5F5F50000002D000000
310
F5F5F50000F5F5000000000000000000000000000000000000000000000000000000000000000000000000000000000000000000000000000000000000000000000000000000000000000000000000000000000000000000000000000000000000000000000000000000000000000000000000000000000000000000000000
310
000000000000000000000000000000000000000000000000000000000000000000000000000000000000000000000000000000000000000000000000000000000000000000000000000000000000000000000000000000000000000000000000000000000000000000000000000000000000F50000F500000000F5F5F52DF5
310
F5F5000000F5F50000F5000000000000000000000000000000000000000000000000000000000000000000000000000000000000000000000000000000000000000000000000000000000000000000000000000000000000000000000000000000000000000000000000000000000000000000000000000000000000000000
310
0000000000000000000000000000000000000000000000000000000000000000000000000000000000000000000000000000000000000000000000000000000000000000000000000000000000000000000000000000000000000000000000000000000000000000000000000000000000000000F5000000F5F5F5F5000000
310
2D000000F5F5F5F50000F5F500000000000000000000000000000000000000000000000000000000000000000000000000000000000000000000000000000000000000000000000000000000000000000000000000000000000000000000000000000000000000000000000000000000000000000000000000000000000000
310
0000000000000000000000000000000000000000000000000000000000000000000000000000000000000000000000000000000000000000000000000000000000000000000000000000000000000000000000000000000000000000000000000000000000000000000000000000000000000000000000F5F5F5000000F5F5
310
F5F52DF5F5F5F5000000F5F500000000000000000000000000000000000000000000000000000000000000000000000000000000000000000000000000000000000000000000000000000000000000000000000000000000000000000000000000000000000000000000000000000000000000000000000000000000000000
310
00000000000000000000000000000000000000000000000000000000000000000000000000000000000000000000000000000000000000000000000000000000000000000000000000000000000000000000000000000000000000000000000000000000000000000000000000000000000000000000000000000000000000
310
0000F5002D00F5000000000000000000000000000000000000000000000000000000000000000000000000000000000000000000000000000000000000000000000000000000000000000000000000000000000000000000000000000000000000000000000000000000000000000000000000000000000000000000000000
310
00000000000000000000000000000000000000000000000000000000000000000000000000000000000000000000000000000000000000000000000000000000000000000000000000000000000000000000000000000000000000000000000000000000000000000000000000000000000000000000000000000000000000
310
00000000F5002DF50000000000000000000000000000000000000000000000000000000000000000000000000000000000000000000000000000000000000000000000000000000000000000000000000000000000000000000000000000000000000000000000000000000000000000000000000000000000000000000000
310
00000000000000000000000000000000000000000000000000000000000000000000000000000000000000000000000000000000000000000000000000000000000000000000000000000000000000000000000000000000000000000000000000000000000000000000000000000000000000000000000000000000000000
310
00000000000000F52DF5000000000000000000000000000000000000000000000000000000000000000000000000000000000000000000000000000000000000000000000000000000000000000000000000000000000000000000000000000000000000000000000000000000000000000000000000000000000000000000
310
00000000000000000000000000000000000000000000000000000000000000000000000000000000000000000000000000000000000000000000000000000000000000000000000000000000000000000000000000000000000000000000000000000000000000000000000000000000000000000000000000000000000000
310
000000000000000000002D0000000000000000000000000000000000000000000000000000000000000000000000000000000000000000000000000000000000000000000000000000000000000000000000000000000000000000000000000000000000000000000000000000000000000000000000000000000000000000
310
00000000000000000000000000000000000000000000000000000000000000000000000000000000000000000000000000000000000000000000000000000000000000000000000000000000000000000000000000000000000000000000000000000000000000000000000000000000000000000000000000000000000000
310
0000000000000000000000002D000000000000000000000000000000000000000000000000000000000000000000000000000000000000000000000000000000000000000000000000000000000000000000000000000000000000000000000000000000000000000000000000000000000000000000000000000000000000
310
00000000000000000000000000000000000000000000000000000000000000000000000000000000
  0
XRECORD
  5
319A
102
{ACAD_REACTORS
330
3199
102
}
330
3199
100
AcDbXrecord
280
     1
102
SHADEPLOT
 70
     0
102
SHADEPLOTRESLEVEL
 70
     2
102
SHADEPLOTCUSTOMDPI
 70
   300
  0
XRECORD
  5
319D
102
{ACAD_REACTORS
330
319C
102
}
330
319C
100
AcDbXrecord
280
     1
102
SHADEPLOT
 70
     0
102
SHADEPLOTRESLEVEL
 70
     2
102
SHADEPLOTCUSTOMDPI
 70
   300
  0
XRECORD
  5
31A1
102
{ACAD_REACTORS
330
31A0
102
}
330
31A0
100
AcDbXrecord
280
     1
102
MATERIAL
148
0.0
149
0.0
149
0.0
 93
        0
 94
       63
282
     0
 72
     1
 77
     1
171
     1
175
     1
179
     1
273
     0
  0
XRECORD
  5
319F
102
{ACAD_REACTORS
330
319E
102
}
330
319E
100
AcDbXrecord
280
     1
102
MATERIAL
148
0.0
149
0.0
149
0.0
 93
        0
 94
       63
282
     0
 72
     1
 77
     1
171
     1
175
     1
179
     1
273
     0
  0
XRECORD
  5
31A3
102
{ACAD_REACTORS
330
31A2
102
}
330
31A2
100
AcDbXrecord
280
     1
102
MATERIAL
148
0.0
149
0.0
149
0.0
 93
        0
 94
       63
282
     0
 72
     1
 77
     1
171
     1
175
     1
179
     1
273
     0
  0
CELLSTYLEMAP
  5
3196
102
{ACAD_REACTORS
330
2A4C
102
}
330
2A4C
100
AcDbCellStyleMap
 90
        3
300
CELLSTYLE
  1
TABLEFORMAT_BEGIN
 90
        5
170
     1
 91
        0
 92
    32768
 62
   257
 93
        1
300
CONTENTFORMAT
  1
CONTENTFORMAT_BEGIN
 90
        0
 91
        0
 92
      512
 93
        0
300

 40
0.0
140
1.0
 94
        5
 62
     0
340
11
144
6.0
309
CONTENTFORMAT_END
171
     1
301
MARGIN
  1
CELLMARGIN_BEGIN
 40
1.5
 40
1.5
 40
1.5
 40
1.5
 40
0.18
 40
0.18
309
CELLMARGIN_END
 94
        6
 95
        1
302
GRIDFORMAT
  1
GRIDFORMAT_BEGIN
 90
        0
 91
        1
 62
     0
 92
       -2
340
0
 93
        0
 40
0.045
309
GRIDFORMAT_END
 95
        2
302
GRIDFORMAT
  1
GRIDFORMAT_BEGIN
 90
        0
 91
        1
 62
     0
 92
       -2
340
0
 93
        0
 40
0.045
309
GRIDFORMAT_END
 95
        4
302
GRIDFORMAT
  1
GRIDFORMAT_BEGIN
 90
        0
 91
        1
 62
     0
 92
       -2
340
0
 93
        0
 40
0.045
309
GRIDFORMAT_END
 95
        8
302
GRIDFORMAT
  1
GRIDFORMAT_BEGIN
 90
        0
 91
        1
 62
     0
 92
       -2
340
0
 93
        0
 40
0.045
309
GRIDFORMAT_END
 95
       16
302
GRIDFORMAT
  1
GRIDFORMAT_BEGIN
 90
        0
 91
        1
 62
     0
 92
       -2
340
0
 93
        0
 40
0.045
309
GRIDFORMAT_END
 95
       32
302
GRIDFORMAT
  1
GRIDFORMAT_BEGIN
 90
        0
 91
        1
 62
     0
 92
       -2
340
0
 93
        0
 40
0.045
309
GRIDFORMAT_END
309
TABLEFORMAT_END
  1
CELLSTYLE_BEGIN
 90
        1
 91
        1
300
_TITLE
309
CELLSTYLE_END
300
CELLSTYLE
  1
TABLEFORMAT_BEGIN
 90
        5
170
     1
 91
        0
 92
        0
 62
   257
 93
        1
300
CONTENTFORMAT
  1
CONTENTFORMAT_BEGIN
 90
        0
 91
        0
 92
      512
 93
        0
300

 40
0.0
140
1.0
 94
        5
 62
     0
340
11
144
4.5
309
CONTENTFORMAT_END
171
     1
301
MARGIN
  1
CELLMARGIN_BEGIN
 40
1.5
 40
1.5
 40
1.5
 40
1.5
 40
0.18
 40
0.18
309
CELLMARGIN_END
 94
        6
 95
        1
302
GRIDFORMAT
  1
GRIDFORMAT_BEGIN
 90
        0
 91
        1
 62
     0
 92
       -2
340
0
 93
        0
 40
0.045
309
GRIDFORMAT_END
 95
        2
302
GRIDFORMAT
  1
GRIDFORMAT_BEGIN
 90
        0
 91
        1
 62
     0
 92
       -2
340
0
 93
        0
 40
0.045
309
GRIDFORMAT_END
 95
        4
302
GRIDFORMAT
  1
GRIDFORMAT_BEGIN
 90
        0
 91
        1
 62
     0
 92
       -2
340
0
 93
        0
 40
0.045
309
GRIDFORMAT_END
 95
        8
302
GRIDFORMAT
  1
GRIDFORMAT_BEGIN
 90
        0
 91
        1
 62
     0
 92
       -2
340
0
 93
        0
 40
0.045
309
GRIDFORMAT_END
 95
       16
302
GRIDFORMAT
  1
GRIDFORMAT_BEGIN
 90
        0
 91
        1
 62
     0
 92
       -2
340
0
 93
        0
 40
0.045
309
GRIDFORMAT_END
 95
       32
302
GRIDFORMAT
  1
GRIDFORMAT_BEGIN
 90
        0
 91
        1
 62
     0
 92
       -2
340
0
 93
        0
 40
0.045
309
GRIDFORMAT_END
309
TABLEFORMAT_END
  1
CELLSTYLE_BEGIN
 90
        2
 91
        1
300
_HEADER
309
CELLSTYLE_END
300
CELLSTYLE
  1
TABLEFORMAT_BEGIN
 90
        5
170
     1
 91
        0
 92
        0
 62
   257
 93
        1
300
CONTENTFORMAT
  1
CONTENTFORMAT_BEGIN
 90
        0
 91
        0
 92
      512
 93
        0
300

 40
0.0
140
1.0
 94
        2
 62
     0
340
11
144
4.5
309
CONTENTFORMAT_END
171
     1
301
MARGIN
  1
CELLMARGIN_BEGIN
 40
1.5
 40
1.5
 40
1.5
 40
1.5
 40
0.18
 40
0.18
309
CELLMARGIN_END
 94
        6
 95
        1
302
GRIDFORMAT
  1
GRIDFORMAT_BEGIN
 90
        0
 91
        1
 62
     0
 92
       -2
340
0
 93
        0
 40
0.045
309
GRIDFORMAT_END
 95
        2
302
GRIDFORMAT
  1
GRIDFORMAT_BEGIN
 90
        0
 91
        1
 62
     0
 92
       -2
340
0
 93
        0
 40
0.045
309
GRIDFORMAT_END
 95
        4
302
GRIDFORMAT
  1
GRIDFORMAT_BEGIN
 90
        0
 91
        1
 62
     0
 92
       -2
340
0
 93
        0
 40
0.045
309
GRIDFORMAT_END
 95
        8
302
GRIDFORMAT
  1
GRIDFORMAT_BEGIN
 90
        0
 91
        1
 62
     0
 92
       -2
340
0
 93
        0
 40
0.045
309
GRIDFORMAT_END
 95
       16
302
GRIDFORMAT
  1
GRIDFORMAT_BEGIN
 90
        0
 91
        1
 62
     0
 92
       -2
340
0
 93
        0
 40
0.045
309
GRIDFORMAT_END
 95
       32
302
GRIDFORMAT
  1
GRIDFORMAT_BEGIN
 90
        0
 91
        1
 62
     0
 92
       -2
340
0
 93
        0
 40
0.045
309
GRIDFORMAT_END
309
TABLEFORMAT_END
  1
CELLSTYLE_BEGIN
 90
        3
 91
        2
300
_DATA
309
CELLSTYLE_END
  0
XRECORD
  5
31C4
102
{ACAD_REACTORS
330
2A4C
102
}
330
2A4C
100
AcDbXrecord
280
     1
102
ACAD_ROUNDTRIP_PRE2007_TABLESTYLE
 90
      512
 91
        0
  1

 92
      512
 93
        0
  2

 94
      512
 95
        0
  3

  0
XRECORD
  5
31AF
102
{ACAD_REACTORS
330
31AE
102
}
330
31AE
100
AcDbXrecord
280
     1
102
RTVSPropertyOp0
 70
     1
102
RTVSPropertyOp1
 70
     1
102
RTVSPropertyOp2
 70
     1
102
RTVSPropertyOp3
 70
     1
102
RTVSPropertyOp4
 70
     1
102
RTVSPropertyOp5
 70
     1
102
RTVSPropertyOp6
 70
     1
102
RTVSPropertyOp7
 70
     1
102
RTVSPropertyOp8
 70
     1
102
RTVSPropertyOp9
 70
     1
102
RTVSPropertyOp10
 70
     1
102
RTVSPropertyOp11
 70
     1
102
RTVSPropertyOp12
 70
     1
102
RTVSPropertyOp13
 70
     1
102
RTVSPropertyOp14
 70
     1
102
RTVSPropertyOp15
 70
     1
102
RTVSPropertyOp16
 70
     1
102
RTVSPropertyOp17
 70
     1
102
RTVSPropertyOp18
 70
     1
102
RTVSPropertyOp19
 70
     1
102
RTVSPropertyOp20
 70
     1
102
RTVSPropertyOp21
 70
     1
102
RTVSPropertyOp22
 70
     1
102
RTVSPropertyOp23
 70
     1
102
RTVSPropertyOp24
 70
     1
102
RTVSPropertyOp25
 70
     1
102
RTVSPropertyOp26
 70
     1
102
RTVSPropertyOp27
 70
     1
102
RTVSPropertyOp28
 70
     1
102
RTVSPropertyOp29
 70
     1
102
RTVSPropertyOp30
 70
     1
102
RTVSPropertyOp31
 70
     1
102
RTVSPropertyOp32
 70
     1
  0
XRECORD
  5
31B3
102
{ACAD_REACTORS
330
31B2
102
}
330
31B2
100
AcDbXrecord
280
     1
102
RTVSPropertyOp0
 70
     1
102
RTVSPropertyOp1
 70
     1
102
RTVSPropertyOp2
 70
     1
102
RTVSPropertyOp3
 70
     1
102
RTVSPropertyOp4
 70
     1
102
RTVSPropertyOp5
 70
     1
102
RTVSPropertyOp6
 70
     1
102
RTVSPropertyOp7
 70
     1
102
RTVSPropertyOp8
 70
     1
102
RTVSPropertyOp9
 70
     1
102
RTVSPropertyOp10
 70
     1
102
RTVSPropertyOp11
 70
     1
102
RTVSPropertyOp12
 70
     1
102
RTVSPropertyOp13
 70
     1
102
RTVSPropertyOp14
 70
     1
102
RTVSPropertyOp15
 70
     1
102
RTVSPropertyOp16
 70
     1
102
RTVSPropertyOp17
 70
     1
102
RTVSPropertyOp18
 70
     1
102
RTVSPropertyOp19
 70
     1
102
RTVSPropertyOp20
 70
     1
102
RTVSPropertyOp21
 70
     1
102
RTVSPropertyOp22
 70
     1
102
RTVSPropertyOp23
 70
     1
102
RTVSPropertyOp24
 70
     1
102
RTVSPropertyOp25
 70
     1
102
RTVSPropertyOp26
 70
     1
102
RTVSPropertyOp27
 70
     1
102
RTVSPropertyOp28
 70
     1
102
RTVSPropertyOp29
 70
     1
102
RTVSPropertyOp30
 70
     1
102
RTVSPropertyOp31
 70
     1
102
RTVSPropertyOp32
 70
     1
  0
XRECORD
  5
31B1
102
{ACAD_REACTORS
330
31B0
102
}
330
31B0
100
AcDbXrecord
280
     1
102
RTVSPropertyOp0
 70
     1
102
RTVSPropertyOp1
 70
     1
102
RTVSPropertyOp2
 70
     1
102
RTVSPropertyOp3
 70
     1
102
RTVSPropertyOp4
 70
     1
102
RTVSPropertyOp5
 70
     1
102
RTVSPropertyOp6
 70
     1
102
RTVSPropertyOp7
 70
     1
102
RTVSPropertyOp8
 70
     1
102
RTVSPropertyOp9
 70
     1
102
RTVSPropertyOp10
 70
     1
102
RTVSPropertyOp11
 70
     1
102
RTVSPropertyOp12
 70
     1
102
RTVSPropertyOp13
 70
     1
102
RTVSPropertyOp14
 70
     1
102
RTVSPropertyOp15
 70
     1
102
RTVSPropertyOp16
 70
     1
102
RTVSPropertyOp17
 70
     1
102
RTVSPropertyOp18
 70
     1
102
RTVSPropertyOp19
 70
     1
102
RTVSPropertyOp20
 70
     1
102
RTVSPropertyOp21
 70
     1
102
RTVSPropertyOp22
 70
     1
102
RTVSPropertyOp23
 70
     1
102
RTVSPropertyOp24
 70
     1
102
RTVSPropertyOp25
 70
     1
102
RTVSPropertyOp26
 70
     1
102
RTVSPropertyOp27
 70
     1
102
RTVSPropertyOp28
 70
     1
102
RTVSPropertyOp29
 70
     1
102
RTVSPropertyOp30
 70
     1
102
RTVSPropertyOp31
 70
     1
102
RTVSPropertyOp32
 70
     1
  0
XRECORD
  5
31AD
102
{ACAD_REACTORS
330
31AC
102
}
330
31AC
100
AcDbXrecord
280
     1
102
RTVSPropertyOp0
 70
     1
102
RTVSPropertyOp1
 70
     1
102
RTVSPropertyOp2
 70
     1
102
RTVSPropertyOp3
 70
     1
102
RTVSPropertyOp4
 70
     1
102
RTVSPropertyOp5
 70
     1
102
RTVSPropertyOp6
 70
     1
102
RTVSPropertyOp7
 70
     1
102
RTVSPropertyOp8
 70
     1
102
RTVSPropertyOp9
 70
     1
102
RTVSPropertyOp10
 70
     1
102
RTVSPropertyOp11
 70
     1
102
RTVSPropertyOp12
 70
     1
102
RTVSPropertyOp13
 70
     1
102
RTVSPropertyOp14
 70
     1
102
RTVSPropertyOp15
 70
     1
102
RTVSPropertyOp16
 70
     1
102
RTVSPropertyOp17
 70
     1
102
RTVSPropertyOp18
 70
     1
102
RTVSPropertyOp19
 70
     1
102
RTVSPropertyOp20
 70
     1
102
RTVSPropertyOp21
 70
     1
102
RTVSPropertyOp22
 70
     1
102
RTVSPropertyOp23
 70
     1
102
RTVSPropertyOp24
 70
     1
102
RTVSPropertyOp25
 70
     1
102
RTVSPropertyOp26
 70
     1
102
RTVSPropertyOp27
 70
     1
102
RTVSPropertyOp28
 70
     1
102
RTVSPropertyOp29
 70
     1
102
RTVSPropertyOp30
 70
     1
102
RTVSPropertyOp31
 70
     1
102
RTVSPropertyOp32
 70
     1
  0
XRECORD
  5
31BB
102
{ACAD_REACTORS
330
31BA
102
}
330
31BA
100
AcDbXrecord
280
     1
102
RTVSPropertyOp0
 70
     1
102
RTVSPropertyOp1
 70
     1
102
RTVSPropertyOp2
 70
     1
102
RTVSPropertyOp3
 70
     1
102
RTVSPropertyOp4
 70
     1
102
RTVSPropertyOp5
 70
     1
102
RTVSPropertyOp6
 70
     1
102
RTVSPropertyOp7
 70
     1
102
RTVSPropertyOp8
 70
     1
102
RTVSPropertyOp9
 70
     1
102
RTVSPropertyOp10
 70
     1
102
RTVSPropertyOp11
 70
     1
102
RTVSPropertyOp12
 70
     1
102
RTVSPropertyOp13
 70
     1
102
RTVSPropertyOp14
 70
     1
102
RTVSPropertyOp15
 70
     1
102
RTVSPropertyOp16
 70
     1
102
RTVSPropertyOp17
 70
     1
102
RTVSPropertyOp18
 70
     1
102
RTVSPropertyOp19
 70
     1
102
RTVSPropertyOp20
 70
     1
102
RTVSPropertyOp21
 70
     1
102
RTVSPropertyOp22
 70
     1
102
RTVSPropertyOp23
 70
     1
102
RTVSPropertyOp24
 70
     1
102
RTVSPropertyOp25
 70
     1
102
RTVSPropertyOp26
 70
     1
102
RTVSPropertyOp27
 70
     1
102
RTVSPropertyOp28
 70
     1
102
RTVSPropertyOp29
 70
     1
102
RTVSPropertyOp30
 70
     1
102
RTVSPropertyOp31
 70
     1
102
RTVSPropertyOp32
 70
     1
  0
XRECORD
  5
31C3
102
{ACAD_REACTORS
330
31C2
102
}
330
31C2
100
AcDbXrecord
280
     1
102
RTVSPropertyOp0
 70
     1
102
RTVSPropertyOp1
 70
     1
102
RTVSPropertyOp2
 70
     1
102
RTVSPropertyOp3
 70
     1
102
RTVSPropertyOp4
 70
     1
102
RTVSPropertyOp5
 70
     1
102
RTVSPropertyOp6
 70
     1
102
RTVSPropertyOp7
 70
     1
102
RTVSPropertyOp8
 70
     1
102
RTVSPropertyOp9
 70
     1
102
RTVSPropertyOp10
 70
     1
102
RTVSPropertyOp11
 70
     1
102
RTVSPropertyOp12
 70
     1
102
RTVSPropertyOp13
 70
     1
102
RTVSPropertyOp14
 70
     1
102
RTVSPropertyOp15
 70
     1
102
RTVSPropertyOp16
 70
     1
102
RTVSPropertyOp17
 70
     1
102
RTVSPropertyOp18
 70
     1
102
RTVSPropertyOp19
 70
     1
102
RTVSPropertyOp20
 70
     1
102
RTVSPropertyOp21
 70
     1
102
RTVSPropertyOp22
 70
     1
102
RTVSPropertyOp23
 70
     1
102
RTVSPropertyOp24
 70
     1
102
RTVSPropertyOp25
 70
     1
102
RTVSPropertyOp26
 70
     1
102
RTVSPropertyOp27
 70
     1
102
RTVSPropertyOp28
 70
     1
102
RTVSPropertyOp29
 70
     1
102
RTVSPropertyOp30
 70
     1
102
RTVSPropertyOp31
 70
     1
102
RTVSPropertyOp32
 70
     1
  0
XRECORD
  5
31B5
102
{ACAD_REACTORS
330
31B4
102
}
330
31B4
100
AcDbXrecord
280
     1
102
RTVSPropertyOp0
 70
     1
102
RTVSPropertyOp1
 70
     1
102
RTVSPropertyOp2
 70
     1
102
RTVSPropertyOp3
 70
     1
102
RTVSPropertyOp4
 70
     1
102
RTVSPropertyOp5
 70
     1
102
RTVSPropertyOp6
 70
     1
102
RTVSPropertyOp7
 70
     1
102
RTVSPropertyOp8
 70
     1
102
RTVSPropertyOp9
 70
     1
102
RTVSPropertyOp10
 70
     1
102
RTVSPropertyOp11
 70
     1
102
RTVSPropertyOp12
 70
     1
102
RTVSPropertyOp13
 70
     1
102
RTVSPropertyOp14
 70
     1
102
RTVSPropertyOp15
 70
     1
102
RTVSPropertyOp16
 70
     1
102
RTVSPropertyOp17
 70
     1
102
RTVSPropertyOp18
 70
     1
102
RTVSPropertyOp19
 70
     1
102
RTVSPropertyOp20
 70
     1
102
RTVSPropertyOp21
 70
     1
102
RTVSPropertyOp22
 70
     1
102
RTVSPropertyOp23
 70
     1
102
RTVSPropertyOp24
 70
     1
102
RTVSPropertyOp25
 70
     1
102
RTVSPropertyOp26
 70
     1
102
RTVSPropertyOp27
 70
     1
102
RTVSPropertyOp28
 70
     1
102
RTVSPropertyOp29
 70
     1
102
RTVSPropertyOp30
 70
     1
102
RTVSPropertyOp31
 70
     1
102
RTVSPropertyOp32
 70
     1
  0
XRECORD
  5
31B9
102
{ACAD_REACTORS
330
31B8
102
}
330
31B8
100
AcDbXrecord
280
     1
102
RTVSPropertyOp0
 70
     1
102
RTVSPropertyOp1
 70
     1
102
RTVSPropertyOp2
 70
     1
102
RTVSPropertyOp3
 70
     1
102
RTVSPropertyOp4
 70
     1
102
RTVSPropertyOp5
 70
     1
102
RTVSPropertyOp6
 70
     1
102
RTVSPropertyOp7
 70
     1
102
RTVSPropertyOp8
 70
     1
102
RTVSPropertyOp9
 70
     1
102
RTVSPropertyOp10
 70
     1
102
RTVSPropertyOp11
 70
     1
102
RTVSPropertyOp12
 70
     1
102
RTVSPropertyOp13
 70
     1
102
RTVSPropertyOp14
 70
     1
102
RTVSPropertyOp15
 70
     1
102
RTVSPropertyOp16
 70
     1
102
RTVSPropertyOp17
 70
     1
102
RTVSPropertyOp18
 70
     1
102
RTVSPropertyOp19
 70
     1
102
RTVSPropertyOp20
 70
     1
102
RTVSPropertyOp21
 70
     1
102
RTVSPropertyOp22
 70
     1
102
RTVSPropertyOp23
 70
     1
102
RTVSPropertyOp24
 70
     1
102
RTVSPropertyOp25
 70
     1
102
RTVSPropertyOp26
 70
     1
102
RTVSPropertyOp27
 70
     1
102
RTVSPropertyOp28
 70
     1
102
RTVSPropertyOp29
 70
     1
102
RTVSPropertyOp30
 70
     1
102
RTVSPropertyOp31
 70
     1
102
RTVSPropertyOp32
 70
     1
  0
XRECORD
  5
31D8
102
{ACAD_REACTORS
330
31D7
102
}
330
31D7
100
AcDbXrecord
280
     1
102
RTVSPropertyOp0
 70
     0
102
RTVSPropertyOp1
 70
     0
102
RTVSPropertyOp2
 70
     0
102
RTVSPropertyOp3
 70
     0
102
RTVSPropertyOp4
 70
     0
102
RTVSPropertyOp5
 70
     0
102
RTVSPropertyOp6
 70
     0
102
RTVSPropertyOp7
 70
     0
102
RTVSPropertyOp8
 70
     0
102
RTVSPropertyOp9
 70
     0
102
RTVSPropertyOp10
 70
     0
102
RTVSPropertyOp11
 70
     0
102
RTVSPropertyOp12
 70
     0
102
RTVSPropertyOp13
 70
     0
102
RTVSPropertyOp14
 70
     2
102
RTVSPropertyOp15
 70
     0
102
RTVSPropertyOp16
 70
     0
102
RTVSPropertyOp17
 70
     0
102
RTVSPropertyOp18
 70
     0
102
RTVSPropertyOp19
 70
     0
102
RTVSPropertyOp20
 70
     0
102
RTVSPropertyOp21
 70
     0
102
RTVSPropertyOp22
 70
     0
102
RTVSPropertyOp23
 70
     0
102
RTVSPropertyOp24
 70
     0
102
RTVSPropertyOp25
 70
     0
102
RTVSPropertyOp26
 70
     0
102
RTVSPropertyOp27
 70
     0
102
RTVSPropertyOp28
 70
     0
102
RTVSPropertyOp29
 70
     0
102
RTVSPropertyOp30
 70
     0
102
RTVSPropertyOp31
 70
     0
102
RTVSPropertyOp32
 70
     0
  0
XRECORD
  5
31C1
102
{ACAD_REACTORS
330
31C0
102
}
330
31C0
100
AcDbXrecord
280
     1
102
RTVSPropertyOp0
 70
     1
102
RTVSPropertyOp1
 70
     1
102
RTVSPropertyOp2
 70
     1
102
RTVSPropertyOp3
 70
     1
102
RTVSPropertyOp4
 70
     1
102
RTVSPropertyOp5
 70
     1
102
RTVSPropertyOp6
 70
     1
102
RTVSPropertyOp7
 70
     1
102
RTVSPropertyOp8
 70
     1
102
RTVSPropertyOp9
 70
     1
102
RTVSPropertyOp10
 70
     1
102
RTVSPropertyOp11
 70
     1
102
RTVSPropertyOp12
 70
     1
102
RTVSPropertyOp13
 70
     1
102
RTVSPropertyOp14
 70
     1
102
RTVSPropertyOp15
 70
     1
102
RTVSPropertyOp16
 70
     1
102
RTVSPropertyOp17
 70
     1
102
RTVSPropertyOp18
 70
     1
102
RTVSPropertyOp19
 70
     1
102
RTVSPropertyOp20
 70
     1
102
RTVSPropertyOp21
 70
     1
102
RTVSPropertyOp22
 70
     1
102
RTVSPropertyOp23
 70
     1
102
RTVSPropertyOp24
 70
     1
102
RTVSPropertyOp25
 70
     1
102
RTVSPropertyOp26
 70
     1
102
RTVSPropertyOp27
 70
     1
102
RTVSPropertyOp28
 70
     1
102
RTVSPropertyOp29
 70
     1
102
RTVSPropertyOp30
 70
     1
102
RTVSPropertyOp31
 70
     1
102
RTVSPropertyOp32
 70
     1
  0
XRECORD
  5
31A5
102
{ACAD_REACTORS
330
31A4
102
}
330
31A4
100
AcDbXrecord
280
     1
102
RTVSPropertyOp0
 70
     1
102
RTVSPropertyOp1
 70
     1
102
RTVSPropertyOp2
 70
     1
102
RTVSPropertyOp3
 70
     1
102
RTVSPropertyOp4
 70
     1
102
RTVSPropertyOp5
 70
     1
102
RTVSPropertyOp6
 70
     1
102
RTVSPropertyOp7
 70
     1
102
RTVSPropertyOp8
 70
     1
102
RTVSPropertyOp9
 70
     1
102
RTVSPropertyOp10
 70
     1
102
RTVSPropertyOp11
 70
     1
102
RTVSPropertyOp12
 70
     1
102
RTVSPropertyOp13
 70
     1
102
RTVSPropertyOp14
 70
     1
102
RTVSPropertyOp15
 70
     1
102
RTVSPropertyOp16
 70
     1
102
RTVSPropertyOp17
 70
     1
102
RTVSPropertyOp18
 70
     1
102
RTVSPropertyOp19
 70
     1
102
RTVSPropertyOp20
 70
     1
102
RTVSPropertyOp21
 70
     1
102
RTVSPropertyOp22
 70
     1
102
RTVSPropertyOp23
 70
     1
102
RTVSPropertyOp24
 70
     1
102
RTVSPropertyOp25
 70
     1
102
RTVSPropertyOp26
 70
     1
102
RTVSPropertyOp27
 70
     1
102
RTVSPropertyOp28
 70
     1
102
RTVSPropertyOp29
 70
     1
102
RTVSPropertyOp30
 70
     1
102
RTVSPropertyOp31
 70
     1
102
RTVSPropertyOp32
 70
     1
  0
XRECORD
  5
31A7
102
{ACAD_REACTORS
330
31A6
102
}
330
31A6
100
AcDbXrecord
280
     1
102
RTVSPropertyOp0
 70
     1
102
RTVSPropertyOp1
 70
     1
102
RTVSPropertyOp2
 70
     1
102
RTVSPropertyOp3
 70
     1
102
RTVSPropertyOp4
 70
     1
102
RTVSPropertyOp5
 70
     1
102
RTVSPropertyOp6
 70
     1
102
RTVSPropertyOp7
 70
     1
102
RTVSPropertyOp8
 70
     1
102
RTVSPropertyOp9
 70
     1
102
RTVSPropertyOp10
 70
     1
102
RTVSPropertyOp11
 70
     1
102
RTVSPropertyOp12
 70
     1
102
RTVSPropertyOp13
 70
     1
102
RTVSPropertyOp14
 70
     1
102
RTVSPropertyOp15
 70
     1
102
RTVSPropertyOp16
 70
     1
102
RTVSPropertyOp17
 70
     1
102
RTVSPropertyOp18
 70
     1
102
RTVSPropertyOp19
 70
     1
102
RTVSPropertyOp20
 70
     1
102
RTVSPropertyOp21
 70
     1
102
RTVSPropertyOp22
 70
     1
102
RTVSPropertyOp23
 70
     1
102
RTVSPropertyOp24
 70
     1
102
RTVSPropertyOp25
 70
     1
102
RTVSPropertyOp26
 70
     1
102
RTVSPropertyOp27
 70
     1
102
RTVSPropertyOp28
 70
     1
102
RTVSPropertyOp29
 70
     1
102
RTVSPropertyOp30
 70
     1
102
RTVSPropertyOp31
 70
     1
102
RTVSPropertyOp32
 70
     1
  0
XRECORD
  5
31A9
102
{ACAD_REACTORS
330
31A8
102
}
330
31A8
100
AcDbXrecord
280
     1
102
RTVSPropertyOp0
 70
     1
102
RTVSPropertyOp1
 70
     1
102
RTVSPropertyOp2
 70
     1
102
RTVSPropertyOp3
 70
     1
102
RTVSPropertyOp4
 70
     1
102
RTVSPropertyOp5
 70
     1
102
RTVSPropertyOp6
 70
     1
102
RTVSPropertyOp7
 70
     1
102
RTVSPropertyOp8
 70
     1
102
RTVSPropertyOp9
 70
     1
102
RTVSPropertyOp10
 70
     1
102
RTVSPropertyOp11
 70
     1
102
RTVSPropertyOp12
 70
     1
102
RTVSPropertyOp13
 70
     1
102
RTVSPropertyOp14
 70
     1
102
RTVSPropertyOp15
 70
     1
102
RTVSPropertyOp16
 70
     1
102
RTVSPropertyOp17
 70
     1
102
RTVSPropertyOp18
 70
     1
102
RTVSPropertyOp19
 70
     1
102
RTVSPropertyOp20
 70
     1
102
RTVSPropertyOp21
 70
     1
102
RTVSPropertyOp22
 70
     1
102
RTVSPropertyOp23
 70
     1
102
RTVSPropertyOp24
 70
     1
102
RTVSPropertyOp25
 70
     1
102
RTVSPropertyOp26
 70
     1
102
RTVSPropertyOp27
 70
     1
102
RTVSPropertyOp28
 70
     1
102
RTVSPropertyOp29
 70
     1
102
RTVSPropertyOp30
 70
     1
102
RTVSPropertyOp31
 70
     1
102
RTVSPropertyOp32
 70
     1
  0
XRECORD
  5
31AB
102
{ACAD_REACTORS
330
31AA
102
}
330
31AA
100
AcDbXrecord
280
     1
102
RTVSPropertyOp0
 70
     1
102
RTVSPropertyOp1
 70
     1
102
RTVSPropertyOp2
 70
     1
102
RTVSPropertyOp3
 70
     1
102
RTVSPropertyOp4
 70
     1
102
RTVSPropertyOp5
 70
     1
102
RTVSPropertyOp6
 70
     1
102
RTVSPropertyOp7
 70
     1
102
RTVSPropertyOp8
 70
     1
102
RTVSPropertyOp9
 70
     1
102
RTVSPropertyOp10
 70
     1
102
RTVSPropertyOp11
 70
     1
102
RTVSPropertyOp12
 70
     1
102
RTVSPropertyOp13
 70
     1
102
RTVSPropertyOp14
 70
     1
102
RTVSPropertyOp15
 70
     1
102
RTVSPropertyOp16
 70
     1
102
RTVSPropertyOp17
 70
     1
102
RTVSPropertyOp18
 70
     1
102
RTVSPropertyOp19
 70
     1
102
RTVSPropertyOp20
 70
     1
102
RTVSPropertyOp21
 70
     1
102
RTVSPropertyOp22
 70
     1
102
RTVSPropertyOp23
 70
     1
102
RTVSPropertyOp24
 70
     1
102
RTVSPropertyOp25
 70
     1
102
RTVSPropertyOp26
 70
     1
102
RTVSPropertyOp27
 70
     1
102
RTVSPropertyOp28
 70
     1
102
RTVSPropertyOp29
 70
     1
102
RTVSPropertyOp30
 70
     1
102
RTVSPropertyOp31
 70
     1
102
RTVSPropertyOp32
 70
     1
  0
XRECORD
  5
31C8
102
{ACAD_REACTORS
330
31C7
102
}
330
31C7
100
AcDbXrecord
280
     1
102
RTVSPropertyOp0
 70
     1
102
RTVSPropertyOp1
 70
     1
102
RTVSPropertyOp2
 70
     1
102
RTVSPropertyOp3
 70
     1
102
RTVSPropertyOp4
 70
     1
102
RTVSPropertyOp5
 70
     1
102
RTVSPropertyOp6
 70
     1
102
RTVSPropertyOp7
 70
     1
102
RTVSPropertyOp8
 70
     1
102
RTVSPropertyOp9
 70
     1
102
RTVSPropertyOp10
 70
     1
102
RTVSPropertyOp11
 70
     1
102
RTVSPropertyOp12
 70
     1
102
RTVSPropertyOp13
 70
     1
102
RTVSPropertyOp14
 70
     1
102
RTVSPropertyOp15
 70
     1
102
RTVSPropertyOp16
 70
     1
102
RTVSPropertyOp17
 70
     1
102
RTVSPropertyOp18
 70
     1
102
RTVSPropertyOp19
 70
     1
102
RTVSPropertyOp20
 70
     1
102
RTVSPropertyOp21
 70
     1
102
RTVSPropertyOp22
 70
     1
102
RTVSPropertyOp23
 70
     1
102
RTVSPropertyOp24
 70
     1
102
RTVSPropertyOp25
 70
     1
102
RTVSPropertyOp26
 70
     1
102
RTVSPropertyOp27
 70
     1
102
RTVSPropertyOp28
 70
     1
102
RTVSPropertyOp29
 70
     1
102
RTVSPropertyOp30
 70
     1
102
RTVSPropertyOp31
 70
     1
102
RTVSPropertyOp32
 70
     1
  0
XRECORD
  5
31D4
102
{ACAD_REACTORS
330
31D3
102
}
330
31D3
100
AcDbXrecord
280
     1
102
RTVSPropertyOp0
 70
     0
102
RTVSPropertyOp1
 70
     0
102
RTVSPropertyOp2
 70
     0
102
RTVSPropertyOp3
 70
     0
102
RTVSPropertyOp4
 70
     0
102
RTVSPropertyOp5
 70
     0
102
RTVSPropertyOp6
 70
     0
102
RTVSPropertyOp7
 70
     0
102
RTVSPropertyOp8
 70
     0
102
RTVSPropertyOp9
 70
     0
102
RTVSPropertyOp10
 70
     0
102
RTVSPropertyOp11
 70
     0
102
RTVSPropertyOp12
 70
     0
102
RTVSPropertyOp13
 70
     0
102
RTVSPropertyOp14
 70
     2
102
RTVSPropertyOp15
 70
     0
102
RTVSPropertyOp16
 70
     0
102
RTVSPropertyOp17
 70
     0
102
RTVSPropertyOp18
 70
     0
102
RTVSPropertyOp19
 70
     0
102
RTVSPropertyOp20
 70
     0
102
RTVSPropertyOp21
 70
     0
102
RTVSPropertyOp22
 70
     0
102
RTVSPropertyOp23
 70
     0
102
RTVSPropertyOp24
 70
     0
102
RTVSPropertyOp25
 70
     0
102
RTVSPropertyOp26
 70
     0
102
RTVSPropertyOp27
 70
     0
102
RTVSPropertyOp28
 70
     0
102
RTVSPropertyOp29
 70
     0
102
RTVSPropertyOp30
 70
     0
102
RTVSPropertyOp31
 70
     0
102
RTVSPropertyOp32
 70
     0
  0
XRECORD
  5
31BF
102
{ACAD_REACTORS
330
31BE
102
}
330
31BE
100
AcDbXrecord
280
     1
102
RTVSPropertyOp0
 70
     1
102
RTVSPropertyOp1
 70
     1
102
RTVSPropertyOp2
 70
     1
102
RTVSPropertyOp3
 70
     1
102
RTVSPropertyOp4
 70
     1
102
RTVSPropertyOp5
 70
     1
102
RTVSPropertyOp6
 70
     1
102
RTVSPropertyOp7
 70
     1
102
RTVSPropertyOp8
 70
     1
102
RTVSPropertyOp9
 70
     1
102
RTVSPropertyOp10
 70
     1
102
RTVSPropertyOp11
 70
     1
102
RTVSPropertyOp12
 70
     1
102
RTVSPropertyOp13
 70
     1
102
RTVSPropertyOp14
 70
     1
102
RTVSPropertyOp15
 70
     1
102
RTVSPropertyOp16
 70
     1
102
RTVSPropertyOp17
 70
     1
102
RTVSPropertyOp18
 70
     1
102
RTVSPropertyOp19
 70
     1
102
RTVSPropertyOp20
 70
     1
102
RTVSPropertyOp21
 70
     1
102
RTVSPropertyOp22
 70
     1
102
RTVSPropertyOp23
 70
     1
102
RTVSPropertyOp24
 70
     1
102
RTVSPropertyOp25
 70
     1
102
RTVSPropertyOp26
 70
     1
102
RTVSPropertyOp27
 70
     1
102
RTVSPropertyOp28
 70
     1
102
RTVSPropertyOp29
 70
     1
102
RTVSPropertyOp30
 70
     1
102
RTVSPropertyOp31
 70
     1
102
RTVSPropertyOp32
 70
     1
  0
XRECORD
  5
31D6
102
{ACAD_REACTORS
330
31D5
102
}
330
31D5
100
AcDbXrecord
280
     1
102
RTVSPropertyOp0
 70
     0
102
RTVSPropertyOp1
 70
     0
102
RTVSPropertyOp2
 70
     0
102
RTVSPropertyOp3
 70
     0
102
RTVSPropertyOp4
 70
     0
102
RTVSPropertyOp5
 70
     0
102
RTVSPropertyOp6
 70
     0
102
RTVSPropertyOp7
 70
     0
102
RTVSPropertyOp8
 70
     0
102
RTVSPropertyOp9
 70
     0
102
RTVSPropertyOp10
 70
     0
102
RTVSPropertyOp11
 70
     0
102
RTVSPropertyOp12
 70
     0
102
RTVSPropertyOp13
 70
     0
102
RTVSPropertyOp14
 70
     2
102
RTVSPropertyOp15
 70
     0
102
RTVSPropertyOp16
 70
     0
102
RTVSPropertyOp17
 70
     0
102
RTVSPropertyOp18
 70
     0
102
RTVSPropertyOp19
 70
     0
102
RTVSPropertyOp20
 70
     0
102
RTVSPropertyOp21
 70
     0
102
RTVSPropertyOp22
 70
     0
102
RTVSPropertyOp23
 70
     0
102
RTVSPropertyOp24
 70
     0
102
RTVSPropertyOp25
 70
     0
102
RTVSPropertyOp26
 70
     0
102
RTVSPropertyOp27
 70
     0
102
RTVSPropertyOp28
 70
     0
102
RTVSPropertyOp29
 70
     0
102
RTVSPropertyOp30
 70
     0
102
RTVSPropertyOp31
 70
     0
102
RTVSPropertyOp32
 70
     0
  0
XRECORD
  5
31B7
102
{ACAD_REACTORS
330
31B6
102
}
330
31B6
100
AcDbXrecord
280
     1
102
RTVSPropertyOp0
 70
     1
102
RTVSPropertyOp1
 70
     1
102
RTVSPropertyOp2
 70
     1
102
RTVSPropertyOp3
 70
     1
102
RTVSPropertyOp4
 70
     1
102
RTVSPropertyOp5
 70
     1
102
RTVSPropertyOp6
 70
     1
102
RTVSPropertyOp7
 70
     1
102
RTVSPropertyOp8
 70
     1
102
RTVSPropertyOp9
 70
     1
102
RTVSPropertyOp10
 70
     1
102
RTVSPropertyOp11
 70
     1
102
RTVSPropertyOp12
 70
     1
102
RTVSPropertyOp13
 70
     1
102
RTVSPropertyOp14
 70
     1
102
RTVSPropertyOp15
 70
     1
102
RTVSPropertyOp16
 70
     1
102
RTVSPropertyOp17
 70
     1
102
RTVSPropertyOp18
 70
     1
102
RTVSPropertyOp19
 70
     1
102
RTVSPropertyOp20
 70
     1
102
RTVSPropertyOp21
 70
     1
102
RTVSPropertyOp22
 70
     1
102
RTVSPropertyOp23
 70
     1
102
RTVSPropertyOp24
 70
     1
102
RTVSPropertyOp25
 70
     1
102
RTVSPropertyOp26
 70
     1
102
RTVSPropertyOp27
 70
     1
102
RTVSPropertyOp28
 70
     1
102
RTVSPropertyOp29
 70
     1
102
RTVSPropertyOp30
 70
     1
102
RTVSPropertyOp31
 70
     1
102
RTVSPropertyOp32
 70
     1
  0
XRECORD
  5
31D2
102
{ACAD_REACTORS
330
31D1
102
}
330
31D1
100
AcDbXrecord
280
     1
102
RTVSPropertyOp0
 70
     1
102
RTVSPropertyOp1
 70
     1
102
RTVSPropertyOp2
 70
     1
102
RTVSPropertyOp3
 70
     1
102
RTVSPropertyOp4
 70
     1
102
RTVSPropertyOp5
 70
     1
102
RTVSPropertyOp6
 70
     1
102
RTVSPropertyOp7
 70
     1
102
RTVSPropertyOp8
 70
     1
102
RTVSPropertyOp9
 70
     1
102
RTVSPropertyOp10
 70
     1
102
RTVSPropertyOp11
 70
     1
102
RTVSPropertyOp12
 70
     1
102
RTVSPropertyOp13
 70
     1
102
RTVSPropertyOp14
 70
     1
102
RTVSPropertyOp15
 70
     1
102
RTVSPropertyOp16
 70
     1
102
RTVSPropertyOp17
 70
     1
102
RTVSPropertyOp18
 70
     1
102
RTVSPropertyOp19
 70
     1
102
RTVSPropertyOp20
 70
     1
102
RTVSPropertyOp21
 70
     1
102
RTVSPropertyOp22
 70
     1
102
RTVSPropertyOp23
 70
     1
102
RTVSPropertyOp24
 70
     1
102
RTVSPropertyOp25
 70
     1
102
RTVSPropertyOp26
 70
     1
102
RTVSPropertyOp27
 70
     1
102
RTVSPropertyOp28
 70
     1
102
RTVSPropertyOp29
 70
     1
102
RTVSPropertyOp30
 70
     1
102
RTVSPropertyOp31
 70
     1
102
RTVSPropertyOp32
 70
     1
  0
XRECORD
  5
31D0
102
{ACAD_REACTORS
330
31CF
102
}
330
31CF
100
AcDbXrecord
280
     1
102
RTVSPropertyOp0
 70
     1
102
RTVSPropertyOp1
 70
     1
102
RTVSPropertyOp2
 70
     1
102
RTVSPropertyOp3
 70
     1
102
RTVSPropertyOp4
 70
     1
102
RTVSPropertyOp5
 70
     1
102
RTVSPropertyOp6
 70
     1
102
RTVSPropertyOp7
 70
     1
102
RTVSPropertyOp8
 70
     1
102
RTVSPropertyOp9
 70
     1
102
RTVSPropertyOp10
 70
     1
102
RTVSPropertyOp11
 70
     1
102
RTVSPropertyOp12
 70
     1
102
RTVSPropertyOp13
 70
     1
102
RTVSPropertyOp14
 70
     1
102
RTVSPropertyOp15
 70
     1
102
RTVSPropertyOp16
 70
     1
102
RTVSPropertyOp17
 70
     1
102
RTVSPropertyOp18
 70
     1
102
RTVSPropertyOp19
 70
     1
102
RTVSPropertyOp20
 70
     1
102
RTVSPropertyOp21
 70
     1
102
RTVSPropertyOp22
 70
     1
102
RTVSPropertyOp23
 70
     1
102
RTVSPropertyOp24
 70
     1
102
RTVSPropertyOp25
 70
     1
102
RTVSPropertyOp26
 70
     1
102
RTVSPropertyOp27
 70
     1
102
RTVSPropertyOp28
 70
     1
102
RTVSPropertyOp29
 70
     1
102
RTVSPropertyOp30
 70
     1
102
RTVSPropertyOp31
 70
     1
102
RTVSPropertyOp32
 70
     1
  0
XRECORD
  5
31CA
102
{ACAD_REACTORS
330
31C9
102
}
330
31C9
100
AcDbXrecord
280
     1
102
RTVSPropertyOp0
 70
     1
102
RTVSPropertyOp1
 70
     1
102
RTVSPropertyOp2
 70
     1
102
RTVSPropertyOp3
 70
     1
102
RTVSPropertyOp4
 70
     1
102
RTVSPropertyOp5
 70
     1
102
RTVSPropertyOp6
 70
     1
102
RTVSPropertyOp7
 70
     1
102
RTVSPropertyOp8
 70
     1
102
RTVSPropertyOp9
 70
     1
102
RTVSPropertyOp10
 70
     1
102
RTVSPropertyOp11
 70
     1
102
RTVSPropertyOp12
 70
     1
102
RTVSPropertyOp13
 70
     1
102
RTVSPropertyOp14
 70
     1
102
RTVSPropertyOp15
 70
     1
102
RTVSPropertyOp16
 70
     1
102
RTVSPropertyOp17
 70
     1
102
RTVSPropertyOp18
 70
     1
102
RTVSPropertyOp19
 70
     1
102
RTVSPropertyOp20
 70
     1
102
RTVSPropertyOp21
 70
     1
102
RTVSPropertyOp22
 70
     1
102
RTVSPropertyOp23
 70
     1
102
RTVSPropertyOp24
 70
     1
102
RTVSPropertyOp25
 70
     1
102
RTVSPropertyOp26
 70
     1
102
RTVSPropertyOp27
 70
     1
102
RTVSPropertyOp28
 70
     1
102
RTVSPropertyOp29
 70
     1
102
RTVSPropertyOp30
 70
     1
102
RTVSPropertyOp31
 70
     1
102
RTVSPropertyOp32
 70
     1
  0
XRECORD
  5
31CC
102
{ACAD_REACTORS
330
31CB
102
}
330
31CB
100
AcDbXrecord
280
     1
102
RTVSPropertyOp0
 70
     1
102
RTVSPropertyOp1
 70
     1
102
RTVSPropertyOp2
 70
     1
102
RTVSPropertyOp3
 70
     1
102
RTVSPropertyOp4
 70
     1
102
RTVSPropertyOp5
 70
     1
102
RTVSPropertyOp6
 70
     1
102
RTVSPropertyOp7
 70
     1
102
RTVSPropertyOp8
 70
     1
102
RTVSPropertyOp9
 70
     1
102
RTVSPropertyOp10
 70
     1
102
RTVSPropertyOp11
 70
     1
102
RTVSPropertyOp12
 70
     1
102
RTVSPropertyOp13
 70
     1
102
RTVSPropertyOp14
 70
     1
102
RTVSPropertyOp15
 70
     1
102
RTVSPropertyOp16
 70
     1
102
RTVSPropertyOp17
 70
     1
102
RTVSPropertyOp18
 70
     1
102
RTVSPropertyOp19
 70
     1
102
RTVSPropertyOp20
 70
     1
102
RTVSPropertyOp21
 70
     1
102
RTVSPropertyOp22
 70
     1
102
RTVSPropertyOp23
 70
     1
102
RTVSPropertyOp24
 70
     1
102
RTVSPropertyOp25
 70
     1
102
RTVSPropertyOp26
 70
     1
102
RTVSPropertyOp27
 70
     1
102
RTVSPropertyOp28
 70
     1
102
RTVSPropertyOp29
 70
     1
102
RTVSPropertyOp30
 70
     1
102
RTVSPropertyOp31
 70
     1
102
RTVSPropertyOp32
 70
     1
  0
XRECORD
  5
31BD
102
{ACAD_REACTORS
330
31BC
102
}
330
31BC
100
AcDbXrecord
280
     1
102
RTVSPropertyOp0
 70
     1
102
RTVSPropertyOp1
 70
     1
102
RTVSPropertyOp2
 70
     1
102
RTVSPropertyOp3
 70
     1
102
RTVSPropertyOp4
 70
     1
102
RTVSPropertyOp5
 70
     1
102
RTVSPropertyOp6
 70
     1
102
RTVSPropertyOp7
 70
     1
102
RTVSPropertyOp8
 70
     1
102
RTVSPropertyOp9
 70
     1
102
RTVSPropertyOp10
 70
     1
102
RTVSPropertyOp11
 70
     1
102
RTVSPropertyOp12
 70
     1
102
RTVSPropertyOp13
 70
     1
102
RTVSPropertyOp14
 70
     1
102
RTVSPropertyOp15
 70
     1
102
RTVSPropertyOp16
 70
     1
102
RTVSPropertyOp17
 70
     1
102
RTVSPropertyOp18
 70
     1
102
RTVSPropertyOp19
 70
     1
102
RTVSPropertyOp20
 70
     1
102
RTVSPropertyOp21
 70
     1
102
RTVSPropertyOp22
 70
     1
102
RTVSPropertyOp23
 70
     1
102
RTVSPropertyOp24
 70
     1
102
RTVSPropertyOp25
 70
     1
102
RTVSPropertyOp26
 70
     1
102
RTVSPropertyOp27
 70
     1
102
RTVSPropertyOp28
 70
     1
102
RTVSPropertyOp29
 70
     1
102
RTVSPropertyOp30
 70
     1
102
RTVSPropertyOp31
 70
     1
102
RTVSPropertyOp32
 70
     1
  0
XRECORD
  5
31C6
102
{ACAD_REACTORS
330
31C5
102
}
330
31C5
100
AcDbXrecord
280
     1
102
RTVSPropertyOp0
 70
     1
102
RTVSPropertyOp1
 70
     1
102
RTVSPropertyOp2
 70
     1
102
RTVSPropertyOp3
 70
     1
102
RTVSPropertyOp4
 70
     1
102
RTVSPropertyOp5
 70
     1
102
RTVSPropertyOp6
 70
     1
102
RTVSPropertyOp7
 70
     1
102
RTVSPropertyOp8
 70
     1
102
RTVSPropertyOp9
 70
     1
102
RTVSPropertyOp10
 70
     1
102
RTVSPropertyOp11
 70
     1
102
RTVSPropertyOp12
 70
     1
102
RTVSPropertyOp13
 70
     1
102
RTVSPropertyOp14
 70
     1
102
RTVSPropertyOp15
 70
     1
102
RTVSPropertyOp16
 70
     1
102
RTVSPropertyOp17
 70
     1
102
RTVSPropertyOp18
 70
     1
102
RTVSPropertyOp19
 70
     1
102
RTVSPropertyOp20
 70
     1
102
RTVSPropertyOp21
 70
     1
102
RTVSPropertyOp22
 70
     1
102
RTVSPropertyOp23
 70
     1
102
RTVSPropertyOp24
 70
     1
102
RTVSPropertyOp25
 70
     1
102
RTVSPropertyOp26
 70
     1
102
RTVSPropertyOp27
 70
     1
102
RTVSPropertyOp28
 70
     1
102
RTVSPropertyOp29
 70
     1
102
RTVSPropertyOp30
 70
     1
102
RTVSPropertyOp31
 70
     1
102
RTVSPropertyOp32
 70
     1
  0
XRECORD
  5
31CE
102
{ACAD_REACTORS
330
31CD
102
}
330
31CD
100
AcDbXrecord
280
     1
102
RTVSPropertyOp0
 70
     1
102
RTVSPropertyOp1
 70
     1
102
RTVSPropertyOp2
 70
     1
102
RTVSPropertyOp3
 70
     1
102
RTVSPropertyOp4
 70
     1
102
RTVSPropertyOp5
 70
     1
102
RTVSPropertyOp6
 70
     1
102
RTVSPropertyOp7
 70
     1
102
RTVSPropertyOp8
 70
     1
102
RTVSPropertyOp9
 70
     1
102
RTVSPropertyOp10
 70
     1
102
RTVSPropertyOp11
 70
     1
102
RTVSPropertyOp12
 70
     1
102
RTVSPropertyOp13
 70
     1
102
RTVSPropertyOp14
 70
     1
102
RTVSPropertyOp15
 70
     1
102
RTVSPropertyOp16
 70
     1
102
RTVSPropertyOp17
 70
     1
102
RTVSPropertyOp18
 70
     1
102
RTVSPropertyOp19
 70
     1
102
RTVSPropertyOp20
 70
     1
102
RTVSPropertyOp21
 70
     1
102
RTVSPropertyOp22
 70
     1
102
RTVSPropertyOp23
 70
     1
102
RTVSPropertyOp24
 70
     1
102
RTVSPropertyOp25
 70
     1
102
RTVSPropertyOp26
 70
     1
102
RTVSPropertyOp27
 70
     1
102
RTVSPropertyOp28
 70
     1
102
RTVSPropertyOp29
 70
     1
102
RTVSPropertyOp30
 70
     1
102
RTVSPropertyOp31
 70
     1
102
RTVSPropertyOp32
 70
     1
  0
ENDSEC
  0
EOF
