  0
SECTION
  2
HEADER
  9
$ACADVER
  1
AC1015
  9
$ACADMAINTVER
 70
    20
  9
$DWGCODEPAGE
  3
ANSI_932
  9
$INSBASE
 10
0.0
 20
0.0
 30
0.0
  9
$EXTMIN
 10
114.1651382224961
 20
126.4561167616514
 30
0.0
  9
$EXTMAX
 10
209.325237512551
 20
215.5267631422578
 30
0.0
  9
$LIMMIN
 10
64.39214320778825
 20
112.3986327325081
  9
$LIMMAX
 10
274.4135717792168
 20
260.8986327325082
  9
$ORTHOMODE
 70
     0
  9
$REGENMODE
 70
     1
  9
$FILLMODE
 70
     1
  9
$QTEXTMODE
 70
     0
  9
$MIRRTEXT
 70
     1
  9
$LTSCALE
 40
0.5
  9
$ATTMODE
 70
     1
  9
$TEXTSIZE
 40
2.5
  9
$TRACEWID
 40
1.0
  9
$TEXTSTYLE
  7
STANDARD
  9
$CLAYER
  8
0
  9
$CELTYPE
  6
ByLayer
  9
$CECOLOR
 62
   256
  9
$CELTSCALE
 40
1.0
  9
$DISPSILH
 70
     0
  9
$DIMSCALE
 40
0.5
  9
$DIMASZ
 40
2.5
  9
$DIMEXO
 40
1.0
  9
$DIMDLI
 40
10.0
  9
$DIMRND
 40
0.0
  9
$DIMDLE
 40
0.0
  9
$DIMEXE
 40
1.0
  9
$DIMTP
 40
0.1
  9
$DIMTM
 40
0.1
  9
$DIMTXT
 40
3.5
  9
$DIMCEN
 40
0.0
  9
$DIMTSZ
 40
0.0
  9
$DIMTOL
 70
     0
  9
$DIMLIM
 70
     0
  9
$DIMTIH
 70
     0
  9
$DIMTOH
 70
     0
  9
$DIMSE1
 70
     0
  9
$DIMSE2
 70
     0
  9
$DIMTAD
 70
     3
  9
$DIMZIN
 70
     8
  9
$DIMBLK
  1
Open30
  9
$DIMASO
 70
     1
  9
$DIMSHO
 70
     1
  9
$DIMPOST
  1

  9
$DIMAPOST
  1
"
  9
$DIMALT
 70
     0
  9
$DIMALTD
 70
     2
  9
$DIMALTF
 40
0.0393701
  9
$DIMLFAC
 40
1.0
  9
$DIMTOFL
 70
     1
  9
$DIMTVP
 40
0.0
  9
$DIMTIX
 70
     0
  9
$DIMSOXD
 70
     0
  9
$DIMSAH
 70
     0
  9
$DIMBLK1
  1
Open30
  9
$DIMBLK2
  1
Open30
  9
$DIMSTYLE
  2
AM_JIS
  9
$DIMCLRD
 70
   256
  9
$DIMCLRE
 70
   256
  9
$DIMCLRT
 70
     2
  9
$DIMTFAC
 40
0.71
  9
$DIMGAP
 40
1.5
  9
$DIMJUST
 70
     0
  9
$DIMSD1
 70
     0
  9
$DIMSD2
 70
     0
  9
$DIMTOLJ
 70
     0
  9
$DIMTZIN
 70
     8
  9
$DIMALTZ
 70
     0
  9
$DIMALTTZ
 70
     0
  9
$DIMUPT
 70
     0
  9
$DIMDEC
 70
     2
  9
$DIMTDEC
 70
     3
  9
$DIMALTU
 70
     2
  9
$DIMALTTD
 70
     4
  9
$DIMTXSTY
  7
STANDARD
  9
$DIMAUNIT
 70
     0
  9
$DIMADEC
 70
     0
  9
$DIMALTRND
 40
0.0
  9
$DIMAZIN
 70
     2
  9
$DIMDSEP
 70
    46
  9
$DIMATFIT
 70
     3
  9
$DIMFRAC
 70
     0
  9
$DIMLDRBLK
  1
Open30
  9
$DIMLUNIT
 70
     2
  9
$DIMLWD
 70
    -1
  9
$DIMLWE
 70
    -1
  9
$DIMTMOVE
 70
     0
  9
$LUNITS
 70
     2
  9
$LUPREC
 70
     2
  9
$SKETCHINC
 40
1.0
  9
$FILLETRAD
 40
1.25
  9
$AUNITS
 70
     0
  9
$AUPREC
 70
     0
  9
$MENU
  1
.
  9
$ELEVATION
 40
0.0
  9
$PELEVATION
 40
0.0
  9
$THICKNESS
 40
0.0
  9
$LIMCHECK
 70
     0
  9
$CHAMFERA
 40
1.25
  9
$CHAMFERB
 40
1.25
  9
$CHAMFERC
 40
0.1999999999999886
  9
$CHAMFERD
 40
0.7853981633974483
  9
$SKPOLY
 70
     0
  9
$TDCREATE
 40
2453186.648052894
  9
$TDUCREATE
 40
2453186.273052894
  9
$TDUPDATE
 40
2455674.687141736
  9
$TDUUPDATE
 40
2455674.312141736
  9
$TDINDWG
 40
0.3138763773
  9
$TDUSRTIMER
 40
0.3138752199
  9
$USRTIMER
 70
     1
  9
$ANGBASE
 50
0.0
  9
$ANGDIR
 70
     0
  9
$PDMODE
 70
     0
  9
$PDSIZE
 40
0.0
  9
$PLINEWID
 40
0.0
  9
$SPLFRAME
 70
     0
  9
$SPLINETYPE
 70
     6
  9
$SPLINESEGS
 70
     8
  9
$HANDSEED
  5
2BEE
  9
$SURFTAB1
 70
     6
  9
$SURFTAB2
 70
     6
  9
$SURFTYPE
 70
     6
  9
$SURFU
 70
     6
  9
$SURFV
 70
     6
  9
$UCSBASE
  2

  9
$UCSNAME
  2

  9
$UCSORG
 10
0.0
 20
0.0
 30
0.0
  9
$UCSXDIR
 10
1.0
 20
0.0
 30
0.0
  9
$UCSYDIR
 10
0.0
 20
1.0
 30
0.0
  9
$UCSORTHOREF
  2

  9
$UCSORTHOVIEW
 70
     0
  9
$UCSORGTOP
 10
0.0
 20
0.0
 30
0.0
  9
$UCSORGBOTTOM
 10
0.0
 20
0.0
 30
0.0
  9
$UCSORGLEFT
 10
0.0
 20
0.0
 30
0.0
  9
$UCSORGRIGHT
 10
0.0
 20
0.0
 30
0.0
  9
$UCSORGFRONT
 10
0.0
 20
0.0
 30
0.0
  9
$UCSORGBACK
 10
0.0
 20
0.0
 30
0.0
  9
$PUCSBASE
  2

  9
$PUCSNAME
  2

  9
$PUCSORG
 10
0.0
 20
0.0
 30
0.0
  9
$PUCSXDIR
 10
1.0
 20
0.0
 30
0.0
  9
$PUCSYDIR
 10
0.0
 20
1.0
 30
0.0
  9
$PUCSORTHOREF
  2

  9
$PUCSORTHOVIEW
 70
     0
  9
$PUCSORGTOP
 10
0.0
 20
0.0
 30
0.0
  9
$PUCSORGBOTTOM
 10
0.0
 20
0.0
 30
0.0
  9
$PUCSORGLEFT
 10
0.0
 20
0.0
 30
0.0
  9
$PUCSORGRIGHT
 10
0.0
 20
0.0
 30
0.0
  9
$PUCSORGFRONT
 10
0.0
 20
0.0
 30
0.0
  9
$PUCSORGBACK
 10
0.0
 20
0.0
 30
0.0
  9
$USERI1
 70
     0
  9
$USERI2
 70
     0
  9
$USERI3
 70
     0
  9
$USERI4
 70
     0
  9
$USERI5
 70
     0
  9
$USERR1
 40
0.0
  9
$USERR2
 40
0.0
  9
$USERR3
 40
0.0
  9
$USERR4
 40
0.0
  9
$USERR5
 40
0.0
  9
$WORLDVIEW
 70
     1
  9
$SHADEDGE
 70
     3
  9
$SHADEDIF
 70
    70
  9
$TILEMODE
 70
     1
  9
$MAXACTVP
 70
    48
  9
$PINSBASE
 10
0.0
 20
0.0
 30
0.0
  9
$PLIMCHECK
 70
     0
  9
$PEXTMIN
 10
1.000000000000000E+20
 20
1.000000000000000E+20
 30
1.000000000000000E+20
  9
$PEXTMAX
 10
-1.000000000000000E+20
 20
-1.000000000000000E+20
 30
-1.000000000000000E+20
  9
$PLIMMIN
 10
0.0
 20
0.0
  9
$PLIMMAX
 10
420.0
 20
297.0
  9
$UNITMODE
 70
     0
  9
$VISRETAIN
 70
     1
  9
$PLINEGEN
 70
     0
  9
$PSLTSCALE
 70
     1
  9
$TREEDEPTH
 70
  3020
  9
$CMLSTYLE
  2
Standard
  9
$CMLJUST
 70
     0
  9
$CMLSCALE
 40
20.0
  9
$PROXYGRAPHICS
 70
     1
  9
$MEASUREMENT
 70
     1
  9
$CELWEIGHT
370
    -1
  9
$ENDCAPS
280
     0
  9
$JOINSTYLE
280
     0
  9
$LWDISPLAY
290
     0
  9
$INSUNITS
 70
     4
  9
$HYPERLINKBASE
  1

  9
$STYLESHEET
  1
IMAGIO.ctb
  9
$XEDIT
290
     1
  9
$CEPSNTYPE
380
     0
  9
$PSTYLEMODE
290
     1
  9
$FINGERPRINTGUID
  2
{FA53D0F5-D60F-4D76-A6AB-D9697304EE32}
  9
$VERSIONGUID
  2
{A1D3C225-DC44-4C56-B404-9A34197589C8}
  9
$EXTNAMES
290
     1
  9
$PSVPSCALE
 40
0.0
  9
$OLESTARTUP
290
     0
  0
ENDSEC
  0
SECTION
  2
CLASSES
  0
CLASS
  1
ACDBDICTIONARYWDFLT
  2
AcDbDictionaryWithDefault
  3
ObjectDBX Classes
 90
        0
280
     0
281
     0
  0
CLASS
  1
ACDBPLACEHOLDER
  2
AcDbPlaceHolder
  3
ObjectDBX Classes
 90
        0
280
     0
281
     0
  0
CLASS
  1
LAYOUT
  2
AcDbLayout
  3
ObjectDBX Classes
 90
        0
280
     0
281
     0
  0
CLASS
  1
ACME_DOCUMENT
  2
AcMeDbDoc
  3
AcMeServices
 90
     1024
280
     0
281
     0
  0
CLASS
  1
ACMESCOPE
  2
AcMeScope
  3
AcMeServices
 90
     1024
280
     0
281
     0
  0
CLASS
  1
ACMECOMMANDHISTORY
  2
AcMeCommandHistory
  3
AcMeServices
 90
     1024
280
     0
281
     0
  0
CLASS
  1
ACIMSYSVARMAN
  2
AcImSysVarManager
  3
AcMeServices
 90
     1024
280
     0
281
     0
  0
CLASS
  1
ACIMREALSYSVAR
  2
AcImRealSysVar
  3
AcMeServices
 90
     1024
280
     0
281
     0
  0
CLASS
  1
ACIMINTSYSVAR
  2
AcImIntSysVar
  3
AcMeServices
 90
     1024
280
     0
281
     0
  0
CLASS
  1
ACMEDRAWINGMAN
  2
AcMeDrawingMan
  3
AcMeServices
 90
    33792
280
     0
281
     0
  0
CLASS
  1
ACMEVIEW
  2
AcMeView
  3
AcMeServices
 90
    33792
280
     0
281
     0
  0
CLASS
  1
ACDBENTITYCACHE
  2
AcMeEntityCache
  3
AcMeServices
 90
     1024
280
     0
281
     0
  0
CLASS
  1
GSMANAGER
  2
AcMeGSManager
  3
AcMeServices
 90
    32768
280
     0
281
     0
  0
CLASS
  1
AMDTINTERNALREACTOR
  2
AmdtInternalReactor
  3
AcMeServices
 90
     1024
280
     0
281
     0
  0
CLASS
  1
ACMESTATEMGR
  2
AcMeStateMgr
  3
AcMeServices
 90
     1024
280
     0
281
     0
  0
CLASS
  1
ACGREFMASTER
  2
AcGrefMaster
  3
AcAttribServices
 90
     1024
280
     0
281
     0
  0
CLASS
  1
ACME_DATABASE
  2
AcMeDbDatabase
  3
AcMeServices
 90
     1024
280
     0
281
     0
  0
CLASS
  1
ACRFINSADJUSTERMGR
  2
AcRfInsAdjusterMgr
  3
AcMeServices
 90
     1024
280
     0
281
     0
  0
CLASS
  1
ACGREFACADMASTER
  2
AcGrefacadMaster
  3
AcGrefServices
 90
     1024
280
     0
281
     0
  0
CLASS
  1
AMIMASTER
  2
AmiMaster
  3
AmiServices
 90
     1024
280
     0
281
     0
  0
CLASS
  1
AMGSETTINGSOBJ
  2
AmgSettingsObj
  3
"AcadM|Product Description: AutoCAD Mechanical|Company: Autodesk, Inc."
 90
     1024
280
     0
281
     0
  0
CLASS
  1
ACMDATADICTIONARY
  2
AcmDataDictionary
  3
"AcmSymBB|Product Description: AutoCAD Mechanical|Company: Autodesk, Inc."
 90
     1024
280
     0
281
     0
  0
CLASS
  1
ACMDATAENTRYBLOCK
  2
AcmDataEntryBlock
  3
AcmSymBB|Product Description: AutoCAD Mechanical|Company: Autodesk, Inc.
 90
     1024
280
     0
281
     0
  0
CLASS
  1
ACIMSTRSYSVAR
  2
AcImStrSysVar
  3
AcMeServices
 90
     1024
280
     0
281
     0
  0
CLASS
  1
ACMSTANDARDISO
  2
AcmStandardISO
  3
"Amdt_StdImp|Product Description: AutoCAD Mechanical|Company: Autodesk, Inc."
 90
     1024
280
     0
281
     0
  0
CLASS
  1
AMGOBJPROPCFG
  2
AmgObjPropCfg
  3
"AmgLay|Product Description: AutoCAD Mechanical|Company: Autodesk, Inc."
 90
     1025
280
     0
281
     0
  0
CLASS
  1
AMDTEDGESTANDARDISO
  2
AmdtEdgeStdISO
  3
"Amdt_StdImp|Product Description: AutoCAD Mechanical|Company: Autodesk, Inc."
 90
     1024
280
     0
281
     0
  0
CLASS
  1
ACMSURFSTANDARDISO
  2
AcmSurfTextStdISO
  3
"Amdt_StdImp|Product Description: AutoCAD Mechanical|Company: Autodesk, Inc."
 90
     1024
280
     0
281
     0
  0
CLASS
  1
ACMFCFSTANDARDISO
  2
AcmFCFStdISO
  3
"Amdt_StdImp|Product Description: AutoCAD Mechanical|Company: Autodesk, Inc."
 90
     1024
280
     0
281
     0
  0
CLASS
  1
ACMWELDSTANDARDISO
  2
AcmWeldingStdISO
  3
"Amdt_StdImp|Product Description: AutoCAD Mechanical|Company: Autodesk, Inc."
 90
     1024
280
     0
281
     0
  0
CLASS
  1
ACMIDSTANDARDISO
  2
AcmIdStdISO
  3
"Amdt_StdImp|Product Description: AutoCAD Mechanical|Company: Autodesk, Inc."
 90
     1024
280
     0
281
     0
  0
CLASS
  1
ACMDATUMSTANDARDISO
  2
AcmDatumStdISO
  3
"Amdt_StdImp|Product Description: AutoCAD Mechanical|Company: Autodesk, Inc."
 90
     1024
280
     0
281
     0
  0
CLASS
  1
ACMBOMSTANDARDISO
  2
AcmBOMStdISO
  3
"Amdt_StdImp|Product Description: AutoCAD Mechanical|Company: Autodesk, Inc."
 90
     1024
280
     0
281
     0
  0
CLASS
  1
ACMDETAILSTANDARDISO
  2
AmdtDetailSymStdISO
  3
"Amdt_StdImp|Product Description: AutoCAD Mechanical|Company: Autodesk, Inc."
 90
     1024
280
     0
281
     0
  0
CLASS
  1
ACMSECTIONSTANDARDISO
  2
AmdtSectionSymStdISO
  3
"Amdt_StdImp|Product Description: AutoCAD Mechanical|Company: Autodesk, Inc."
 90
     1024
280
     0
281
     0
  0
CLASS
  1
ACMCENTERLINESTANDARDISO
  2
AmdtCenterLineStdISO
  3
"Amdt_StdImp|Product Description: AutoCAD Mechanical|Company: Autodesk, Inc."
 90
     1024
280
     0
281
     0
  0
CLASS
  1
ACMNOTESTANDARDISO
  2
AmdtNoteStdISO
  3
"Amdt_StdImp|Product Description: AutoCAD Mechanical|Company: Autodesk, Inc."
 90
     1024
280
     0
281
     0
  0
CLASS
  1
ACAMGLAYSTD
  2
AcAmgLayStd
  3
"AmgLay|Product Description: AutoCAD Mechanical|Company: Autodesk, Inc."
 90
     1024
280
     0
281
     0
  0
CLASS
  1
ACAMGDIMSTD
  2
AcAmgDimStd
  3
"AmgDim|Product Description: AutoCAD Mechanical|Company: Autodesk, Inc."
 90
     1024
280
     0
281
     0
  0
CLASS
  1
ACAMGHOLECHARTSTDISO
  2
AcAmgHoleChartStdISO
  3
AmgDim|Product Description: AutoCAD Mechanical|Company: Autodesk, Inc.
 90
     1024
280
     0
281
     0
  0
CLASS
  1
ACAMGTITLESTD
  2
AcAmgTitleStd
  3
"AmgTitle|Product Description: AutoCAD Mechanical|Company: Autodesk, Inc."
 90
     4095
280
     0
281
     0
  0
CLASS
  1
ACMSTANDARDJIS
  2
AcmStandardJIS
  3
"Amdt_StdImp|Product Description: AutoCAD Mechanical|Company: Autodesk, Inc."
 90
     1024
280
     0
281
     0
  0
CLASS
  1
ACMSURFSTANDARDJIS
  2
AcmSurfTextStdJIS
  3
"Amdt_StdImp|Product Description: AutoCAD Mechanical|Company: Autodesk, Inc."
 90
     1024
280
     0
281
     0
  0
CLASS
  1
ACMFCFSTANDARDJIS98
  2
AcmFCFStdJIS98
  3
"Amdt_StdImp|Product Description: AutoCAD Mechanical|Company: Autodesk, Inc."
 90
    33792
280
     0
281
     0
  0
CLASS
  1
ACMWELDSTANDARDJIS
  2
AcmWeldingStdJIS
  3
"Amdt_StdImp|Product Description: AutoCAD Mechanical|Company: Autodesk, Inc."
 90
     1024
280
     0
281
     0
  0
CLASS
  1
ACMIDSTANDARDJIS
  2
AcmIdStdJIS
  3
"Amdt_StdImp|Product Description: AutoCAD Mechanical|Company: Autodesk, Inc."
 90
     1024
280
     0
281
     0
  0
CLASS
  1
ACMDATUMSTANDARDJIS
  2
AcmDatumStdJIS
  3
"Amdt_StdImp|Product Description: AutoCAD Mechanical|Company: Autodesk, Inc."
 90
     1024
280
     0
281
     0
  0
CLASS
  1
ACMBOMSTANDARDJIS
  2
AcmBOMStdJIS
  3
"Amdt_StdImp|Product Description: AutoCAD Mechanical|Company: Autodesk, Inc."
 90
     1024
280
     0
281
     0
  0
CLASS
  1
ACMDETAILSTANDARDJIS
  2
AmdtDetailSymStdJIS
  3
"Amdt_StdImp|Product Description: AutoCAD Mechanical|Company: Autodesk, Inc."
 90
     1024
280
     0
281
     0
  0
CLASS
  1
ACMSECTIONSTANDARDJIS
  2
AmdtSectionSymStdJIS
  3
"Amdt_StdImp|Product Description: AutoCAD Mechanical|Company: Autodesk, Inc."
 90
     1024
280
     0
281
     0
  0
CLASS
  1
ACMCENTERLINESTANDARDJIS
  2
AmdtCenterLineStdJIS
  3
"Amdt_StdImp|Product Description: AutoCAD Mechanical|Company: Autodesk, Inc."
 90
     1024
280
     0
281
     0
  0
CLASS
  1
ACMNOTESTANDARDJIS
  2
AmdtNoteStdJIS
  3
"Amdt_StdImp|Product Description: AutoCAD Mechanical|Company: Autodesk, Inc."
 90
     1024
280
     0
281
     0
  0
CLASS
  1
ACAMGHOLECHARTSTDJIS
  2
AcAmgHoleChartStdJIS
  3
AmgDim|Product Description: AutoCAD Mechanical|Company: Autodesk, Inc.
 90
     1024
280
     0
281
     0
  0
CLASS
  1
ACAMGFILTERDAT
  2
AcAmgFilterDat
  3
"AcadM|Product Description: AutoCAD Mechanical|Company: Autodesk, Inc."
 90
    33792
280
     0
281
     0
  0
CLASS
  1
ACMPARTREF
  2
AcmPartRef
  3
"AcmSymBB|Product Description: AutoCAD Mechanical|Company: Autodesk, Inc."
 90
    36863
280
     0
281
     1
  0
CLASS
  1
ACMDATAENTRYPART
  2
AcmDataEntryPart
  3
AcmSymBB|Product Description: AutoCAD Mechanical|Company: Autodesk, Inc.
 90
    33792
280
     0
281
     0
  0
CLASS
  1
AMDTFORMULAUPDATEDISPATCHER
  2
AmdtFormulaUpdateDispatcher
  3
AcMeServices
 90
     1024
280
     0
281
     0
  0
CLASS
  1
NEWSTDPARTPARLIST
  2
AmgNewParListFiler
  3
"AmgParList|Product Description: AutoCAD Mechanical|Company: Autodesk, Inc."
 90
    36863
280
     0
281
     0
  0
CLASS
  1
LAYER_INDEX
  2
AcDbLayerIndex
  3
ObjectDBX Classes
 90
    32768
280
     0
281
     0
  0
CLASS
  1
IDBUFFER
  2
AcDbIdBuffer
  3
ObjectDBX Classes
 90
    32768
280
     0
281
     0
  0
CLASS
  1
DICTIONARYVAR
  2
AcDbDictionaryVar
  3
ObjectDBX Classes
 90
        0
280
     0
281
     0
  0
CLASS
  1
AMDTNOTE
  2
AmdtNote
  3
"AcmSymBB|Product Description: AutoCAD Mechanical|Company: Autodesk, Inc."
 90
     4095
280
     0
281
     1
  0
CLASS
  1
STDPART2D
  2
AmgStdPart
  3
AmgStdPart|Product Description: AutoCAD Mechanical|Company: Autodesk, Inc.
 90
    36863
280
     0
281
     1
  0
CLASS
  1
ACMFCFSTANDARDJIS
  2
AcmFCFStdJIS
  3
"Amdt_StdImp|Product Description: AutoCAD Mechanical|Company: Autodesk, Inc."
 90
     1024
280
     0
281
     0
  0
CLASS
  1
ACMPICKOBJ
  2
AcmPickEnt
  3
"AcmSymBB|Product Description: AutoCAD Mechanical|Company: Autodesk, Inc."
 90
    33792
280
     0
281
     1
  0
CLASS
  1
ACMDATAENTRY
  2
AcmDataEntry
  3
AcmSymBB|Product Description: AutoCAD Mechanical|Company: Autodesk, Inc.
 90
     1024
280
     0
281
     0
  0
CLASS
  1
ACMBOM
  2
AcmBom
  3
"AcmSymBB|Product Description: AutoCAD Mechanical|Company: Autodesk, Inc."
 90
     1024
280
     0
281
     0
  0
CLASS
  1
ACMBOMROW
  2
AcmBomRow
  3
"AcmSymBB|Product Description: AutoCAD Mechanical|Company: Autodesk, Inc."
 90
    33792
280
     0
281
     0
  0
CLASS
  1
ACMBALLOON
  2
AcmBalloon
  3
"AcmSymBB|Product Description: AutoCAD Mechanical|Company: Autodesk, Inc."
 90
    36863
280
     0
281
     1
  0
CLASS
  1
ACMPARTLIST
  2
AcmPartList
  3
"AcmSymBB|Product Description: AutoCAD Mechanical|Company: Autodesk, Inc."
 90
    36863
280
     0
281
     1
  0
CLASS
  1
MATERIAL
  2
AcDbMaterial
  3
ObjectDBX Classes
 90
     1153
280
     0
281
     0
  0
CLASS
  1
VISUALSTYLE
  2
AcDbVisualStyle
  3
ObjectDBX Classes
 90
     4095
280
     0
281
     0
  0
CLASS
  1
TABLESTYLE
  2
AcDbTableStyle
  3
ObjectDBX Classes
 90
     4095
280
     0
281
     0
  0
CLASS
  1
AM_DRAWING_MGR
  2
AcDmDwgMgr
  3
AcMechDwgViewMgmt
 90
     1024
280
     0
281
     0
  0
CLASS
  1
AM_DWG_DOCUMENT
  2
AcDmDwgDocument
  3
AcMechDwgViewMgmt
 90
     1024
280
     0
281
     0
  0
CLASS
  1
AM_DWG_SHEET
  2
AcDmSheet
  3
AcMechDwgViewMgmt
 90
     1024
280
     0
281
     0
  0
CLASS
  1
AM_VIEWDIMPARMAP
  2
AcDmViewDimParMap
  3
AcMechDwgViewMgmt
 90
     1024
280
     0
281
     0
  0
CLASS
  1
AM_DWGMGR_NAME
  2
AcDmDwgMgrName
  3
AcMechDwgViewMgmt
 90
     1024
280
     0
281
     0
  0
CLASS
  1
AMDTMENUSTATEMGR
  2
AmdtMenuStateMgr
  3
McadcomServices
 90
     1024
280
     0
281
     0
  0
CLASS
  1
AMDTMCOMMENUSTATE
  2
AmdtMcomMenuState
  3
McadcomServices
 90
     1024
280
     0
281
     0
  0
CLASS
  1
MAPIAMMOUDLE
  2
MApiAmModule
  3
MApiAmServices
 90
     1024
280
     0
281
     0
  0
CLASS
  1
AMDTADMENUSTATE
  2
AmdtAdMenuState
  3
DesignerServices
 90
    32768
280
     0
281
     0
  0
CLASS
  1
ADAPPL
  2
AcAdAppl
  3
DesignerAssemblies
 90
    33792
280
     0
281
     0
  0
CLASS
  1
DEPMGR
  2
AcAdDepMgr
  3
DesignerAssemblies
 90
    33792
280
     0
281
     0
  0
CLASS
  1
PARAMMGR
  2
AcAdParamMgr
  3
DesignerAssemblies
 90
    33792
280
     0
281
     0
  0
CLASS
  1
PARAMSCOPE
  2
AcAdParamScope
  3
DesignerAssemblies
 90
    33792
280
     0
281
     0
  0
CLASS
  1
NAMEDAPPL
  2
AcAdNamedAppl
  3
DesignerAssemblies
 90
    33792
280
     0
281
     0
  0
CLASS
  1
AMDTDMMENUSTATE
  2
AmdtDmMenuState
  3
AcMechDwgViewMgmt
 90
     1024
280
     0
281
     0
  0
CLASS
  1
AMDTAMMENUSTATE
  2
AmdtAmMenuState
  3
DesignerAssemblies
 90
     1024
280
     0
281
     0
  0
CLASS
  1
ACAMPROJECT
  2
AcAmProject
  3
DesignerAssemblies
 90
     1024
280
     0
281
     0
  0
CLASS
  1
ACAMGRCOMPDEF
  2
AcAmGrCompDef
  3
DesignerAssemblies
 90
     1024
280
     0
281
     0
  0
CLASS
  1
ACCMCONTEXT
  2
AcCmContext
  3
DesignerAssemblies
 90
     1024
280
     0
281
     0
  0
CLASS
  1
ACAMCOMPDEF
  2
AcAmCompDef
  3
DesignerAssemblies
 90
     1024
280
     0
281
     0
  0
CLASS
  1
ACAMCOMPDEFMGR
  2
AcAmCompDefMgr
  3
DesignerAssemblies
 90
     1024
280
     0
281
     0
  0
CLASS
  1
AMCONTEXTMGR
  2
AcAmContextMgr
  3
DesignerAssemblies
 90
     1024
280
     0
281
     0
  0
CLASS
  1
ACAMCONTEXTMODELER
  2
AcAmContextModeler
  3
DesignerAssemblies
 90
     1024
280
     0
281
     0
  0
CLASS
  1
ACRFATTGENMGR
  2
AcRfAttGeneralMgr
  3
AcAttribServices
 90
     1024
280
     0
281
     0
  0
CLASS
  1
ACRFOBJATTMGR
  2
AcRfObjAttGroupMgr
  3
AcAttribServices
 90
     1024
280
     0
281
     0
  0
CLASS
  1
ACRFMCADAPIATTHOLDER
  2
AcRfMCADAPIAttHolder
  3
AcAttribServices
 90
     1024
280
     0
281
     0
  0
CLASS
  1
AMDTSYSATTR
  2
AmdtSystemAttribute
  3
AcAttribServices
 90
     1024
280
     0
281
     0
  0
CLASS
  1
ACMTHREADLINESTANDARDJIS
  2
AmdtThreadLineStdJIS
  3
"Amdt_StdImp|Product Description: AutoCAD Mechanical|Company: Autodesk, Inc."
 90
     1024
280
     0
281
     0
  0
CLASS
  1
AMDTNOTETEMPLATEDB
  2
AmdtNoteTemplateDB
  3
AcmSymBB|Product Description: AutoCAD Mechanical|Company: Autodesk, Inc.
 90
     1024
280
     0
281
     0
  0
CLASS
  1
ACMTAPERSTANDARDJIS
  2
AcmTaperStdJIS
  3
"Amdt_StdImp|Product Description: AutoCAD Mechanical|Company: Autodesk, Inc."
 90
     1024
280
     0
281
     0
  0
CLASS
  1
ACMTHREADLINESTANDARDISO
  2
AmdtThreadLineStdISO
  3
"Amdt_StdImp|Product Description: AutoCAD Mechanical|Company: Autodesk, Inc."
 90
     1024
280
     0
281
     0
  0
CLASS
  1
ACMTAPERSTANDARDISO
  2
AcmTaperStdISO
  3
"Amdt_StdImp|Product Description: AutoCAD Mechanical|Company: Autodesk, Inc."
 90
     1024
280
     0
281
     0
  0
CLASS
  1
CATALOGSTATE
  2
AcAmCatalogState
  3
DesignerAssemblies
 90
    33792
280
     0
281
     0
  0
CLASS
  1
ACAMGRCOMPDEFSET
  2
AcAmGrCompDefSet
  3
DesignerAssemblies
 90
     1024
280
     0
281
     0
  0
CLASS
  1
AMDTBROWSERDBTAB
  2
AmdtBrowserDbTab
  3
McadcomServices
 90
     1024
280
     0
281
     0
  0
CLASS
  1
CBROWSERAPPOBJECT
  2
CBrowserAppObject
  3
McadcomServices
 90
     1024
280
     0
281
     0
  0
CLASS
  1
DM_PLACEHOLDER
  2
AcDmSelsetPlaceholder
  3
AcMechDwgViewMgmt
 90
     1024
280
     0
281
     0
  0
CLASS
  1
CAMSSTRUCTBTNSTATE
  2
StructBtnState
  3
DesignerAssemblies
 90
    33792
280
     0
281
     0
  0
CLASS
  1
SORTENTSTABLE
  2
AcDbSortentsTable
  3
ObjectDBX Classes
 90
        0
280
     0
281
     0
  0
CLASS
  1
DIMASSOC
  2
AcDbDimAssoc
  3
"AcDbDimAssoc|Product Desc:     AcDim ARX App For Dimension|Company:          Autodesk, Inc.|WEB Address:      www.autodesk.com"
 90
        0
280
     0
281
     0
  0
CLASS
  1
ACDBLINERES
  2
AcDbLineRes
  3
AcGrefServices
 90
     1024
280
     0
281
     0
  0
CLASS
  1
ACDBCIRCARCRES
  2
AcDbCircArcRes
  3
AcGrefServices
 90
    33792
280
     0
281
     0
  0
CLASS
  1
ACDBOPPOLYLINERES
  2
AcDbOpPolylineRes
  3
AcGrefServices
 90
     1024
280
     0
281
     0
  0
CLASS
  1
ACRFINSADJ
  2
AcRfInsAdjuster
  3
AcMeServices
 90
     1024
280
     0
281
     0
  0
CLASS
  1
SCALE
  2
AcDbScale
  3
ObjectDBX Classes
 90
     1153
280
     0
281
     0
  0
CLASS
  1
MLEADERSTYLE
  2
AcDbMLeaderStyle
  3
ACDB_MLEADERSTYLE_CLASS
 90
     4095
280
     0
281
     0
  0
CLASS
  1
ACMANOOTATIONVIEWSTANDARDJIS
  2
AmdtAnViewStdJIS
  3
"Amdt_StdImp|Product Description: AutoCAD Mechanical|Company: Autodesk, Inc."
 90
     1024
280
     0
281
     0
  0
CLASS
  1
AMDTEDGESTANDARDJIS
  2
AmdtEdgeStdJIS
  3
"Amdt_StdImp|Product Description: AutoCAD Mechanical|Company: Autodesk, Inc."
 90
     1024
280
     0
281
     0
  0
CLASS
  1
ACMANOOTATIONVIEWSTANDARDISO
  2
AmdtAnViewStdISO
  3
"Amdt_StdImp|Product Description: AutoCAD Mechanical|Company: Autodesk, Inc."
 90
     1024
280
     0
281
     0
  0
CLASS
  1
CELLSTYLEMAP
  2
AcDbCellStyleMap
  3
ObjectDBX Classes
 90
     1152
280
     0
281
     0
  0
ENDSEC
  0
SECTION
  2
TABLES
  0
TABLE
  2
VPORT
  5
8
102
{ACAD_XDICTIONARY
360
189B
102
}
330
0
100
AcDbSymbolTable
 70
     1
  0
VPORT
  5
1D4F
330
8
100
AcDbSymbolTableRecord
100
AcDbViewportTableRecord
  2
*Active
 70
     0
 10
0.0
 20
0.0
 11
1.0
 21
1.0
 12
161.7436902751288
 22
170.9910555453854
 13
0.0
 23
0.0
 14
1.25
 24
1.25
 15
5.0
 25
5.0
 16
0.0
 26
0.0
 36
1.0
 17
0.0
 27
0.0
 37
0.0
 40
89.68450633031642
 41
2.070938215102974
 42
50.0
 43
0.0
 44
0.0
 50
0.0
 51
0.0
 71
     0
 72
   100
 73
     1
 74
     3
 75
     0
 76
     0
 77
     0
 78
     0
281
     0
 65
     1
110
0.0
120
0.0
130
0.0
111
1.0
121
0.0
131
0.0
112
0.0
122
1.0
132
0.0
 79
     0
146
0.0
  0
ENDTAB
  0
TABLE
  2
LTYPE
  5
5
330
0
100
AcDbSymbolTable
 70
    17
  0
LTYPE
  5
14
330
5
100
AcDbSymbolTableRecord
100
AcDbLinetypeTableRecord
  2
ByBlock
 70
     0
  3

 72
    65
 73
     0
 40
0.0
  0
LTYPE
  5
15
330
5
100
AcDbSymbolTableRecord
100
AcDbLinetypeTableRecord
  2
ByLayer
 70
     0
  3

 72
    65
 73
     0
 40
0.0
  0
LTYPE
  5
16
330
5
100
AcDbSymbolTableRecord
100
AcDbLinetypeTableRecord
  2
Continuous
 70
     0
  3
Solid line
 72
    65
 73
     0
 40
0.0
  0
LTYPE
  5
4D
330
5
100
AcDbSymbolTableRecord
100
AcDbLinetypeTableRecord
  2
AM_ISO02W050
 70
     0
  3
__ __ __ __ __ __ __ __ __ __ __ __ __ __ __
 72
    65
 73
     2
 40
7.5
 49
6.0
 74
     0
 49
-1.5
 74
     0
  0
LTYPE
  5
4E
330
5
100
AcDbSymbolTableRecord
100
AcDbLinetypeTableRecord
  2
AM_ISO08W050
 70
     0
  3
____ . ____ . ____ . ____ . ____ . ____ . ____
 72
    65
 73
     4
 40
18.0
 49
12.0
 74
     0
 49
-1.5
 74
     0
 49
3.0
 74
     0
 49
-1.5
 74
     0
  0
LTYPE
  5
4F
330
5
100
AcDbSymbolTableRecord
100
AcDbLinetypeTableRecord
  2
AM_ISO09W050
 70
     0
  3
_____ . . _____ . . _____ . . ____ .. ____
 72
    65
 73
     6
 40
22.5
 49
12.0
 74
     0
 49
-1.5
 74
     0
 49
3.0
 74
     0
 49
-1.5
 74
     0
 49
3.0
 74
     0
 49
-1.5
 74
     0
  0
LTYPE
  5
50
330
5
100
AcDbSymbolTableRecord
100
AcDbLinetypeTableRecord
  2
Amconstr
 70
     0
  3
_______________________
 72
    65
 73
     2
 40
9999.0
 49
9999.0
 74
     0
 49
0.0
 74
     0
  0
LTYPE
  5
51
330
5
100
AcDbSymbolTableRecord
100
AcDbLinetypeTableRecord
  2
AM_ISO08W050x2
 70
     0
  3
__ . __ . __ . __ . __ . __
 72
    65
 73
     4
 40
9.0
 49
6.0
 74
     0
 49
-0.75
 74
     0
 49
1.5
 74
     0
 49
-0.75
 74
     0
  0
LTYPE
  5
52
330
5
100
AcDbSymbolTableRecord
100
AcDbLinetypeTableRecord
  2
AM_ISO02W050x2
 70
     0
  3
 _ _ _ _ _ _ _ _ _ _ _ _
 72
    65
 73
     2
 40
3.75
 49
3.0
 74
     0
 49
-0.75
 74
     0
  0
LTYPE
  5
55
330
5
100
AcDbSymbolTableRecord
100
AcDbLinetypeTableRecord
  2
Amzigzag
 70
     0
  3
/\/-/\/-/\/-/\/-/\/-/\/
 72
    65
 73
     2
 40
11.0001
 49
0.0001
 74
     4
 75
   135
340
54
 46
0.04
 50
0.0
 44
0.0
 45
0.0
 49
-11.0
 74
     0
  0
LTYPE
  5
63
330
5
100
AcDbSymbolTableRecord
100
AcDbLinetypeTableRecord
  2
ACISOWELD
 70
     0
  3
_ _ _ _ _
 72
    65
 73
     2
 40
2.0
 49
2.0
 74
     0
 49
-1.0
 74
     0
  0
LTYPE
  5
64
330
5
100
AcDbSymbolTableRecord
100
AcDbLinetypeTableRecord
  2
ACISOTGB
 70
     0
  3
__ . . __ . .
 72
    65
 73
     6
 40
9.0
 49
4.0
 74
     0
 49
-1.0
 74
     0
 49
1.0
 74
     0
 49
-1.0
 74
     0
 49
1.0
 74
     0
 49
-1.0
 74
     0
  0
LTYPE
  5
65
330
5
100
AcDbSymbolTableRecord
100
AcDbLinetypeTableRecord
  2
ACISOTGL
 70
     0
  3
_ _ _ _ _
 72
    65
 73
     2
 40
3.0
 49
2.0
 74
     0
 49
-1.0
 74
     0
  0
LTYPE
  5
68
330
5
100
AcDbSymbolTableRecord
100
AcDbLinetypeTableRecord
  2
CENTER
 70
     0
  3
__ . __
 72
    65
 73
     4
 40
7.0
 49
4.0
 74
     0
 49
-1.0
 74
     0
 49
1.0
 74
     0
 49
-1.0
 74
     0
  0
LTYPE
  5
8C
330
5
100
AcDbSymbolTableRecord
100
AcDbLinetypeTableRecord
  2
ACJISTGB
 70
     0
  3
__ . . __ . .
 72
    65
 73
     6
 40
9.0
 49
4.0
 74
     0
 49
-1.0
 74
     0
 49
1.0
 74
     0
 49
-1.0
 74
     0
 49
1.0
 74
     0
 49
-1.0
 74
     0
  0
LTYPE
  5
8D
330
5
100
AcDbSymbolTableRecord
100
AcDbLinetypeTableRecord
  2
ACJISTGL
 70
     0
  3
_ _ _ _ _
 72
    65
 73
     2
 40
3.0
 49
2.0
 74
     0
 49
-1.0
 74
     0
  0
LTYPE
  5
14D5
330
5
100
AcDbSymbolTableRecord
100
AcDbLinetypeTableRecord
  2
HIDDEN
 70
     0
  3
Hidden __ __ __ __ __ __ __ __ __ __ __ __ __ _
 72
    65
 73
     2
 40
9.524999999999998
 49
6.349999999999999
 74
     0
 49
-3.174999999999999
 74
     0
  0
LTYPE
  5
14D6
330
5
100
AcDbSymbolTableRecord
100
AcDbLinetypeTableRecord
  2
PHANTOM2
 70
     0
  3
Phantom (.5x) ___ _ _ ___ _ _ ___ _ _ ___ _ _
 72
    65
 73
     6
 40
31.75
 49
15.875
 74
     0
 49
-3.174999999999999
 74
     0
 49
3.174999999999999
 74
     0
 49
-3.174999999999999
 74
     0
 49
3.174999999999999
 74
     0
 49
-3.174999999999999
 74
     0
  0
ENDTAB
  0
TABLE
  2
LAYER
  5
2
102
{ACAD_XDICTIONARY
360
1F55
102
}
330
0
100
AcDbSymbolTable
 70
    18
  0
LAYER
  5
10
102
{ACAD_XDICTIONARY
360
1F30
102
}
330
2
100
AcDbSymbolTableRecord
100
AcDbLayerTableRecord
  2
0
 70
     0
 62
     7
  6
Continuous
370
    -3
390
F
  0
LAYER
  5
AF
102
{ACAD_XDICTIONARY
360
1F32
102
}
330
2
100
AcDbSymbolTableRecord
100
AcDbLayerTableRecord
  2
AM_CL
 70
     0
 62
     1
  6
Amconstr
370
    25
390
F
  0
LAYER
  5
DE
102
{ACAD_XDICTIONARY
360
1F34
102
}
330
2
100
AcDbSymbolTableRecord
100
AcDbLayerTableRecord
  2
AM_0
 70
     0
 62
     7
  6
Continuous
370
    50
390
F
  0
LAYER
  5
DF
102
{ACAD_XDICTIONARY
360
1F36
102
}
330
2
100
AcDbSymbolTableRecord
100
AcDbLayerTableRecord
  2
AM_5
 70
     0
 62
     3
  6
Continuous
370
    25
390
F
  0
LAYER
  5
E0
330
2
100
AcDbSymbolTableRecord
100
AcDbLayerTableRecord
  2
Defpoints
 70
     0
 62
     7
  6
Continuous
290
     0
370
    -3
390
F
  0
LAYER
  5
E1
102
{ACAD_XDICTIONARY
360
1F38
102
}
330
2
100
AcDbSymbolTableRecord
100
AcDbLayerTableRecord
  2
AM_8
 70
     0
 62
     1
  6
Continuous
370
    25
390
F
  0
LAYER
  5
E2
102
{ACAD_XDICTIONARY
360
1F3A
102
}
330
2
100
AcDbSymbolTableRecord
100
AcDbLayerTableRecord
  2
AM_4
 70
     0
 62
     3
  6
Continuous
370
    25
390
F
  0
LAYER
  5
E3
102
{ACAD_XDICTIONARY
360
1F3C
102
}
330
2
100
AcDbSymbolTableRecord
100
AcDbLayerTableRecord
  2
AM_12
 70
     0
 62
     7
  6
Continuous
290
     0
370
    50
390
F
  0
LAYER
  5
E4
102
{ACAD_XDICTIONARY
360
1F3E
102
}
330
2
100
AcDbSymbolTableRecord
100
AcDbLayerTableRecord
  2
AM_PAREF
 70
     0
 62
     4
  6
Continuous
290
     0
370
    25
390
F
  0
LAYER
  5
2D9
102
{ACAD_XDICTIONARY
360
1F40
102
}
330
2
100
AcDbSymbolTableRecord
100
AcDbLayerTableRecord
  2
AM_11
 70
     0
 62
     3
  6
AM_ISO09W050
370
    25
390
F
  0
LAYER
  5
3DD
102
{ACAD_XDICTIONARY
360
1F42
102
}
330
2
100
AcDbSymbolTableRecord
100
AcDbLayerTableRecord
  2
AM_7
 70
     0
 62
     4
  6
AM_ISO08W050
370
    25
390
F
  0
LAYER
  5
539
102
{ACAD_XDICTIONARY
360
1F44
102
}
330
2
100
AcDbSymbolTableRecord
100
AcDbLayerTableRecord
  2
AM_0N
 70
     0
 62
     7
  6
Continuous
370
    50
390
F
  0
LAYER
  5
53A
102
{ACAD_XDICTIONARY
360
1F46
102
}
330
2
100
AcDbSymbolTableRecord
100
AcDbLayerTableRecord
  2
AM_7N
 70
     0
 62
     4
  6
AM_ISO08W050
370
    25
390
F
  0
LAYER
  5
53B
102
{ACAD_XDICTIONARY
360
1F48
102
}
330
2
100
AcDbSymbolTableRecord
100
AcDbLayerTableRecord
  2
AM_3N
 70
     0
 62
     6
  6
AM_ISO02W050
370
    25
390
F
  0
LAYER
  5
53C
102
{ACAD_XDICTIONARY
360
1F4A
102
}
330
2
100
AcDbSymbolTableRecord
100
AcDbLayerTableRecord
  2
AM_9
 70
     0
 62
  -253
  6
Continuous
370
     0
390
F
  0
LAYER
  5
53D
102
{ACAD_XDICTIONARY
360
1F4C
102
}
330
2
100
AcDbSymbolTableRecord
100
AcDbLayerTableRecord
  2
AM_12N
 70
     0
 62
     7
  6
Continuous
290
     0
370
    50
390
F
  0
LAYER
  5
E08
102
{ACAD_XDICTIONARY
360
1F4E
102
}
330
2
100
AcDbSymbolTableRecord
100
AcDbLayerTableRecord
  2
AM_BOR
 70
     0
 62
     7
  6
Continuous
370
    50
390
F
  0
LAYER
  5
1979
102
{ACAD_XDICTIONARY
360
1F50
102
}
330
2
100
AcDbSymbolTableRecord
100
AcDbLayerTableRecord
  2
AM_3
 70
     0
 62
     6
  6
AM_ISO02W050
370
    25
390
F
1001
ACAECLAYERSTANDARD
1000

1000

  0
ENDTAB
  0
TABLE
  2
STYLE
  5
3
330
0
100
AcDbSymbolTable
 70
    10
  0
STYLE
  5
11
330
3
100
AcDbSymbolTableRecord
100
AcDbTextStyleTableRecord
  2
STANDARD
 70
     0
 40
0.0
 41
1.0
 50
0.0
 71
     0
 42
2.5
  3
ISOCP.SHX
  4
EXTFONT.SHX
  0
STYLE
  5
54
330
3
100
AcDbSymbolTableRecord
100
AcDbTextStyleTableRecord
  2

 70
     1
 40
0.0
 41
1.0
 50
0.0
 71
     0
 42
2.5
  3
ltypeshp.shx
  4

  0
STYLE
  5
56
330
3
100
AcDbSymbolTableRecord
100
AcDbTextStyleTableRecord
  2
ACISOTS
 70
     0
 40
1.0
 41
1.0
 50
0.0
 71
     0
 42
2.5
  3
isocp.shx
  4
extfont.shx
  0
STYLE
  5
62
330
3
100
AcDbSymbolTableRecord
100
AcDbTextStyleTableRecord
  2
ACISOGDT
 70
     0
 40
0.0
 41
1.0
 50
0.0
 71
     0
 42
2.5
  3
amgdt.shx
  4

  0
STYLE
  5
79
330
3
100
AcDbSymbolTableRecord
100
AcDbTextStyleTableRecord
  2
USER1
 70
     0
 40
0.0
 41
1.0
 50
0.0
 71
     0
 42
2.5
  3
TXT.SHX
  4

  0
STYLE
  5
7A
330
3
100
AcDbSymbolTableRecord
100
AcDbTextStyleTableRecord
  2
USER2
 70
     0
 40
0.0
 41
1.0
 50
0.0
 71
     0
 42
2.5
  3
SIMPLEX.SHX
  4

  0
STYLE
  5
7B
330
3
100
AcDbSymbolTableRecord
100
AcDbTextStyleTableRecord
  2
USER3
 70
     0
 40
0.0
 41
1.0
 50
0.0
 71
     0
 42
2.5
  3
ITALIC.SHX
  4

  0
STYLE
  5
80
330
3
100
AcDbSymbolTableRecord
100
AcDbTextStyleTableRecord
  2
ACJISTS
 70
     0
 40
1.0
 41
1.0
 50
0.0
 71
     0
 42
2.5
  3
isocp.shx
  4
extfont.shx
  0
STYLE
  5
8B
330
3
100
AcDbSymbolTableRecord
100
AcDbTextStyleTableRecord
  2
ACJISGDT
 70
     0
 40
0.0
 41
1.0
 50
0.0
 71
     0
 42
2.5
  3
amgdt.shx
  4

  0
STYLE
  5
758
330
3
100
AcDbSymbolTableRecord
100
AcDbTextStyleTableRecord
  2
ｽﾀｲﾙ1
 70
     0
 40
0.0
 41
1.0
 50
0.0
 71
     0
 42
44.62462130138407
  3

  4

1001
ACAD
1000
HGPSoeiKakugothicUB
1071
    32818
  0
ENDTAB
  0
TABLE
  2
VIEW
  5
6
330
0
100
AcDbSymbolTable
 70
     6
  0
VIEW
  5
E21
330
6
100
AcDbSymbolTableRecord
100
AcDbViewTableRecord
  2
AM_VIEW1
 70
     0
 40
74.25000000000003
 10
120.4281256858859
 20
223.7736327325082
 41
112.0719649561953
 11
0.0
 21
0.0
 31
1.0
 12
0.0
 22
0.0
 32
0.0
 42
50.0
 43
0.0
 44
0.0
 50
0.0
 71
     0
281
     0
 72
     0
  0
VIEW
  5
E22
330
6
100
AcDbSymbolTableRecord
100
AcDbViewTableRecord
  2
AM_VIEW2
 70
     0
 40
74.25000000000003
 10
218.3775893011191
 20
223.7736327325082
 41
112.0719649561953
 11
0.0
 21
0.0
 31
1.0
 12
0.0
 22
0.0
 32
0.0
 42
50.0
 43
0.0
 44
0.0
 50
0.0
 71
     0
281
     0
 72
     0
  0
VIEW
  5
E23
330
6
100
AcDbSymbolTableRecord
100
AcDbViewTableRecord
  2
AM_VIEW3
 70
     0
 40
74.25000000000001
 10
120.4281256858859
 20
149.5236327325081
 41
112.0719649561953
 11
0.0
 21
0.0
 31
1.0
 12
0.0
 22
0.0
 32
0.0
 42
50.0
 43
0.0
 44
0.0
 50
0.0
 71
     0
281
     0
 72
     0
  0
VIEW
  5
E24
330
6
100
AcDbSymbolTableRecord
100
AcDbViewTableRecord
  2
AM_VIEW4
 70
     0
 40
74.25000000000001
 10
218.3775893011191
 20
149.5236327325081
 41
112.0719649561953
 11
0.0
 21
0.0
 31
1.0
 12
0.0
 22
0.0
 32
0.0
 42
50.0
 43
0.0
 44
0.0
 50
0.0
 71
     0
281
     0
 72
     0
  0
VIEW
  5
E25
330
6
100
AcDbSymbolTableRecord
100
AcDbViewTableRecord
  2
AM_VIEW5
 70
     0
 40
74.25
 10
169.4028574935025
 20
186.6486327325081
 41
112.0719649561953
 11
0.0
 21
0.0
 31
1.0
 12
0.0
 22
0.0
 32
0.0
 42
50.0
 43
0.0
 44
0.0
 50
0.0
 71
     0
281
     0
 72
     0
  0
VIEW
  5
E26
330
6
100
AcDbSymbolTableRecord
100
AcDbViewTableRecord
  2
AM_VIEW6
 70
     0
 40
148.4985150000001
 10
169.4028574935025
 20
186.6486327325081
 41
224.1416884730914
 11
0.0
 21
0.0
 31
1.0
 12
0.0
 22
0.0
 32
0.0
 42
50.0
 43
0.0
 44
0.0
 50
0.0
 71
     0
281
     0
 72
     0
  0
ENDTAB
  0
TABLE
  2
UCS
  5
7
330
0
100
AcDbSymbolTable
 70
     0
  0
ENDTAB
  0
TABLE
  2
APPID
  5
9
330
0
100
AcDbSymbolTable
 70
    39
  0
APPID
  5
12
330
9
100
AcDbSymbolTableRecord
100
AcDbRegAppTableRecord
  2
ACAD
 70
     0
  0
APPID
  5
2C
330
9
100
AcDbSymbolTableRecord
100
AcDbRegAppTableRecord
  2
MCAD_NO_VIS
 70
     0
  0
APPID
  5
2D
330
9
100
AcDbSymbolTableRecord
100
AcDbRegAppTableRecord
  2
ACAD_TEMP_GRAPHIC
 70
     0
  0
APPID
  5
3E
330
9
100
AcDbSymbolTableRecord
100
AcDbRegAppTableRecord
  2
ACATTRIBSERVICES
 70
     0
  0
APPID
  5
E5
330
9
100
AcDbSymbolTableRecord
100
AcDbRegAppTableRecord
  2
GENIUS_GENODEF_13
 70
     0
  0
APPID
  5
E6
330
9
100
AcDbSymbolTableRecord
100
AcDbRegAppTableRecord
  2
GENIUS_GENOREF_13
 70
     0
  0
APPID
  5
E7
330
9
100
AcDbSymbolTableRecord
100
AcDbRegAppTableRecord
  2
GENIUS_GENOBJ-N-FIL_13
 70
     0
  0
APPID
  5
E8
330
9
100
AcDbSymbolTableRecord
100
AcDbRegAppTableRecord
  2
GENIUS_GENDTOL_13
 70
     0
  0
APPID
  5
E9
330
9
100
AcDbSymbolTableRecord
100
AcDbRegAppTableRecord
  2
GENIUS_GEFSH_13
 70
     0
  0
APPID
  5
EA
330
9
100
AcDbSymbolTableRecord
100
AcDbRegAppTableRecord
  2
GENIUS_GENOBJ-N-HTC_13
 70
     0
  0
APPID
  5
EB
330
9
100
AcDbSymbolTableRecord
100
AcDbRegAppTableRecord
  2
GENIUS_GENHATCH_13
 70
     0
  0
APPID
  5
EC
330
9
100
AcDbSymbolTableRecord
100
AcDbRegAppTableRecord
  2
GENIUS_GENFIL_13
 70
     0
  0
APPID
  5
2DA
330
9
100
AcDbSymbolTableRecord
100
AcDbRegAppTableRecord
  2
GENIUS_GENOENT_13
 70
     0
  0
APPID
  5
2DB
330
9
100
AcDbSymbolTableRecord
100
AcDbRegAppTableRecord
  2
GENIUS_GENOLIS_13
 70
     0
  0
APPID
  5
2DC
330
9
100
AcDbSymbolTableRecord
100
AcDbRegAppTableRecord
  2
GENIUS_GENOBJ-N-CHA_13
 70
     0
  0
APPID
  5
327
330
9
100
AcDbSymbolTableRecord
100
AcDbRegAppTableRecord
  2
GENIUS_GENDIMSH_14
 70
     0
  0
APPID
  5
33D
330
9
100
AcDbSymbolTableRecord
100
AcDbRegAppTableRecord
  2
GENIUS_GENOBJ-F-SHS_13
 70
     0
  0
APPID
  5
3DF
330
9
100
AcDbSymbolTableRecord
100
AcDbRegAppTableRecord
  2
GENIUS_GENOBJ-N-CEN_13
 70
     0
  0
APPID
  5
53E
330
9
100
AcDbSymbolTableRecord
100
AcDbRegAppTableRecord
  2
GENIUS_GENBH_13
 70
     0
  0
APPID
  5
53F
330
9
100
AcDbSymbolTableRecord
100
AcDbRegAppTableRecord
  2
GENIUS_GENOBJ-NBEHI-BHF_13
 70
     0
  0
APPID
  5
E09
330
9
100
AcDbSymbolTableRecord
100
AcDbRegAppTableRecord
  2
GENIUS_GENREC_14
 70
     0
  0
APPID
  5
E0A
330
9
100
AcDbSymbolTableRecord
100
AcDbRegAppTableRecord
  2
GENIUS_GENOBJ-N-REC_13
 70
     0
  0
APPID
  5
E7E
330
9
100
AcDbSymbolTableRecord
100
AcDbRegAppTableRecord
  2
GENIUS_GENOBJ-N-TIT_13
 70
     0
  0
APPID
  5
E7F
330
9
100
AcDbSymbolTableRecord
100
AcDbRegAppTableRecord
  2
GENIUS_GENTITLE_13
 70
     0
  0
APPID
  5
E80
330
9
100
AcDbSymbolTableRecord
100
AcDbRegAppTableRecord
  2
GENIUS_GENZVEED_13
 70
     0
  0
APPID
  5
ECE
330
9
100
AcDbSymbolTableRecord
100
AcDbRegAppTableRecord
  2
GENIUS_GENSCREG_15
 70
     0
  0
APPID
  5
ECF
330
9
100
AcDbSymbolTableRecord
100
AcDbRegAppTableRecord
  2
GENIUS_GENOBJ-N-SDF_13
 70
     0
  0
APPID
  5
14D8
330
9
100
AcDbSymbolTableRecord
100
AcDbRegAppTableRecord
  2
AD_DRAW
 70
     0
  0
APPID
  5
14F7
330
9
100
AcDbSymbolTableRecord
100
AcDbRegAppTableRecord
  2
DESIGNERASSEMBLIES
 70
     0
  0
APPID
  5
1521
330
9
100
AcDbSymbolTableRecord
100
AcDbRegAppTableRecord
  2
ACADM_DIM_EDIT
 70
     0
  0
APPID
  5
1522
330
9
100
AcDbSymbolTableRecord
100
AcDbRegAppTableRecord
  2
AMDT_DM_ADJ
 70
     0
  0
APPID
  5
1583
330
9
100
AcDbSymbolTableRecord
100
AcDbRegAppTableRecord
  2
ACAD_EXEMPT_FROM_CAD_STANDARDS
 70
     0
  0
APPID
  5
16E0
330
9
100
AcDbSymbolTableRecord
100
AcDbRegAppTableRecord
  2
GENIUS_GENCEN_19
 70
     0
  0
APPID
  5
186D
330
9
100
AcDbSymbolTableRecord
100
AcDbRegAppTableRecord
  2
ACAD_PSEXT
 70
     0
  0
APPID
  5
197C
330
9
100
AcDbSymbolTableRecord
100
AcDbRegAppTableRecord
  2
ACAECLAYERSTANDARD
 70
     0
  0
APPID
  5
1FA8
330
9
100
AcDbSymbolTableRecord
100
AcDbRegAppTableRecord
  2
ACAD_MLEADERVER
 70
     0
  0
APPID
  5
1FEF
330
9
100
AcDbSymbolTableRecord
100
AcDbRegAppTableRecord
  2
ACAD_DSTYLE_DIMBREAK
 70
     0
  0
APPID
  5
1FF0
330
9
100
AcDbSymbolTableRecord
100
AcDbRegAppTableRecord
  2
ACAD_DSTYLE_DIMJAG
 70
     0
  0
APPID
  5
25FE
330
9
100
AcDbSymbolTableRecord
100
AcDbRegAppTableRecord
  2
ACAD_DSTYLE_DIMINSPECT
 70
     0
  0
ENDTAB
  0
TABLE
  2
DIMSTYLE
  5
A
330
0
100
AcDbSymbolTable
 70
    18
100
AcDbDimStyleTable
 71
     2
340
90
340
6B
  0
DIMSTYLE
105
27
330
A
100
AcDbSymbolTableRecord
100
AcDbDimStyleTableRecord
  2
ISO-25
 70
     0
 41
2.5
 42
0.625
 43
3.75
 44
1.25
 73
     0
 74
     0
 77
     1
 78
     8
140
2.5
141
2.5
143
0.03937007874016
147
0.625
171
     3
172
     1
271
     2
272
     2
274
     3
278
    44
283
     0
284
     8
340
11
  0
DIMSTYLE
105
6B
330
A
100
AcDbSymbolTableRecord
100
AcDbDimStyleTableRecord
  2
AM_ISO
 70
     0
  4
"
 40
0.5
 41
2.5
 42
1.0
 43
10.0
 44
1.0
 47
0.1
 48
0.1
 73
     0
 74
     0
 77
     1
 78
     8
 79
     2
140
3.5
141
0.0
143
0.0393701
146
0.71
147
1.5
172
     1
176
   256
177
   256
178
     2
271
     2
272
     3
274
     4
283
     0
284
     8
340
11
371
    -1
372
    -1
  0
DIMSTYLE
105
6C
330
A
100
AcDbSymbolTableRecord
100
AcDbDimStyleTableRecord
  2
AM_ISO$3
 70
     0
  4
"
 40
0.5
 41
2.5
 42
1.0
 43
10.0
 44
1.0
 47
0.1
 48
0.1
 73
     0
 77
     1
 78
     8
 79
     2
140
3.5
141
0.0
143
0.0393701
146
0.71
147
1.5
176
   256
177
   256
178
     2
271
     2
272
     3
274
     4
283
     0
284
     8
288
     1
289
     0
340
11
371
    -1
372
    -1
  0
DIMSTYLE
105
6D
330
A
100
AcDbSymbolTableRecord
100
AcDbDimStyleTableRecord
  2
AM_ISO$4
 70
     0
  4
"
 40
0.5
 41
2.5
 42
1.0
 43
10.0
 44
1.0
 47
0.1
 48
0.1
 73
     0
 77
     1
 78
     8
 79
     2
140
3.5
141
0.0
143
0.0393701
146
0.71
147
1.5
176
   256
177
   256
178
     2
271
     2
272
     3
274
     4
283
     0
284
     8
288
     1
289
     0
340
11
371
    -1
372
    -1
  0
DIMSTYLE
105
6E
330
A
100
AcDbSymbolTableRecord
100
AcDbDimStyleTableRecord
  2
AM_ISO$6
 70
     0
  4
"
 40
0.5
 41
2.5
 42
1.0
 43
10.0
 44
1.0
 47
0.1
 48
0.1
 73
     0
 74
     0
 78
     8
 79
     2
140
3.5
141
0.0
143
0.0393701
146
0.71
147
1.5
172
     1
176
   256
177
   256
178
     2
271
     2
272
     3
274
     4
283
     0
284
     8
340
11
371
    -1
372
    -1
  0
DIMSTYLE
105
6F
330
A
100
AcDbSymbolTableRecord
100
AcDbDimStyleTableRecord
  2
AM_ISO$7
 70
     0
  4
"
 40
0.5
 41
2.5
 42
1.0
 43
10.0
 44
1.0
 47
0.1
 48
0.1
 73
     0
 74
     0
 77
     1
 78
     8
 79
     2
140
5.0
141
0.0
143
0.0393701
146
0.71
147
1.5
172
     1
176
   256
177
   256
178
     2
271
     2
272
     3
274
     4
283
     0
284
     8
340
11
371
    -1
372
    -1
  0
DIMSTYLE
105
70
330
A
100
AcDbSymbolTableRecord
100
AcDbDimStyleTableRecord
  2
AM_ISO$SF
 70
     0
  4
"
 40
0.5
 41
2.5
 42
1.0
 43
10.0
 44
1.0
 47
0.1
 48
0.1
 73
     0
 74
     0
 75
     1
 76
     1
 77
     1
 78
     8
 79
     2
140
3.5
141
0.0
143
0.0393701
146
0.71
147
1.5
172
     1
176
   256
177
   256
178
     2
271
     2
272
     3
274
     4
283
     0
284
     8
340
11
371
    -1
372
    -1
  0
DIMSTYLE
105
75
330
A
100
AcDbSymbolTableRecord
100
AcDbDimStyleTableRecord
  2
AM_ISO$SH
 70
     0
  4
"
 40
0.5
 41
2.5
 42
1.0
 43
10.0
 44
1.0
 47
0.1
 48
0.1
 73
     0
 74
     0
 75
     1
 76
     1
 77
     1
 78
     8
 79
     2
140
3.5
141
0.0
143
0.0393701
144
2.0
146
0.71
147
1.5
172
     1
173
     1
176
   256
177
   256
178
     2
271
     2
272
     3
274
     4
283
     0
284
     8
340
11
341
71
343
71
371
    -1
372
    -1
  0
DIMSTYLE
105
90
330
A
100
AcDbSymbolTableRecord
100
AcDbDimStyleTableRecord
  2
AM_JIS
 70
     0
  4
"
 40
0.5
 41
2.5
 42
1.0
 43
10.0
 44
1.0
 47
0.1
 48
0.1
 73
     0
 74
     0
 77
     3
 78
     8
 79
     2
140
3.5
141
0.0
143
0.0393701
146
0.71
147
1.5
172
     1
176
   256
177
   256
178
     2
271
     2
272
     3
274
     4
283
     0
284
     8
340
11
341
91
342
91
343
91
344
91
371
    -1
372
    -1
  0
DIMSTYLE
105
97
330
A
100
AcDbSymbolTableRecord
100
AcDbDimStyleTableRecord
  2
AM_JIS$3
 70
     0
  4
"
 40
0.5
 41
2.5
 42
1.0
 43
10.0
 44
1.0
 47
0.1
 48
0.1
 73
     0
 77
     3
 78
     8
 79
     2
140
3.5
141
0.0
143
0.0393701
146
0.71
147
1.5
176
   256
177
   256
178
     2
271
     2
272
     3
274
     4
283
     0
284
     8
288
     1
289
     0
340
11
341
91
342
91
343
91
344
91
371
    -1
372
    -1
  0
DIMSTYLE
105
98
330
A
100
AcDbSymbolTableRecord
100
AcDbDimStyleTableRecord
  2
AM_JIS$4
 70
     0
  4
"
 40
0.5
 41
2.5
 42
1.0
 43
10.0
 44
1.0
 47
0.1
 48
0.1
 73
     0
 77
     3
 78
     8
 79
     2
140
3.5
141
0.0
143
0.0393701
146
0.71
147
1.5
176
   256
177
   256
178
     2
271
     2
272
     3
274
     4
283
     0
284
     8
288
     1
289
     0
340
11
341
91
342
91
343
91
344
91
371
    -1
372
    -1
  0
DIMSTYLE
105
99
330
A
100
AcDbSymbolTableRecord
100
AcDbDimStyleTableRecord
  2
AM_JIS$6
 70
     0
  4
"
 40
0.5
 41
2.5
 42
1.0
 43
10.0
 44
1.0
 47
0.1
 48
0.1
 73
     0
 74
     0
 78
     8
 79
     2
140
3.5
141
0.0
143
0.0393701
146
0.71
147
1.5
172
     1
176
   256
177
   256
178
     2
271
     2
272
     3
274
     4
283
     0
284
     8
340
11
341
91
342
91
343
91
344
91
371
    -1
372
    -1
  0
DIMSTYLE
105
9A
330
A
100
AcDbSymbolTableRecord
100
AcDbDimStyleTableRecord
  2
AM_JIS$7
 70
     0
  4
"
 40
0.5
 41
2.5
 42
1.0
 43
10.0
 44
1.0
 47
0.1
 48
0.1
 73
     0
 74
     0
 77
     3
 78
     8
 79
     2
140
5.0
141
0.0
143
0.0393701
146
0.71
147
1.5
172
     1
176
   256
177
   256
178
     2
271
     2
272
     3
274
     4
283
     0
284
     8
340
11
341
91
342
91
343
91
344
91
371
    -1
372
    -1
  0
DIMSTYLE
105
9B
330
A
100
AcDbSymbolTableRecord
100
AcDbDimStyleTableRecord
  2
AM_JIS$SF
 70
     0
  4
"
 40
0.5
 41
2.5
 42
1.0
 43
10.0
 44
1.0
 47
0.1
 48
0.1
 73
     0
 74
     0
 75
     1
 76
     1
 77
     3
 78
     8
 79
     2
140
3.5
141
0.0
143
0.0393701
146
0.71
147
1.5
172
     1
176
   256
177
   256
178
     2
271
     2
272
     3
274
     4
283
     0
284
     8
340
11
341
91
342
91
343
91
344
91
371
    -1
372
    -1
  0
DIMSTYLE
105
9C
330
A
100
AcDbSymbolTableRecord
100
AcDbDimStyleTableRecord
  2
AM_JIS$SH
 70
     0
  4
"
 40
0.5
 41
2.5
 42
1.0
 43
10.0
 44
1.0
 47
0.1
 48
0.1
 73
     0
 74
     0
 75
     1
 76
     1
 77
     3
 78
     8
 79
     2
140
3.5
141
0.0
143
0.0393701
144
2.0
146
0.71
147
1.5
172
     1
173
     1
176
   256
177
   256
178
     2
271
     2
272
     3
274
     4
283
     0
284
     8
340
11
341
91
342
91
343
71
344
91
371
    -1
372
    -1
  0
DIMSTYLE
105
1577
330
A
100
AcDbSymbolTableRecord
100
AcDbDimStyleTableRecord
  2
AM_ANSI
 70
     0
  4
mm
 40
0.2
 41
0.1
 42
0.05
 43
0.5
 44
0.1
 47
0.1
 48
0.1
 78
     7
 79
     2
140
0.12
141
0.0
146
0.71
147
0.06
176
   256
177
   256
178
     2
274
     4
284
     7
340
11
371
    -1
372
    -1
  0
DIMSTYLE
105
16E1
102
{ACAD_REACTORS
330
1143
330
12F2
102
}
330
A
100
AcDbSymbolTableRecord
100
AcDbDimStyleTableRecord
  2
AM_JIS$0
 70
     0
  4
"
 40
0.5
 41
2.5
 42
1.0
 43
10.0
 44
1.0
 47
0.1
 48
0.1
 73
     0
 74
     0
 77
     3
 78
     8
 79
     2
140
3.5
141
0.0
143
0.0393701
146
0.71
147
1.5
172
     1
176
   256
177
   256
178
     2
271
     2
272
     3
274
     4
283
     0
284
     8
340
11
341
91
342
91
343
91
344
91
371
    -1
372
    -1
  0
ENDTAB
  0
TABLE
  2
BLOCK_RECORD
  5
1
330
0
100
AcDbSymbolTable
 70
    18
  0
BLOCK_RECORD
  5
1F
102
{ACAD_XDICTIONARY
360
3E4
102
}
330
1
100
AcDbSymbolTableRecord
100
AcDbBlockTableRecord
  2
*Model_Space
340
22
  0
BLOCK_RECORD
  5
1B
102
{ACAD_XDICTIONARY
360
40C
102
}
330
1
100
AcDbSymbolTableRecord
100
AcDbBlockTableRecord
  2
*Paper_Space
340
1E
  0
BLOCK_RECORD
  5
23
102
{ACAD_XDICTIONARY
360
40E
102
}
330
1
100
AcDbSymbolTableRecord
100
AcDbBlockTableRecord
  2
*Paper_Space0
340
26
  0
BLOCK_RECORD
  5
71
330
1
100
AcDbSymbolTableRecord
100
AcDbBlockTableRecord
  2
GENAXEH
340
0
  0
BLOCK_RECORD
  5
91
330
1
100
AcDbSymbolTableRecord
100
AcDbBlockTableRecord
  2
_Open30
340
0
102
{BLKREFS
331
1721
331
1722
331
1972
331
1973
331
1BD5
331
1BD6
331
27F1
331
27F2
331
2803
331
2804
331
29E7
331
29E8
102
}
  0
BLOCK_RECORD
  5
E0B
330
1
100
AcDbSymbolTableRecord
100
AcDbBlockTableRecord
  2
AA-3-BW
340
0
  0
BLOCK_RECORD
  5
E29
330
1
100
AcDbSymbolTableRecord
100
AcDbBlockTableRecord
  2
A$C2D292097
340
0
  0
BLOCK_RECORD
  5
E45
330
1
100
AcDbSymbolTableRecord
100
AcDbBlockTableRecord
  2
ASO
340
0
  0
BLOCK_RECORD
  5
1144
330
1
100
AcDbSymbolTableRecord
100
AcDbBlockTableRecord
  2
*D6
340
0
  0
BLOCK_RECORD
  5
12F3
330
1
100
AcDbSymbolTableRecord
100
AcDbBlockTableRecord
  2
*D7
340
0
  0
BLOCK_RECORD
  5
16E4
330
1
100
AcDbSymbolTableRecord
100
AcDbBlockTableRecord
  2
*D9
340
0
  0
BLOCK_RECORD
  5
1710
330
1
100
AcDbSymbolTableRecord
100
AcDbBlockTableRecord
  2
*D10
340
0
  0
BLOCK_RECORD
  5
196D
330
1
100
AcDbSymbolTableRecord
100
AcDbBlockTableRecord
  2
*D11
340
0
  0
BLOCK_RECORD
  5
197D
102
{ACAD_XDICTIONARY
360
19A1
102
}
330
1
100
AcDbSymbolTableRecord
100
AcDbBlockTableRecord
  2
A$C7A963A1A
340
0
  0
BLOCK_RECORD
  5
1AB8
102
{ACAD_XDICTIONARY
360
1AE9
102
}
330
1
100
AcDbSymbolTableRecord
100
AcDbBlockTableRecord
  2
ASO-A
340
0
  0
BLOCK_RECORD
  5
1C2A
330
1
100
AcDbSymbolTableRecord
100
AcDbBlockTableRecord
  2
_Open
340
0
  0
BLOCK_RECORD
  5
27E2
330
1
100
AcDbSymbolTableRecord
100
AcDbBlockTableRecord
  2
*D15
340
0
  0
BLOCK_RECORD
  5
2B9F
330
1
100
AcDbSymbolTableRecord
100
AcDbBlockTableRecord
  2
*S17
340
0
  0
ENDTAB
  0
ENDSEC
  0
SECTION
  2
BLOCKS
  0
BLOCK
  5
20
330
1F
100
AcDbEntity
  8
0
100
AcDbBlockBegin
  2
*Model_Space
 70
     0
 10
0.0
 20
0.0
 30
0.0
  3
*Model_Space
  1

  0
ENDBLK
  5
21
330
1F
100
AcDbEntity
  8
0
100
AcDbBlockEnd
  0
BLOCK
  5
1C
330
1B
100
AcDbEntity
 67
     1
  8
0
100
AcDbBlockBegin
  2
*Paper_Space
 70
     0
 10
0.0
 20
0.0
 30
0.0
  3
*Paper_Space
  1

  0
ENDBLK
  5
1D
330
1B
100
AcDbEntity
 67
     1
  8
0
100
AcDbBlockEnd
  0
BLOCK
  5
24
330
23
100
AcDbEntity
 67
     1
  8
0
100
AcDbBlockBegin
  2
*Paper_Space0
 70
     0
 10
0.0
 20
0.0
 30
0.0
  3
*Paper_Space0
  1

  0
ENDBLK
  5
25
330
23
100
AcDbEntity
 67
     1
  8
0
100
AcDbBlockEnd
  0
BLOCK
  5
73
330
71
100
AcDbEntity
  8
0
100
AcDbBlockBegin
  2
GENAXEH
 70
     0
 10
0.0
 20
0.0
 30
0.0
  3
GENAXEH
  1

  0
LINE
  5
72
330
71
100
AcDbEntity
  8
0
100
AcDbLine
 10
-1.0
 20
0.0
 30
0.0
 11
1.0
 21
0.0
 31
0.0
  0
ENDBLK
  5
74
330
71
100
AcDbEntity
  8
0
100
AcDbBlockEnd
  0
BLOCK
  5
95
330
91
100
AcDbEntity
  8
0
100
AcDbBlockBegin
  2
_Open30
 70
     0
 10
0.0
 20
0.0
 30
0.0
  3
_Open30
  1

  0
LINE
  5
92
330
91
100
AcDbEntity
  8
0
  6
ByBlock
 62
     0
370
    -2
100
AcDbLine
 10
-1.0
 20
0.26794919
 30
0.0
 11
0.0
 21
0.0
 31
0.0
  0
LINE
  5
93
330
91
100
AcDbEntity
  8
0
  6
ByBlock
 62
     0
370
    -2
100
AcDbLine
 10
0.0
 20
0.0
 30
0.0
 11
-1.0
 21
-0.26794919
 31
0.0
  0
LINE
  5
94
330
91
100
AcDbEntity
  8
0
  6
ByBlock
 62
     0
370
    -2
100
AcDbLine
 10
0.0
 20
0.0
 30
0.0
 11
-1.0
 21
0.0
 31
0.0
  0
ENDBLK
  5
96
330
91
100
AcDbEntity
  8
0
100
AcDbBlockEnd
  0
BLOCK
  5
E19
330
E0B
100
AcDbEntity
  8
0
100
AcDbBlockBegin
  2
AA-3-BW
 70
     0
 10
0.0
 20
0.0
 30
0.0
  3
AA-3-BW
  1

  0
LWPOLYLINE
  5
E0C
330
E0B
100
AcDbEntity
  8
AM_BOR
 62
   231
100
AcDbPolyline
 90
        4
 70
     1
 43
0.0
 10
11.31798825946299
 20
285.680442839147
 10
11.31798825946292
 20
11.31955716085312
 10
408.7322739737486
 20
11.31955716085296
 10
408.7322739737486
 20
285.680442839147
1001
GENIUS_GENREC_14
1002
{
1000
PYDIR
1011
408.7322739737486
1021
285.680442839147
1031
0.0
1002
}
1002
{
1000
PXDIR
1011
11.31798825946292
1021
11.31955716085312
1031
0.0
1002
}
1002
{
1000
PORI
1011
11.31798825946299
1021
285.680442839147
1031
0.0
1002
}
1002
{
1000
PINS
1011
11.31798825946299
1021
285.680442839147
1031
0.0
1002
}
1002
{
1000
HVAL
1000
281
1002
}
1002
{
1000
H
1070
     2
1002
}
1002
{
1000
WVAL
1000
183
1002
}
1002
{
1000
W
1070
     2
1002
}
1002
{
1000
C
1070
     1
1002
}
1001
GENIUS_GENODEF_13
1002
{
1000
HIER
1070
     0
1002
}
1002
{
1000
MANEDIT
1070
     0
1002
}
1002
{
1000
NOSEL
1070
     0
1002
}
1002
{
1000
BEHIND
1070
     0
1002
}
1002
{
1000
REACTOR
1002
}
1001
GENIUS_GENOBJ-N-REC_13
1002
{
1000
OWNER
1000
GEN
1002
}
  0
TEXT
  5
E0D
330
E0B
100
AcDbEntity
  8
AM_BOR
 60
     1
100
AcDbText
 10
420.0428571428571
 20
296.9999999999998
 30
0.0
 40
5.0
  1
!GENTITLE-MAX
100
AcDbText
  0
LINE
  5
E0E
330
E0B
100
AcDbEntity
  8
AM_BOR
100
AcDbLine
 10
0.0000000000000799
 20
297.0
 30
0.0
 11
0.0000000000000799
 21
275.7857142857142
 31
0.0
1001
GENIUS_GENREC_14
1002
{
1000
PYDIR
1011
420.0428571428571
1021
296.9999999999998
1031
0.0
1002
}
1002
{
1000
PXDIR
1011
0.0
1021
0.0
1031
0.0
1002
}
1002
{
1000
PORI
1011
0.0000000000000799
1021
297.0
1031
0.0
1002
}
1002
{
1000
PINS
1011
0.0000000000000799
1021
297.0
1031
0.0
1002
}
1002
{
1000
HVAL
1000
297
1002
}
1002
{
1000
H
1070
     2
1002
}
1002
{
1000
WVAL
1000
210
1002
}
1002
{
1000
W
1070
     2
1002
}
1002
{
1000
C
1070
     1
1002
}
1001
GENIUS_GENODEF_13
1002
{
1000
HIER
1070
     0
1002
}
1002
{
1000
MANEDIT
1070
     0
1002
}
1002
{
1000
NOSEL
1070
     0
1002
}
1002
{
1000
BEHIND
1070
     0
1002
}
1002
{
1000
REACTOR
1002
}
1001
GENIUS_GENOBJ-N-REC_13
1002
{
1000
OWNER
1000
GEN
1002
}
  0
LINE
  5
E0F
330
E0B
100
AcDbEntity
  8
AM_BOR
100
AcDbLine
 10
0.0
 20
0.0
 30
0.0
 11
21.21428571428571
 21
0.0
 31
0.0
1001
GENIUS_GENREC_14
1002
{
1000
PYDIR
1011
420.0428571428571
1021
296.9999999999998
1031
0.0
1002
}
1002
{
1000
PXDIR
1011
0.0
1021
0.0
1031
0.0
1002
}
1002
{
1000
PORI
1011
0.0000000000000799
1021
297.0
1031
0.0
1002
}
1002
{
1000
PINS
1011
0.0000000000000799
1021
297.0
1031
0.0
1002
}
1002
{
1000
HVAL
1000
297
1002
}
1002
{
1000
H
1070
     2
1002
}
1002
{
1000
WVAL
1000
210
1002
}
1002
{
1000
W
1070
     2
1002
}
1002
{
1000
C
1070
     1
1002
}
1001
GENIUS_GENODEF_13
1002
{
1000
HIER
1070
     0
1002
}
1002
{
1000
MANEDIT
1070
     0
1002
}
1002
{
1000
NOSEL
1070
     0
1002
}
1002
{
1000
BEHIND
1070
     0
1002
}
1002
{
1000
REACTOR
1002
}
1001
GENIUS_GENOBJ-N-REC_13
1002
{
1000
OWNER
1000
GEN
1002
}
  0
LINE
  5
E10
330
E0B
100
AcDbEntity
  8
AM_BOR
100
AcDbLine
 10
420.0428571428571
 20
-0.0000000000000799
 30
0.0
 11
420.0428571428571
 21
21.21428571428563
 31
0.0
1001
GENIUS_GENREC_14
1002
{
1000
PYDIR
1011
420.0428571428571
1021
296.9999999999998
1031
0.0
1002
}
1002
{
1000
PXDIR
1011
0.0
1021
0.0
1031
0.0
1002
}
1002
{
1000
PORI
1011
0.0000000000000799
1021
297.0
1031
0.0
1002
}
1002
{
1000
PINS
1011
0.0000000000000799
1021
297.0
1031
0.0
1002
}
1002
{
1000
HVAL
1000
297
1002
}
1002
{
1000
H
1070
     2
1002
}
1002
{
1000
WVAL
1000
210
1002
}
1002
{
1000
W
1070
     2
1002
}
1002
{
1000
C
1070
     1
1002
}
1001
GENIUS_GENODEF_13
1002
{
1000
HIER
1070
     0
1002
}
1002
{
1000
MANEDIT
1070
     0
1002
}
1002
{
1000
NOSEL
1070
     0
1002
}
1002
{
1000
BEHIND
1070
     0
1002
}
1002
{
1000
REACTOR
1002
}
1001
GENIUS_GENOBJ-N-REC_13
1002
{
1000
OWNER
1000
GEN
1002
}
  0
LINE
  5
E11
330
E0B
100
AcDbEntity
  8
AM_BOR
100
AcDbLine
 10
420.0428571428571
 20
296.9999999999998
 30
0.0
 11
398.8285714285715
 21
296.9999999999998
 31
0.0
1001
GENIUS_GENREC_14
1002
{
1000
PYDIR
1011
420.0428571428571
1021
296.9999999999998
1031
0.0
1002
}
1002
{
1000
PXDIR
1011
0.0
1021
0.0
1031
0.0
1002
}
1002
{
1000
PORI
1011
0.0000000000000799
1021
297.0
1031
0.0
1002
}
1002
{
1000
PINS
1011
0.0000000000000799
1021
297.0
1031
0.0
1002
}
1002
{
1000
HVAL
1000
297
1002
}
1002
{
1000
H
1070
     2
1002
}
1002
{
1000
WVAL
1000
210
1002
}
1002
{
1000
W
1070
     2
1002
}
1002
{
1000
C
1070
     1
1002
}
1001
GENIUS_GENODEF_13
1002
{
1000
HIER
1070
     0
1002
}
1002
{
1000
MANEDIT
1070
     0
1002
}
1002
{
1000
NOSEL
1070
     0
1002
}
1002
{
1000
BEHIND
1070
     0
1002
}
1002
{
1000
REACTOR
1002
}
1001
GENIUS_GENOBJ-N-REC_13
1002
{
1000
OWNER
1000
GEN
1002
}
  0
LINE
  5
E12
330
E0B
100
AcDbEntity
  8
AM_BOR
100
AcDbLine
 10
21.2142857142858
 20
297.0
 30
0.0
 11
0.0000000000000799
 21
297.0
 31
0.0
1001
GENIUS_GENREC_14
1002
{
1000
PYDIR
1011
420.0428571428571
1021
296.9999999999998
1031
0.0
1002
}
1002
{
1000
PXDIR
1011
0.0
1021
0.0
1031
0.0
1002
}
1002
{
1000
PORI
1011
0.0000000000000799
1021
297.0
1031
0.0
1002
}
1002
{
1000
PINS
1011
0.0000000000000799
1021
297.0
1031
0.0
1002
}
1002
{
1000
HVAL
1000
297
1002
}
1002
{
1000
H
1070
     2
1002
}
1002
{
1000
WVAL
1000
210
1002
}
1002
{
1000
W
1070
     2
1002
}
1002
{
1000
C
1070
     1
1002
}
1001
GENIUS_GENODEF_13
1002
{
1000
HIER
1070
     0
1002
}
1002
{
1000
MANEDIT
1070
     0
1002
}
1002
{
1000
NOSEL
1070
     0
1002
}
1002
{
1000
BEHIND
1070
     0
1002
}
1002
{
1000
REACTOR
1002
}
1001
GENIUS_GENOBJ-N-REC_13
1002
{
1000
OWNER
1000
GEN
1002
}
  0
LINE
  5
E13
330
E0B
100
AcDbEntity
  8
AM_BOR
100
AcDbLine
 10
420.0428571428571
 20
275.7857142857141
 30
0.0
 11
420.0428571428571
 21
296.9999999999998
 31
0.0
1001
GENIUS_GENREC_14
1002
{
1000
PYDIR
1011
420.0428571428571
1021
296.9999999999998
1031
0.0
1002
}
1002
{
1000
PXDIR
1011
0.0
1021
0.0
1031
0.0
1002
}
1002
{
1000
PORI
1011
0.0000000000000799
1021
297.0
1031
0.0
1002
}
1002
{
1000
PINS
1011
0.0000000000000799
1021
297.0
1031
0.0
1002
}
1002
{
1000
HVAL
1000
297
1002
}
1002
{
1000
H
1070
     2
1002
}
1002
{
1000
WVAL
1000
210
1002
}
1002
{
1000
W
1070
     2
1002
}
1002
{
1000
C
1070
     1
1002
}
1001
GENIUS_GENODEF_13
1002
{
1000
HIER
1070
     0
1002
}
1002
{
1000
MANEDIT
1070
     0
1002
}
1002
{
1000
NOSEL
1070
     0
1002
}
1002
{
1000
BEHIND
1070
     0
1002
}
1002
{
1000
REACTOR
1002
}
1001
GENIUS_GENOBJ-N-REC_13
1002
{
1000
OWNER
1000
GEN
1002
}
  0
LINE
  5
E14
330
E0B
100
AcDbEntity
  8
AM_BOR
100
AcDbLine
 10
398.8285714285715
 20
-0.0000000000000799
 30
0.0
 11
420.0428571428571
 21
-0.0000000000000799
 31
0.0
1001
GENIUS_GENREC_14
1002
{
1000
PYDIR
1011
420.0428571428571
1021
296.9999999999998
1031
0.0
1002
}
1002
{
1000
PXDIR
1011
0.0
1021
0.0
1031
0.0
1002
}
1002
{
1000
PORI
1011
0.0000000000000799
1021
297.0
1031
0.0
1002
}
1002
{
1000
PINS
1011
0.0000000000000799
1021
297.0
1031
0.0
1002
}
1002
{
1000
HVAL
1000
297
1002
}
1002
{
1000
H
1070
     2
1002
}
1002
{
1000
WVAL
1000
210
1002
}
1002
{
1000
W
1070
     2
1002
}
1002
{
1000
C
1070
     1
1002
}
1001
GENIUS_GENODEF_13
1002
{
1000
HIER
1070
     0
1002
}
1002
{
1000
MANEDIT
1070
     0
1002
}
1002
{
1000
NOSEL
1070
     0
1002
}
1002
{
1000
BEHIND
1070
     0
1002
}
1002
{
1000
REACTOR
1002
}
1001
GENIUS_GENOBJ-N-REC_13
1002
{
1000
OWNER
1000
GEN
1002
}
  0
LINE
  5
E15
330
E0B
100
AcDbEntity
  8
AM_BOR
100
AcDbLine
 10
0.0
 20
21.21428571428571
 30
0.0
 11
0.0
 21
0.0
 31
0.0
1001
GENIUS_GENREC_14
1002
{
1000
PYDIR
1011
420.0428571428571
1021
296.9999999999998
1031
0.0
1002
}
1002
{
1000
PXDIR
1011
0.0
1021
0.0
1031
0.0
1002
}
1002
{
1000
PORI
1011
0.0000000000000799
1021
297.0
1031
0.0
1002
}
1002
{
1000
PINS
1011
0.0000000000000799
1021
297.0
1031
0.0
1002
}
1002
{
1000
HVAL
1000
297
1002
}
1002
{
1000
H
1070
     2
1002
}
1002
{
1000
WVAL
1000
210
1002
}
1002
{
1000
W
1070
     2
1002
}
1002
{
1000
C
1070
     1
1002
}
1001
GENIUS_GENODEF_13
1002
{
1000
HIER
1070
     0
1002
}
1002
{
1000
MANEDIT
1070
     0
1002
}
1002
{
1000
NOSEL
1070
     0
1002
}
1002
{
1000
BEHIND
1070
     0
1002
}
1002
{
1000
REACTOR
1002
}
1001
GENIUS_GENOBJ-N-REC_13
1002
{
1000
OWNER
1000
GEN
1002
}
  0
TEXT
  5
E16
330
E0B
100
AcDbEntity
  8
AM_0
 60
     1
100
AcDbText
 10
408.7322739737486
 20
285.680442839147
 30
0.0
 40
5.0
  1
!GENTITLE-RU
100
AcDbText
  0
TEXT
  5
E17
330
E0B
100
AcDbEntity
  8
AM_0
 60
     1
100
AcDbText
 10
16.00523592247285
 20
16.0074545709034
 30
0.0
 40
5.0
  1
!GENTITLE-LL
100
AcDbText
  0
TEXT
  5
E18
330
E0B
100
AcDbEntity
  8
AM_0
 60
     1
100
AcDbText
 10
408.7322739737486
 20
11.31955716085296
 30
0.0
 40
5.0
  1
!GENTITLE-INSERT
100
AcDbText
  0
ENDBLK
  5
E1A
330
E0B
100
AcDbEntity
  8
0
100
AcDbBlockEnd
  0
BLOCK
  5
E39
330
E29
100
AcDbEntity
  8
0
100
AcDbBlockBegin
  2
A$C2D292097
 70
     0
 10
0.0
 20
0.0
 30
0.0
  3
A$C2D292097
  1

  0
TEXT
  5
E2A
330
E29
100
AcDbEntity
  8
0
100
AcDbText
 10
197.1044423511698
 20
31.0035981017752
 30
0.0
 40
10.0
  1
ASOH   CO.LTD
 41
5.0
  7
ｽﾀｲﾙ1
100
AcDbText
  0
TEXT
  5
E2B
330
E29
100
AcDbEntity
  8
0
100
AcDbText
 10
127.3589261501835
 20
61.98001452360745
 30
0.0
 40
66.93693195207612
  1
アソー株式会社
  7
ｽﾀｲﾙ1
100
AcDbText
  0
HATCH
  5
E2C
330
E29
100
AcDbEntity
  8
AM_8
100
AcDbHatch
 10
0.0
 20
0.0
 30
0.0
210
0.0
220
0.0
230
1.0
  2
SOLID
 70
     1
 71
     0
 91
        1
 92
        1
 93
       10
 72
     1
 10
26.27998696211468
 20
119.622038302041
 11
19.72254667781421
 21
94.20654351522143
 72
     1
 10
19.72254667781422
 20
94.20654351522143
 11
20.10217910550261
 21
94.65251979790156
 72
     3
 10
29.97494128357687
 20
79.68778553387966
 11
0.2402016329913209
 21
19.99855752736964
 40
0.7499999999999996
 50
-34.10238568201522
 51
52.41091053102508
 73
     0
 72
     1
 10
43.0844862433824
 20
89.53104876041368
 11
63.55518980891033
 21
40.6543652059048
 72
     3
 10
76.66473476871587
 20
50.49762843243886
 11
0.2402016329913138
 21
19.99855752736964
 40
0.7499999999999999
 50
127.589089468975
 51
243.9002512902304
 73
     1
 72
     1
 10
90.66060611817196
 20
43.43151697692579
 11
98.94218718925374
 21
72.13430932636422
 72
     1
 10
98.94218718925376
 20
72.13430932636422
 11
97.4258024259505
 21
70.16225780455534
 72
     3
 10
86.98981389832653
 20
84.43075959876276
 11
-0.2402016329912594
 21
-19.99855752736953
 40
0.7499999999999996
 50
-36.86989764584386
 51
52.41091053102518
 73
     0
 72
     1
 10
73.88026893852099
 20
74.58749637222874
 11
53.57102076277776
 21
123.0786824781806
 72
     3
 10
40.46147580297221
 20
113.2354192516466
 11
-0.2402016329912803
 21
-19.99855752736963
 40
0.7500000000000002
 50
127.5890894689749
 51
246.4437724078177
 73
     1
 97
        0
 75
     0
 76
     1
 98
        1
 10
-11.02788873631791
 20
-99.90118815091953
1001
GENIUS_GENODEF_13
1002
{
1000
HIER
1070
     0
1002
}
1002
{
1000
MANEDIT
1070
     0
1002
}
1002
{
1000
NOSEL
1070
     0
1002
}
1002
{
1000
BEHIND
1070
     0
1002
}
1002
{
1000
REACTOR
1002
}
1001
GENIUS_GENOBJ-N-HTC_13
1002
{
1000
OWNER
1000
GEN
1002
}
1001
GENIUS_GENHATCH_13
1002
{
1000
DATA
1040
0.0
1042
0.9999999999999998
1000
SOLID
1070
     0
1011
65.16661907668134
1021
74.10910423558471
1031
0.0
1002
}
1002
{
1000
UCS
1010
0.0
1020
0.0
1030
0.0
1010
1.0
1020
0.0
1030
0.0
1010
0.0
1020
1.0
1030
0.0
1002
}
  0
HATCH
  5
E2D
330
E29
100
AcDbEntity
  8
AM_8
100
AcDbHatch
 10
0.0
 20
0.0
 30
0.0
210
0.0
220
0.0
230
1.0
  2
SOLID
 70
     1
 71
     0
 91
        1
 92
        1
 93
        2
 72
     2
 10
27.87973327687144
 20
49.81037059826576
 40
18.33631541869489
 50
10.7710123686058
 51
355.3294096482469
 73
     1
 72
     2
 10
27.87973327687144
 20
49.81037059826576
 40
18.33631541869488
 50
355.3294096482469
 51
370.7710123686058
 73
     1
 97
        0
 75
     0
 76
     1
 98
        1
 10
-11.02788873631791
 20
-99.90118815091953
1001
GENIUS_GENODEF_13
1002
{
1000
HIER
1070
     0
1002
}
1002
{
1000
MANEDIT
1070
     0
1002
}
1002
{
1000
NOSEL
1070
     0
1002
}
1002
{
1000
BEHIND
1070
     0
1002
}
1002
{
1000
REACTOR
1002
}
1001
GENIUS_GENOBJ-N-HTC_13
1002
{
1000
OWNER
1000
GEN
1002
}
1001
GENIUS_GENHATCH_13
1002
{
1000
DATA
1040
0.0
1042
0.9999999999999998
1000
SOLID
1070
     0
1011
30.27624113759819
1021
49.61458016509695
1031
0.0
1002
}
1002
{
1000
UCS
1010
0.0
1020
0.0
1030
0.0
1010
1.0
1020
0.0
1030
0.0
1010
0.0
1020
1.0
1030
0.0
1002
}
  0
CIRCLE
  5
E2E
330
E29
100
AcDbEntity
  8
0
100
AcDbCircle
 10
27.87973327687145
 20
49.81037059826573
 30
0.0
 40
18.33631541869488
  0
LINE
  5
E2F
330
E29
100
AcDbEntity
  8
0
100
AcDbLine
 10
98.94218718925376
 20
72.13430932636422
 30
0.0
 11
90.66060611817196
 21
43.43151697692576
 31
0.0
  0
LINE
  5
E30
330
E29
100
AcDbEntity
  8
0
100
AcDbLine
 10
43.0844862433824
 20
89.5310487604137
 30
0.0
 11
63.55518980891034
 21
40.6543652059048
 31
0.0
  0
ELLIPSE
  5
E31
330
E29
100
AcDbEntity
  8
0
100
AcDbEllipse
 10
76.66473476871587
 20
50.49762843243886
 30
0.0
 11
0.2402016329913116
 21
19.99855752736953
 31
0.0
210
0.0
220
0.0
230
0.9999999999999998
 40
0.7499999999999999
 41
2.094395102393195
 42
4.360282821964076
1001
GENIUS_GENODEF_13
1002
{
1000
HIER
1070
     0
1002
}
1002
{
1000
MANEDIT
1070
     0
1002
}
1002
{
1000
NOSEL
1070
     0
1002
}
1002
{
1000
BEHIND
1070
     0
1002
}
1002
{
1000
REACTOR
1002
}
1001
GENIUS_GENOBJ-N-FIL_13
1002
{
1000
OWNER
1000
GEN
1002
}
  0
ELLIPSE
  5
E32
330
E29
100
AcDbEntity
  8
0
100
AcDbEllipse
 10
86.98981389832653
 20
84.43075959876276
 30
0.0
 11
0.2402016329912594
 21
19.99855752736953
 31
0.0
210
0.0
220
0.0
230
1.0
 40
0.7499999999999996
 41
2.094395102393192
 42
3.926990816987234
1001
GENIUS_GENODEF_13
1002
{
1000
HIER
1070
     0
1002
}
1002
{
1000
MANEDIT
1070
     0
1002
}
1002
{
1000
NOSEL
1070
     0
1002
}
1002
{
1000
BEHIND
1070
     0
1002
}
1002
{
1000
REACTOR
1002
}
1001
GENIUS_GENOBJ-N-FIL_13
1002
{
1000
OWNER
1000
GEN
1002
}
  0
ELLIPSE
  5
E33
330
E29
100
AcDbEntity
  8
0
100
AcDbEllipse
 10
29.97494128357687
 20
79.68778553387966
 30
0.0
 11
0.2402016329913188
 21
19.99855752736953
 31
0.0
210
0.0
220
0.0
230
0.9999999999999998
 40
0.7499999999999996
 41
-1.047197551196598
 42
0.7343684516294112
1001
GENIUS_GENODEF_13
1002
{
1000
HIER
1070
     0
1002
}
1002
{
1000
MANEDIT
1070
     0
1002
}
1002
{
1000
NOSEL
1070
     0
1002
}
1002
{
1000
BEHIND
1070
     0
1002
}
1002
{
1000
REACTOR
1002
}
1001
GENIUS_GENOBJ-N-FIL_13
1002
{
1000
OWNER
1000
GEN
1002
}
  0
ELLIPSE
  5
E34
330
E29
100
AcDbEntity
  8
0
100
AcDbEllipse
 10
40.46147580297221
 20
113.2354192516466
 30
0.0
 11
0.2402016329912781
 21
19.99855752736952
 31
0.0
210
0.0
220
0.0
230
0.9999999999999996
 40
0.75
 41
-1.047197551196599
 42
1.254770269777095
1001
GENIUS_GENODEF_13
1002
{
1000
HIER
1070
     0
1002
}
1002
{
1000
MANEDIT
1070
     0
1002
}
1002
{
1000
NOSEL
1070
     0
1002
}
1002
{
1000
BEHIND
1070
     0
1002
}
1002
{
1000
REACTOR
1002
}
1001
GENIUS_GENOBJ-N-FIL_13
1002
{
1000
OWNER
1000
GEN
1002
}
  0
LINE
  5
E35
330
E29
100
AcDbEntity
  8
0
100
AcDbLine
 10
73.88026893852099
 20
74.58749637222874
 30
0.0
 11
53.57102076277774
 21
123.0786824781806
 31
0.0
  0
LINE
  5
E36
330
E29
100
AcDbEntity
  8
0
100
AcDbLine
 10
26.27998696211472
 20
119.6220383020412
 30
0.0
 11
19.72254667781422
 21
94.20654351522143
 31
0.0
  0
LINE
  5
E37
330
E29
100
AcDbEntity
  8
0
100
AcDbLine
 10
19.72254667781422
 20
94.20654351522143
 30
0.0
 11
20.1021791055026
 21
94.65251979790158
 31
0.0
  0
LINE
  5
E38
330
E29
100
AcDbEntity
  8
0
100
AcDbLine
 10
98.94218718925372
 20
72.13430932636422
 30
0.0
 11
97.42580242595048
 21
70.16225780455531
 31
0.0
  0
ENDBLK
  5
E3A
330
E29
100
AcDbEntity
  8
0
100
AcDbBlockEnd
  0
BLOCK
  5
E73
330
E45
100
AcDbEntity
  8
0
100
AcDbBlockBegin
  2
ASO
 70
     2
 10
0.0
 20
0.0
 30
0.0
  3
ASO
  1

  0
LINE
  5
E46
330
E45
100
AcDbEntity
  8
AM_BOR
 62
   211
100
AcDbLine
 10
-110.0
 20
0.0
 30
0.0
 11
0.0
 21
0.0
 31
0.0
1001
GENIUS_GENREC_14
1002
{
1000
PYDIR
1011
-110.0
1021
40.0
1031
0.0
1002
}
1002
{
1000
PXDIR
1011
0.0
1021
0.0
1031
0.0
1002
}
1002
{
1000
PORI
1011
-110.0
1021
0.0
1031
0.0
1002
}
1002
{
1000
PINS
1011
-110.0
1021
0.0
1031
0.0
1002
}
1002
{
1000
HVAL
1000
40
1002
}
1002
{
1000
H
1070
     2
1002
}
1002
{
1000
WVAL
1000
110
1002
}
1002
{
1000
W
1070
     2
1002
}
1002
{
1000
C
1070
     1
1002
}
1001
GENIUS_GENODEF_13
1002
{
1000
HIER
1070
     0
1002
}
1002
{
1000
MANEDIT
1070
     0
1002
}
1002
{
1000
NOSEL
1070
     0
1002
}
1002
{
1000
BEHIND
1070
     0
1002
}
1002
{
1000
REACTOR
1002
}
1001
GENIUS_GENOBJ-N-REC_13
1002
{
1000
OWNER
1000
GEN
1002
}
  0
LINE
  5
E47
330
E45
100
AcDbEntity
  8
AM_BOR
 62
   211
100
AcDbLine
 10
0.0
 20
0.0
 30
0.0
 11
0.0
 21
40.0
 31
0.0
1001
GENIUS_GENREC_14
1002
{
1000
PYDIR
1011
-110.0
1021
40.0
1031
0.0
1002
}
1002
{
1000
PXDIR
1011
0.0
1021
0.0
1031
0.0
1002
}
1002
{
1000
PORI
1011
-110.0
1021
0.0
1031
0.0
1002
}
1002
{
1000
PINS
1011
-110.0
1021
0.0
1031
0.0
1002
}
1002
{
1000
HVAL
1000
40
1002
}
1002
{
1000
H
1070
     2
1002
}
1002
{
1000
WVAL
1000
110
1002
}
1002
{
1000
W
1070
     2
1002
}
1002
{
1000
C
1070
     1
1002
}
1001
GENIUS_GENODEF_13
1002
{
1000
HIER
1070
     0
1002
}
1002
{
1000
MANEDIT
1070
     0
1002
}
1002
{
1000
NOSEL
1070
     0
1002
}
1002
{
1000
BEHIND
1070
     0
1002
}
1002
{
1000
REACTOR
1002
}
1001
GENIUS_GENOBJ-N-REC_13
1002
{
1000
OWNER
1000
GEN
1002
}
  0
LINE
  5
E48
330
E45
100
AcDbEntity
  8
AM_BOR
 62
   211
100
AcDbLine
 10
0.0
 20
40.0
 30
0.0
 11
-110.0
 21
40.00000000000001
 31
0.0
1001
GENIUS_GENREC_14
1002
{
1000
PYDIR
1011
-110.0
1021
40.0
1031
0.0
1002
}
1002
{
1000
PXDIR
1011
0.0
1021
0.0
1031
0.0
1002
}
1002
{
1000
PORI
1011
-110.0
1021
0.0
1031
0.0
1002
}
1002
{
1000
PINS
1011
-110.0
1021
0.0
1031
0.0
1002
}
1002
{
1000
HVAL
1000
40
1002
}
1002
{
1000
H
1070
     2
1002
}
1002
{
1000
WVAL
1000
110
1002
}
1002
{
1000
W
1070
     2
1002
}
1002
{
1000
C
1070
     1
1002
}
1001
GENIUS_GENODEF_13
1002
{
1000
HIER
1070
     0
1002
}
1002
{
1000
MANEDIT
1070
     0
1002
}
1002
{
1000
NOSEL
1070
     0
1002
}
1002
{
1000
BEHIND
1070
     0
1002
}
1002
{
1000
REACTOR
1002
}
1001
GENIUS_GENOBJ-N-REC_13
1002
{
1000
OWNER
1000
GEN
1002
}
  0
LINE
  5
E49
330
E45
100
AcDbEntity
  8
AM_BOR
 62
   211
100
AcDbLine
 10
-110.0
 20
40.00000000000001
 30
0.0
 11
-110.0
 21
0.0
 31
0.0
1001
GENIUS_GENREC_14
1002
{
1000
PYDIR
1011
-110.0
1021
40.0
1031
0.0
1002
}
1002
{
1000
PXDIR
1011
0.0
1021
0.0
1031
0.0
1002
}
1002
{
1000
PORI
1011
-110.0
1021
0.0
1031
0.0
1002
}
1002
{
1000
PINS
1011
-110.0
1021
0.0
1031
0.0
1002
}
1002
{
1000
HVAL
1000
40
1002
}
1002
{
1000
H
1070
     2
1002
}
1002
{
1000
WVAL
1000
110
1002
}
1002
{
1000
W
1070
     2
1002
}
1002
{
1000
C
1070
     1
1002
}
1001
GENIUS_GENODEF_13
1002
{
1000
HIER
1070
     0
1002
}
1002
{
1000
MANEDIT
1070
     0
1002
}
1002
{
1000
NOSEL
1070
     0
1002
}
1002
{
1000
BEHIND
1070
     0
1002
}
1002
{
1000
REACTOR
1002
}
1001
GENIUS_GENOBJ-N-REC_13
1002
{
1000
OWNER
1000
GEN
1002
}
  0
LINE
  5
E4A
330
E45
100
AcDbEntity
  8
AM_BOR
 62
     5
100
AcDbLine
 10
-60.0
 20
9.999999999999992
 30
0.0
 11
0.0
 21
10.0
 31
0.0
1001
GENIUS_GENREC_14
1002
{
1000
PYDIR
1011
-110.0
1021
40.0
1031
0.0
1002
}
1002
{
1000
PXDIR
1011
0.0
1021
0.0
1031
0.0
1002
}
1002
{
1000
PORI
1011
-110.0
1021
0.0
1031
0.0
1002
}
1002
{
1000
PINS
1011
-110.0
1021
0.0
1031
0.0
1002
}
1002
{
1000
HVAL
1000
40
1002
}
1002
{
1000
H
1070
     2
1002
}
1002
{
1000
WVAL
1000
110
1002
}
1002
{
1000
W
1070
     2
1002
}
1002
{
1000
C
1070
     1
1002
}
  0
LINE
  5
E4B
330
E45
100
AcDbEntity
  8
AM_BOR
 62
     5
100
AcDbLine
 10
-110.0
 20
19.0
 30
0.0
 11
0.0
 21
19.0
 31
0.0
1001
GENIUS_GENREC_14
1002
{
1000
PYDIR
1011
-110.0
1021
40.0
1031
0.0
1002
}
1002
{
1000
PXDIR
1011
0.0
1021
0.0
1031
0.0
1002
}
1002
{
1000
PORI
1011
-110.0
1021
0.0
1031
0.0
1002
}
1002
{
1000
PINS
1011
-110.0
1021
0.0
1031
0.0
1002
}
1002
{
1000
HVAL
1000
40
1002
}
1002
{
1000
H
1070
     2
1002
}
1002
{
1000
WVAL
1000
110
1002
}
1002
{
1000
W
1070
     2
1002
}
1002
{
1000
C
1070
     1
1002
}
1001
GENIUS_GENODEF_13
1002
{
1000
HIER
1070
     0
1002
}
1002
{
1000
MANEDIT
1070
     0
1002
}
1002
{
1000
NOSEL
1070
     0
1002
}
1002
{
1000
BEHIND
1070
     0
1002
}
1002
{
1000
REACTOR
1002
}
1001
GENIUS_GENOBJ-N-REC_13
1002
{
1000
OWNER
1000
GEN
1002
}
  0
LINE
  5
E4C
330
E45
100
AcDbEntity
  8
AM_BOR
 62
     5
100
AcDbLine
 10
-110.0
 20
26.0
 30
0.0
 11
0.0
 21
26.0
 31
0.0
1001
GENIUS_GENREC_14
1002
{
1000
PYDIR
1011
-110.0
1021
40.0
1031
0.0
1002
}
1002
{
1000
PXDIR
1011
0.0
1021
0.0
1031
0.0
1002
}
1002
{
1000
PORI
1011
-110.0
1021
0.0
1031
0.0
1002
}
1002
{
1000
PINS
1011
-110.0
1021
0.0
1031
0.0
1002
}
1002
{
1000
HVAL
1000
40
1002
}
1002
{
1000
H
1070
     2
1002
}
1002
{
1000
WVAL
1000
110
1002
}
1002
{
1000
W
1070
     2
1002
}
1002
{
1000
C
1070
     1
1002
}
1001
GENIUS_GENODEF_13
1002
{
1000
HIER
1070
     0
1002
}
1002
{
1000
MANEDIT
1070
     0
1002
}
1002
{
1000
NOSEL
1070
     0
1002
}
1002
{
1000
BEHIND
1070
     0
1002
}
1002
{
1000
REACTOR
1002
}
1001
GENIUS_GENOBJ-N-REC_13
1002
{
1000
OWNER
1000
GEN
1002
}
  0
LINE
  5
E4D
330
E45
100
AcDbEntity
  8
AM_BOR
 62
     5
100
AcDbLine
 10
-110.0
 20
33.0
 30
0.0
 11
0.0
 21
33.0
 31
0.0
1001
GENIUS_GENREC_14
1002
{
1000
PYDIR
1011
-110.0
1021
40.0
1031
0.0
1002
}
1002
{
1000
PXDIR
1011
0.0
1021
0.0
1031
0.0
1002
}
1002
{
1000
PORI
1011
-110.0
1021
0.0
1031
0.0
1002
}
1002
{
1000
PINS
1011
-110.0
1021
0.0
1031
0.0
1002
}
1002
{
1000
HVAL
1000
40
1002
}
1002
{
1000
H
1070
     2
1002
}
1002
{
1000
WVAL
1000
110
1002
}
1002
{
1000
W
1070
     2
1002
}
1002
{
1000
C
1070
     1
1002
}
1001
GENIUS_GENODEF_13
1002
{
1000
HIER
1070
     0
1002
}
1002
{
1000
MANEDIT
1070
     0
1002
}
1002
{
1000
NOSEL
1070
     0
1002
}
1002
{
1000
BEHIND
1070
     0
1002
}
1002
{
1000
REACTOR
1002
}
1001
GENIUS_GENOBJ-N-REC_13
1002
{
1000
OWNER
1000
GEN
1002
}
  0
LINE
  5
E4E
330
E45
100
AcDbEntity
  8
AM_BOR
 62
     5
100
AcDbLine
 10
-85.0
 20
33.0
 30
0.0
 11
-85.0
 21
18.99999999999998
 31
0.0
1001
GENIUS_GENREC_14
1002
{
1000
PYDIR
1011
-110.0
1021
40.0
1031
0.0
1002
}
1002
{
1000
PXDIR
1011
0.0
1021
0.0
1031
0.0
1002
}
1002
{
1000
PORI
1011
-110.0
1021
0.0
1031
0.0
1002
}
1002
{
1000
PINS
1011
-110.0
1021
0.0
1031
0.0
1002
}
1002
{
1000
HVAL
1000
40
1002
}
1002
{
1000
H
1070
     2
1002
}
1002
{
1000
WVAL
1000
110
1002
}
1002
{
1000
W
1070
     2
1002
}
1002
{
1000
C
1070
     1
1002
}
1001
GENIUS_GENODEF_13
1002
{
1000
HIER
1070
     0
1002
}
1002
{
1000
MANEDIT
1070
     0
1002
}
1002
{
1000
NOSEL
1070
     0
1002
}
1002
{
1000
BEHIND
1070
     0
1002
}
1002
{
1000
REACTOR
1002
}
1001
GENIUS_GENOBJ-N-REC_13
1002
{
1000
OWNER
1000
GEN
1002
}
  0
LINE
  5
E4F
330
E45
100
AcDbEntity
  8
AM_BOR
 62
     5
100
AcDbLine
 10
-60.0
 20
40.00000000000001
 30
0.0
 11
-60.0
 21
0.0
 31
0.0
1001
GENIUS_GENREC_14
1002
{
1000
PYDIR
1011
-110.0
1021
40.0
1031
0.0
1002
}
1002
{
1000
PXDIR
1011
0.0
1021
0.0
1031
0.0
1002
}
1002
{
1000
PORI
1011
-110.0
1021
0.0
1031
0.0
1002
}
1002
{
1000
PINS
1011
-110.0
1021
0.0
1031
0.0
1002
}
1002
{
1000
HVAL
1000
40
1002
}
1002
{
1000
H
1070
     2
1002
}
1002
{
1000
WVAL
1000
110
1002
}
1002
{
1000
W
1070
     2
1002
}
1002
{
1000
C
1070
     1
1002
}
1001
GENIUS_GENODEF_13
1002
{
1000
HIER
1070
     0
1002
}
1002
{
1000
MANEDIT
1070
     0
1002
}
1002
{
1000
NOSEL
1070
     0
1002
}
1002
{
1000
BEHIND
1070
     0
1002
}
1002
{
1000
REACTOR
1002
}
1001
GENIUS_GENOBJ-N-REC_13
1002
{
1000
OWNER
1000
GEN
1002
}
  0
LINE
  5
E50
330
E45
100
AcDbEntity
  8
AM_BOR
 62
     5
100
AcDbLine
 10
-20.0
 20
33.0
 30
0.0
 11
-20.0
 21
40.0
 31
0.0
1001
GENIUS_GENREC_14
1002
{
1000
PYDIR
1011
-110.0
1021
40.0
1031
0.0
1002
}
1002
{
1000
PXDIR
1011
0.0
1021
0.0
1031
0.0
1002
}
1002
{
1000
PORI
1011
-110.0
1021
0.0
1031
0.0
1002
}
1002
{
1000
PINS
1011
-110.0
1021
0.0
1031
0.0
1002
}
1002
{
1000
HVAL
1000
40
1002
}
1002
{
1000
H
1070
     2
1002
}
1002
{
1000
WVAL
1000
110
1002
}
1002
{
1000
W
1070
     2
1002
}
1002
{
1000
C
1070
     1
1002
}
1001
GENIUS_GENODEF_13
1002
{
1000
HIER
1070
     0
1002
}
1002
{
1000
MANEDIT
1070
     0
1002
}
1002
{
1000
NOSEL
1070
     0
1002
}
1002
{
1000
BEHIND
1070
     0
1002
}
1002
{
1000
REACTOR
1002
}
1001
GENIUS_GENOBJ-N-REC_13
1002
{
1000
OWNER
1000
GEN
1002
}
  0
LINE
  5
E51
330
E45
100
AcDbEntity
  8
AM_BOR
 62
     5
100
AcDbLine
 10
-40.0
 20
33.0
 30
0.0
 11
-40.0
 21
40.0
 31
0.0
1001
GENIUS_GENREC_14
1002
{
1000
PYDIR
1011
-110.0
1021
40.0
1031
0.0
1002
}
1002
{
1000
PXDIR
1011
0.0
1021
0.0
1031
0.0
1002
}
1002
{
1000
PORI
1011
-110.0
1021
0.0
1031
0.0
1002
}
1002
{
1000
PINS
1011
-110.0
1021
0.0
1031
0.0
1002
}
1002
{
1000
HVAL
1000
40
1002
}
1002
{
1000
H
1070
     2
1002
}
1002
{
1000
WVAL
1000
110
1002
}
1002
{
1000
W
1070
     2
1002
}
1002
{
1000
C
1070
     1
1002
}
1001
GENIUS_GENODEF_13
1002
{
1000
HIER
1070
     0
1002
}
1002
{
1000
MANEDIT
1070
     0
1002
}
1002
{
1000
NOSEL
1070
     0
1002
}
1002
{
1000
BEHIND
1070
     0
1002
}
1002
{
1000
REACTOR
1002
}
1001
GENIUS_GENOBJ-N-REC_13
1002
{
1000
OWNER
1000
GEN
1002
}
  0
LINE
  5
E52
330
E45
100
AcDbEntity
  8
AM_BOR
 62
     5
100
AcDbLine
 10
-80.0
 20
33.0
 30
0.0
 11
-80.0
 21
40.0
 31
0.0
1001
GENIUS_GENREC_14
1002
{
1000
PYDIR
1011
-110.0
1021
40.0
1031
0.0
1002
}
1002
{
1000
PXDIR
1011
0.0
1021
0.0
1031
0.0
1002
}
1002
{
1000
PORI
1011
-110.0
1021
0.0
1031
0.0
1002
}
1002
{
1000
PINS
1011
-110.0
1021
0.0
1031
0.0
1002
}
1002
{
1000
HVAL
1000
40
1002
}
1002
{
1000
H
1070
     2
1002
}
1002
{
1000
WVAL
1000
110
1002
}
1002
{
1000
W
1070
     2
1002
}
1002
{
1000
C
1070
     1
1002
}
1001
GENIUS_GENODEF_13
1002
{
1000
HIER
1070
     0
1002
}
1002
{
1000
MANEDIT
1070
     0
1002
}
1002
{
1000
NOSEL
1070
     0
1002
}
1002
{
1000
BEHIND
1070
     0
1002
}
1002
{
1000
REACTOR
1002
}
1001
GENIUS_GENOBJ-N-REC_13
1002
{
1000
OWNER
1000
GEN
1002
}
  0
TEXT
  5
E53
330
E45
100
AcDbEntity
  8
AM_BOR
 62
     2
100
AcDbText
 10
-57.4
 20
35.0
 30
0.0
 40
3.0
  1
単位 ｍｍ
 72
     4
 11
-50.0
 21
36.5
 31
0.0
100
AcDbText
  0
TEXT
  5
E54
330
E45
100
AcDbEntity
  8
AM_BOR
 62
     2
100
AcDbText
 10
-39.0
 20
35.0
 30
0.0
 40
3.0
  1
尺度
 41
0.9
 11
-39.0
 21
36.5
 31
0.0
100
AcDbText
 73
     2
  0
TEXT
  5
E55
330
E45
100
AcDbEntity
  8
AM_BOR
 62
     2
100
AcDbText
 10
-19.0
 20
35.0
 30
0.0
 40
3.0
  1
日付
 41
0.9
 11
-19.0
 21
36.5
 31
0.0
100
AcDbText
 73
     2
  0
TEXT
  5
E56
330
E45
100
AcDbEntity
  8
AM_BOR
 62
     2
100
AcDbText
 10
-76.79999999999999
 20
34.99999999999999
 30
0.0
 40
3.0
  1
第３角法
 72
     4
 11
-70.0
 21
36.49999999999999
 31
0.0
100
AcDbText
  0
TEXT
  5
E57
330
E45
100
AcDbEntity
  8
AM_BOR
 62
     2
100
AcDbText
 10
-59.0
 20
29.5
 30
0.0
 40
3.0
  1
材 質
 11
-59.0
 21
31.0
 31
0.0
100
AcDbText
 73
     2
  0
TEXT
  5
E58
330
E45
100
AcDbEntity
  8
AM_BOR
 62
     2
100
AcDbText
 10
-59.0
 20
22.5
 30
0.0
 40
3.0
  1
備 考
 11
-59.0
 21
24.0
 31
0.0
100
AcDbText
 73
     2
  0
TEXT
  5
E59
330
E45
100
AcDbEntity
  8
AM_BOR
 62
     2
100
AcDbText
 10
-59.0
 20
15.5
 30
0.0
 40
3.0
  1
品 名
 11
-59.0
 21
17.0
 31
0.0
100
AcDbText
 73
     2
  0
TEXT
  5
E5A
330
E45
100
AcDbEntity
  8
AM_BOR
 62
     2
100
AcDbText
 10
-59.0
 20
6.499999999999992
 30
0.0
 40
3.0
  1
図 番
 11
-59.0
 21
7.999999999999992
 31
0.0
100
AcDbText
 73
     2
  0
TEXT
  5
E5B
330
E45
100
AcDbEntity
  8
AM_BOR
 62
     2
100
AcDbText
 10
-109.0
 20
29.5
 30
0.0
 40
3.0
  1
承認
 11
-109.0
 21
31.0
 31
0.0
100
AcDbText
 73
     2
  0
TEXT
  5
E5C
330
E45
100
AcDbEntity
  8
AM_BOR
 62
     2
100
AcDbText
 10
-109.0
 20
22.5
 30
0.0
 40
3.0
  1
設計
 11
-109.0
 21
24.0
 31
0.0
100
AcDbText
 73
     2
  0
TEXT
  5
E5D
330
E45
100
AcDbEntity
  8
AM_BOR
 62
     2
100
AcDbText
 10
-84.0
 20
22.5
 30
0.0
 40
3.0
  1
製図
 11
-84.0
 21
24.0
 31
0.0
100
AcDbText
 73
     2
  0
TEXT
  5
E5E
330
E45
100
AcDbEntity
  8
AM_BOR
 62
     2
100
AcDbText
 10
-84.0
 20
29.5
 30
0.0
 40
3.0
  1
検図
 11
-84.0
 21
31.0
 31
0.0
100
AcDbText
 73
     2
  0
ATTDEF
  5
E5F
330
E45
100
AcDbEntity
  8
AM_BOR
100
AcDbText
 10
-49.48020001333898
 20
12.75
 30
0.0
 40
3.5
  1

 11
-49.48020001333898
 21
14.5
 31
0.0
100
AcDbAttributeDefinition
  3
品名
  2
HINMEI{14}
 70
     0
 74
     2
  0
ATTDEF
  5
E60
330
E45
100
AcDbEntity
  8
AM_BOR
100
AcDbText
 10
-49.48020001333898
 20
3.249999999999992
 30
0.0
 40
3.5
  1

 11
-49.48020001333898
 21
4.999999999999992
 31
0.0
100
AcDbAttributeDefinition
  3
図番
  2
ZUBAN{14}
 70
     0
 74
     2
  0
ATTDEF
  5
E61
330
E45
100
AcDbEntity
  8
AM_BOR
 62
     2
100
AcDbText
 10
-11.91705654530994
 20
35.0
 30
0.0
 40
3.0
  1

 41
0.8
 11
-11.91705654530994
 21
36.5
 31
0.0
100
AcDbAttributeDefinition
  3
日付
  2
GEN-TITLE-DAT{3.5}
 70
     0
 74
     2
  0
ATTDEF
  5
E62
330
E45
100
AcDbEntity
  8
AM_BOR
 62
     2
100
AcDbText
 10
-71.63012018472975
 20
20.00000000000001
 30
0.0
 40
3.0
  1
水 田
 72
     4
 11
-67.63012018472974
 21
21.50000000000002
 31
0.0
100
AcDbAttributeDefinition
  3
製図
  2
SEIZU
 70
     0
  0
ATTDEF
  5
E63
330
E45
100
AcDbEntity
  8
AM_BOR
 62
     2
100
AcDbText
 10
-31.91705654530995
 20
35.0
 30
0.0
 40
3.0
  1

 11
-31.91705654530995
 21
36.5
 31
0.0
100
AcDbAttributeDefinition
  3
尺度
  2
GEN-TITLE-SCA
 70
     0
 74
     2
  0
LINE
  5
E64
330
E45
100
AcDbEntity
  8
0
100
AcDbLine
 10
-106.9502221859465
 20
14.71456568209314
 30
0.0
 11
-107.7139711131768
 21
11.16237652835879
 31
0.0
  0
LINE
  5
E65
330
E45
100
AcDbEntity
  8
0
100
AcDbLine
 10
-107.7139711131768
 20
11.16237652835879
 30
0.0
 11
-107.6697551010107
 21
11.22470827233807
 31
0.0
  0
ELLIPSE
  5
E66
330
E45
100
AcDbEntity
  8
0
100
AcDbEllipse
 10
-106.5198686826232
 20
9.133166589319488
 30
0.0
 11
0.0200858413762701
 21
2.795177724472429
 31
0.0
210
0.0
220
0.0
230
1.0
 40
0.6250197778053533
 41
-1.051714224928873
 42
0.7298517778971401
1001
GENIUS_GENODEF_13
1002
{
1000
HIER
1070
     0
1002
}
1002
{
1000
MANEDIT
1070
     0
1002
}
1002
{
1000
NOSEL
1070
     0
1002
}
1002
{
1000
BEHIND
1070
     0
1002
}
1002
{
1000
REACTOR
1002
}
1001
GENIUS_GENOBJ-N-FIL_13
1002
{
1000
OWNER
1000
GEN
1002
}
  0
ELLIPSE
  5
E67
330
E45
100
AcDbEntity
  8
0
100
AcDbEllipse
 10
-105.2984958385996
 20
13.8219417489321
 30
0.0
 11
0.0200858413762916
 21
2.795177724472415
 31
0.0
210
0.0
220
0.0
230
1.0
 40
0.6250197778053527
 41
-1.051714224928867
 42
1.250253596044828
1001
GENIUS_GENODEF_13
1002
{
1000
HIER
1070
     0
1002
}
1002
{
1000
MANEDIT
1070
     0
1002
}
1002
{
1000
NOSEL
1070
     0
1002
}
1002
{
1000
BEHIND
1070
     0
1002
}
1002
{
1000
REACTOR
1002
}
1001
GENIUS_GENOBJ-N-FIL_13
1002
{
1000
OWNER
1000
GEN
1002
}
  0
LINE
  5
E68
330
E45
100
AcDbEntity
  8
0
100
AcDbLine
 10
-98.48721298302093
 20
8.077457208786752
 30
0.0
 11
-99.45177360188811
 21
4.065819878065248
 31
0.0
  0
ELLIPSE
  5
E69
330
E45
100
AcDbEntity
  8
0
100
AcDbEllipse
 10
-101.0818809708247
 20
5.053412867376919
 30
0.0
 11
0.0200858413762853
 21
2.795177724472413
 31
0.0
210
0.0
220
0.0
230
1.0
 40
0.6250197778053547
 41
2.089878428660925
 42
4.355766148231805
1001
GENIUS_GENODEF_13
1002
{
1000
HIER
1070
     0
1002
}
1002
{
1000
MANEDIT
1070
     0
1002
}
1002
{
1000
NOSEL
1070
     0
1002
}
1002
{
1000
BEHIND
1070
     0
1002
}
1002
{
1000
REACTOR
1002
}
1001
GENIUS_GENOBJ-N-FIL_13
1002
{
1000
OWNER
1000
GEN
1002
}
  0
LINE
  5
E6A
330
E45
100
AcDbEntity
  8
0
100
AcDbLine
 10
-98.48721298302093
 20
8.077457208786752
 30
0.0
 11
-98.66382720839389
 21
7.801834007856294
 31
0.0
  0
ELLIPSE
  5
E6B
330
E45
100
AcDbEntity
  8
0
100
AcDbEllipse
 10
-99.87931293102301
 20
9.796066964505511
 30
0.0
 11
0.0200858413762724
 21
2.795177724472415
 31
0.0
210
0.0
220
0.0
230
0.9999999999999998
 40
0.6250197778053552
 41
2.08987842866092
 42
3.922474143254961
1001
GENIUS_GENODEF_13
1002
{
1000
HIER
1070
     0
1002
}
1002
{
1000
MANEDIT
1070
     0
1002
}
1002
{
1000
NOSEL
1070
     0
1002
}
1002
{
1000
BEHIND
1070
     0
1002
}
1002
{
1000
REACTOR
1002
}
1001
GENIUS_GENOBJ-N-FIL_13
1002
{
1000
OWNER
1000
GEN
1002
}
  0
HATCH
  5
E6C
330
E45
100
AcDbEntity
  8
AM_8
100
AcDbHatch
 10
0.0
 20
0.0
 30
0.0
210
0.0
220
0.0
230
1.0
  2
SOLID
 70
     1
 71
     0
 91
        1
 92
        1
 93
        2
 72
     3
 10
-106.7638987916396
 20
4.957358478318376
 11
0.0000000000000547
 21
2.56276973145977
 40
0.8333333333333941
 50
-77.14069946214277
 51
264.4007371808275
 73
     1
 72
     3
 10
-106.7638987916396
 20
4.957358478318376
 11
-0.0000000000003928
 21
2.562769731461267
 40
0.8333333333328997
 50
264.4007371808174
 51
282.8593005378472
 73
     1
 97
        0
 75
     0
 76
     1
 98
        1
 10
65.20293740923941
 20
-32.16820874956388
1001
GENIUS_GENODEF_13
1002
{
1000
HIER
1070
     0
1002
}
1002
{
1000
MANEDIT
1070
     0
1002
}
1002
{
1000
NOSEL
1070
     0
1002
}
1002
{
1000
BEHIND
1070
     0
1002
}
1002
{
1000
REACTOR
1002
}
1001
GENIUS_GENOBJ-N-HTC_13
1002
{
1000
OWNER
1000
GEN
1002
}
1001
GENIUS_GENHATCH_13
1002
{
1000
DATA
1040
0.0
1042
0.0015799698758396
1000
SOLID
1070
     0
1011
70.0136537122014
1021
-14.7540192633455
1031
0.0
1002
}
1002
{
1000
UCS
1010
0.0
1020
0.0
1030
0.0
1010
1.0
1020
0.0
1030
0.0
1010
0.0
1020
1.0
1030
0.0
1002
}
  0
ELLIPSE
  5
E6D
330
E45
100
AcDbEntity
  8
0
100
AcDbEllipse
 10
-106.7638987916396
 20
4.957358478318417
 30
0.0
 11
0.0000000000000006
 21
2.562769731459943
 31
0.0
210
0.0
220
0.0
230
1.0
 40
0.8333333333333353
 41
-1.570796326794896
 42
4.712388980384689
  0
HATCH
  5
E6E
330
E45
100
AcDbEntity
  8
AM_8
100
AcDbHatch
 10
0.0
 20
0.0
 30
0.0
210
0.0
220
0.0
230
1.0
  2
SOLID
 70
     1
 71
     0
 91
        1
 92
        1
 93
       10
 72
     1
 10
-106.9502221859465
 20
14.71456568209311
 11
-107.7139711131768
 21
11.16237652835879
 72
     1
 10
-107.7139711131768
 20
11.16237652835879
 11
-107.6697551010108
 21
11.22470827233809
 72
     3
 10
-106.5198686826232
 20
9.133166589319488
 11
0.0200858413762859
 21
2.795177724472421
 40
0.6250197778053525
 50
-29.21280058452436
 51
47.56891328106517
 73
     0
 72
     1
 10
-104.9929922696577
 20
10.5089073790986
 11
-102.6087573837903
 21
3.677672077597827
 72
     3
 10
-101.0818809708247
 20
5.053412867376919
 11
0.0200858413762844
 21
2.79517772447242
 40
0.625019777805353
 50
132.4310867189347
 51
239.202331800838
 73
     1
 72
     1
 10
-99.45177360188809
 20
4.065819878065248
 11
-98.48721298302093
 21
8.077457208786761
 72
     1
 10
-98.48721298302095
 20
8.077457208786752
 11
-98.66382720839393
 21
7.801834007856288
 72
     3
 10
-99.87931293102301
 20
9.796066964505511
 11
0.0200858413762811
 21
2.795177724472416
 40
0.6250197778053536
 50
148.2259629226598
 51
227.5689132810653
 73
     0
 72
     1
 10
-101.4061893439886
 20
8.420326174726406
 11
-103.771619425634
 21
15.19768253871121
 72
     3
 10
-105.2984958385996
 20
13.8219417489321
 11
0.02008584137625
 21
2.795177724472417
 40
0.6250197778053583
 50
-47.56891328106589
 51
62.02409398278944
 73
     1
 97
        0
 75
     0
 76
     1
 98
        1
 10
65.20293740923941
 20
-32.16820874956388
1001
GENIUS_GENODEF_13
1002
{
1000
HIER
1070
     0
1002
}
1002
{
1000
MANEDIT
1070
     0
1002
}
1002
{
1000
NOSEL
1070
     0
1002
}
1002
{
1000
BEHIND
1070
     0
1002
}
1002
{
1000
REACTOR
1002
}
1001
GENIUS_GENOBJ-N-HTC_13
1002
{
1000
OWNER
1000
GEN
1002
}
1001
GENIUS_GENHATCH_13
1002
{
1000
DATA
1040
0.0
1042
0.0015799698758396
1000
SOLID
1070
     0
1011
74.07735655451816
1021
-11.90112763631223
1031
0.0
1002
}
1002
{
1000
UCS
1010
0.0
1020
0.0
1030
0.0
1010
1.0
1020
0.0
1030
0.0
1010
0.0
1020
1.0
1030
0.0
1002
}
  0
LINE
  5
E6F
330
E45
100
AcDbEntity
  8
0
100
AcDbLine
 10
-104.9929922696577
 20
10.5089073790986
 30
0.0
 11
-102.6087573837903
 21
3.677672077597847
 31
0.0
  0
LINE
  5
E70
330
E45
100
AcDbEntity
  8
0
100
AcDbLine
 10
-101.4061893439886
 20
8.420326174726406
 30
0.0
 11
-103.771619425634
 21
15.1976825387112
 31
0.0
  0
TEXT
  5
E71
330
E45
100
AcDbEntity
  8
0
100
AcDbText
 10
-92.04358977334541
 20
2.736280326823534
 30
0.0
 40
1.397647058823528
  1
ASOH   CO.LTD
 41
2.222222222222219
  7
ｽﾀｲﾙ1
100
AcDbText
  0
TEXT
  5
E72
330
E45
100
AcDbEntity
  8
0
100
AcDbText
 10
-96.37601713265375
 20
7.065690057310197
 30
0.0
 40
9.355420606948992
  1
アソー株式会社
 41
0.4444444444444381
  7
ｽﾀｲﾙ1
100
AcDbText
  0
ENDBLK
  5
E74
330
E45
100
AcDbEntity
  8
0
100
AcDbBlockEnd
  0
BLOCK
  5
114E
330
1144
100
AcDbEntity
  8
0
100
AcDbBlockBegin
  2
*D6
 70
     1
 10
0.0
 20
0.0
 30
0.0
  3
*D6
  1

  0
LINE
  5
29E4
330
1144
100
AcDbEntity
  8
AM_5
100
AcDbLine
 10
113.7681382224961
 20
151.3531167616513
 30
0.0
 11
107.7681382224961
 21
151.3531167616513
 31
0.0
  0
LINE
  5
29E5
330
1144
100
AcDbEntity
  8
AM_5
100
AcDbLine
 10
120.0651382224961
 20
127.8531167616513
 30
0.0
 11
107.7681382224961
 21
127.8531167616513
 31
0.0
  0
LINE
  5
29E6
330
1144
100
AcDbEntity
  8
AM_5
100
AcDbLine
 10
108.2681382224961
 20
150.1031167616513
 30
0.0
 11
108.2681382224961
 21
129.1031167616513
 31
0.0
  0
INSERT
  5
29E7
330
1144
100
AcDbEntity
  8
AM_5
100
AcDbBlockReference
  2
_Open30
 10
108.2681382224961
 20
151.3531167616513
 30
0.0
 41
1.25
 42
1.25
 43
1.25
 50
90.0
  0
INSERT
  5
29E8
330
1144
100
AcDbEntity
  8
AM_5
100
AcDbBlockReference
  2
_Open30
 10
108.2681382224961
 20
127.8531167616513
 30
0.0
 41
1.25
 42
1.25
 43
1.25
 50
270.0
  0
MTEXT
  5
29E9
330
1144
100
AcDbEntity
  8
AM_5
 62
     2
100
AcDbMText
 10
106.6429659784016
 20
139.6031167616514
 30
0.0
 40
1.75
 41
0.0
 71
     5
 72
     1
  1
23.5
 11
0.0000000000000001
 21
1.0
 31
0.0
 73
     1
 44
1.0
1001
ACAD
1000
MTEXTBEGIN
1070
    73
1070
     1
1070
    44
1040
1.0
1070
    74
1070
     0
1000
MTEXTEND
  0
POINT
  5
29EA
330
1144
100
AcDbEntity
  8
Defpoints
 62
     0
100
AcDbPoint
 10
114.2681382224961
 20
151.3531167616513
 30
0.0
  0
POINT
  5
29EB
330
1144
100
AcDbEntity
  8
Defpoints
 62
     0
100
AcDbPoint
 10
120.5651382224961
 20
127.8531167616513
 30
0.0
  0
POINT
  5
29EC
330
1144
100
AcDbEntity
  8
Defpoints
 62
     0
100
AcDbPoint
 10
108.2681382224961
 20
127.8531167616513
 30
0.0
  0
ENDBLK
  5
114F
330
1144
100
AcDbEntity
  8
0
100
AcDbBlockEnd
  0
BLOCK
  5
12FD
330
12F3
100
AcDbEntity
  8
0
100
AcDbBlockBegin
  2
*D7
 70
     1
 10
0.0
 20
0.0
 30
0.0
  3
*D7
  1

  0
LINE
  5
2800
330
12F3
100
AcDbEntity
  8
AM_5
100
AcDbLine
 10
127.5651382224961
 20
125.8531167616514
 30
0.0
 11
127.5651382224961
 21
122.3531167616514
 31
0.0
  0
LINE
  5
2801
330
12F3
100
AcDbEntity
  8
AM_5
100
AcDbLine
 10
158.5651382224963
 20
144.3531167616514
 30
0.0
 11
158.5651382224963
 21
122.3531167616514
 31
0.0
  0
LINE
  5
2802
330
12F3
100
AcDbEntity
  8
AM_5
100
AcDbLine
 10
128.8151382224961
 20
122.8531167616514
 30
0.0
 11
157.3151382224963
 21
122.8531167616514
 31
0.0
  0
INSERT
  5
2803
330
12F3
100
AcDbEntity
  8
AM_5
100
AcDbBlockReference
  2
_Open30
 10
127.5651382224961
 20
122.8531167616514
 30
0.0
 41
1.25
 42
1.25
 43
1.25
 50
180.0
  0
INSERT
  5
2804
330
12F3
100
AcDbEntity
  8
AM_5
100
AcDbBlockReference
  2
_Open30
 10
158.5651382224963
 20
122.8531167616514
 30
0.0
 41
1.25
 42
1.25
 43
1.25
  0
MTEXT
  5
2805
330
12F3
100
AcDbEntity
  8
AM_5
 62
     2
100
AcDbMText
 10
143.0651382224962
 20
124.4781167616514
 30
0.0
 40
1.75
 41
0.0
 71
     5
 72
     1
  1
31
 73
     1
 44
1.0
1001
ACAD
1000
MTEXTBEGIN
1070
    73
1070
     1
1070
    44
1040
1.0
1070
    74
1070
     0
1000
MTEXTEND
  0
POINT
  5
2806
330
12F3
100
AcDbEntity
  8
Defpoints
 62
     0
100
AcDbPoint
 10
127.5651382224961
 20
126.3531167616514
 30
0.0
  0
POINT
  5
2807
330
12F3
100
AcDbEntity
  8
Defpoints
 62
     0
100
AcDbPoint
 10
158.5651382224963
 20
144.8531167616514
 30
0.0
  0
POINT
  5
2808
330
12F3
100
AcDbEntity
  8
Defpoints
 62
     0
100
AcDbPoint
 10
158.5651382224963
 20
122.8531167616514
 30
0.0
  0
ENDBLK
  5
12FE
330
12F3
100
AcDbEntity
  8
0
100
AcDbBlockEnd
  0
BLOCK
  5
16EE
330
16E4
100
AcDbEntity
  8
0
100
AcDbBlockBegin
  2
*D9
 70
     1
 10
0.0
 20
0.0
 30
0.0
  3
*D9
  1

  0
LINE
  5
1BD2
330
16E4
100
AcDbEntity
  8
AM_5
100
AcDbLine
 10
168.0651382224961
 20
179.8531167616511
 30
0.0
 11
173.1863646723368
 21
179.8531167616511
 31
0.0
  0
LINE
  5
1BD3
330
16E4
100
AcDbEntity
  8
AM_5
100
AcDbLine
 10
164.4621382224961
 20
151.3531167616513
 30
0.0
 11
173.1863646723368
 21
151.3531167616513
 31
0.0
  0
LINE
  5
1BD4
330
16E4
100
AcDbEntity
  8
AM_5
100
AcDbLine
 10
172.6863646723368
 20
178.6031167616511
 30
0.0
 11
172.6863646723368
 21
152.6031167616513
 31
0.0
  0
INSERT
  5
1BD5
330
16E4
100
AcDbEntity
  8
AM_5
100
AcDbBlockReference
  2
_Open30
 10
172.6863646723368
 20
179.8531167616511
 30
0.0
 41
1.25
 42
1.25
 43
1.25
 50
90.0
  0
INSERT
  5
1BD6
330
16E4
100
AcDbEntity
  8
AM_5
100
AcDbBlockReference
  2
_Open30
 10
172.6863646723368
 20
151.3531167616513
 30
0.0
 41
1.25
 42
1.25
 43
1.25
 50
270.0
  0
MTEXT
  5
1BD7
330
16E4
100
AcDbEntity
  8
AM_5
 62
     2
100
AcDbMText
 10
171.0611924282423
 20
165.6031167616513
 30
0.0
 40
1.75
 41
0.0
 71
     5
 72
     1
  1
28.5
 11
0.0000000000000001
 21
1.0
 31
0.0
 73
     1
 44
1.0
1001
ACAD
1000
MTEXTBEGIN
1070
    73
1070
     1
1070
    44
1040
1.0
1070
    74
1070
     0
1000
MTEXTEND
  0
POINT
  5
1BD8
330
16E4
100
AcDbEntity
  8
Defpoints
 62
     0
100
AcDbPoint
 10
167.5651382224961
 20
179.8531167616511
 30
0.0
  0
POINT
  5
1BD9
330
16E4
100
AcDbEntity
  8
Defpoints
 62
     0
100
AcDbPoint
 10
163.9621382224961
 20
151.3531167616513
 30
0.0
  0
POINT
  5
1BDA
330
16E4
100
AcDbEntity
  8
Defpoints
 62
     0
100
AcDbPoint
 10
172.6863646723368
 20
151.3531167616513
 30
0.0
  0
ENDBLK
  5
16EF
330
16E4
100
AcDbEntity
  8
0
100
AcDbBlockEnd
  0
BLOCK
  5
171A
330
1710
100
AcDbEntity
  8
0
100
AcDbBlockBegin
  2
*D10
 70
     1
 10
0.0
 20
0.0
 30
0.0
  3
*D10
  1

  0
LINE
  5
171E
330
1710
100
AcDbEntity
  8
AM_5
100
AcDbLine
 10
127.5651382224961
 20
180.7501167616511
 30
0.0
 11
127.5651382224961
 21
186.3531177716511
 31
0.0
  0
LINE
  5
171F
330
1710
100
AcDbEntity
  8
AM_5
100
AcDbLine
 10
167.5651382224961
 20
180.3531167616512
 30
0.0
 11
167.5651382224961
 21
186.3531177716511
 31
0.0
  0
LINE
  5
1720
330
1710
100
AcDbEntity
  8
AM_5
100
AcDbLine
 10
128.8151382224961
 20
185.8531177716511
 30
0.0
 11
166.3151382224961
 21
185.8531177716511
 31
0.0
  0
INSERT
  5
1721
330
1710
100
AcDbEntity
  8
AM_5
100
AcDbBlockReference
  2
_Open30
 10
127.5651382224961
 20
185.8531177716511
 30
0.0
 41
1.25
 42
1.25
 43
1.25
 50
180.0
  0
INSERT
  5
1722
330
1710
100
AcDbEntity
  8
AM_5
100
AcDbBlockReference
  2
_Open30
 10
167.5651382224961
 20
185.8531177716511
 30
0.0
 41
1.25
 42
1.25
 43
1.25
  0
MTEXT
  5
1723
330
1710
100
AcDbEntity
  8
AM_5
 62
     2
100
AcDbMText
 10
147.5651382224961
 20
187.4781177716511
 30
0.0
 40
1.75
 41
0.0
 71
     5
 72
     1
  1
40
 73
     1
 44
1.0
1001
ACAD
1000
MTEXTBEGIN
1070
    73
1070
     1
1070
    44
1040
1.0
1070
    74
1070
     0
1000
MTEXTEND
  0
POINT
  5
1724
330
1710
100
AcDbEntity
  8
Defpoints
 62
     0
100
AcDbPoint
 10
127.5651382224961
 20
180.2501167616511
 30
0.0
  0
POINT
  5
1725
330
1710
100
AcDbEntity
  8
Defpoints
 62
     0
100
AcDbPoint
 10
167.5651382224961
 20
179.8531167616511
 30
0.0
  0
POINT
  5
1726
330
1710
100
AcDbEntity
  8
Defpoints
 62
     0
100
AcDbPoint
 10
167.5651382224961
 20
185.8531177716511
 30
0.0
  0
ENDBLK
  5
171B
330
1710
100
AcDbEntity
  8
0
100
AcDbBlockEnd
  0
BLOCK
  5
196E
330
196D
100
AcDbEntity
  8
0
100
AcDbBlockBegin
  2
*D11
 70
     1
 10
0.0
 20
0.0
 30
0.0
  3
*D11
  1

  0
LINE
  5
196F
330
196D
100
AcDbEntity
  8
AM_5
100
AcDbLine
 10
321.5143159917075
 20
262.0990765311462
 30
0.0
 11
327.5143159917075
 21
262.0990765311462
 31
0.0
  0
LINE
  5
1970
330
196D
100
AcDbEntity
  8
AM_5
100
AcDbLine
 10
321.5143159917075
 20
254.0990765311462
 30
0.0
 11
327.5143159917075
 21
254.0990765311462
 31
0.0
  0
LINE
  5
1971
330
196D
100
AcDbEntity
  8
AM_5
100
AcDbLine
 10
327.0143159917075
 20
260.8490765311462
 30
0.0
 11
327.0143159917075
 21
255.3490765311462
 31
0.0
  0
INSERT
  5
1972
330
196D
100
AcDbEntity
  8
AM_5
100
AcDbBlockReference
  2
_Open30
 10
327.0143159917075
 20
262.0990765311462
 30
0.0
 41
1.25
 42
1.25
 43
1.25
 50
90.0
  0
INSERT
  5
1973
330
196D
100
AcDbEntity
  8
AM_5
100
AcDbBlockReference
  2
_Open30
 10
327.0143159917075
 20
254.0990765311462
 30
0.0
 41
1.25
 42
1.25
 43
1.25
 50
270.0
  0
MTEXT
  5
1974
330
196D
100
AcDbEntity
  8
AM_5
 62
     2
100
AcDbMText
 10
325.3893159917075
 20
258.0990765311462
 30
0.0
 40
1.75
 41
0.0
 71
     5
 72
     1
  1
%%c8
 11
0.0000000000000001
 21
1.0
 31
0.0
 73
     1
 44
1.0
1001
ACAD
1000
MTEXTBEGIN
1070
    73
1070
     1
1070
    44
1040
1.0
1070
    74
1070
     0
1000
MTEXTEND
  0
POINT
  5
1975
330
196D
100
AcDbEntity
  8
Defpoints
 62
     0
100
AcDbPoint
 10
321.0143159917075
 20
262.0990765311462
 30
0.0
  0
POINT
  5
1976
330
196D
100
AcDbEntity
  8
Defpoints
 62
     0
100
AcDbPoint
 10
321.0143159917075
 20
254.0990765311462
 30
0.0
  0
POINT
  5
1977
330
196D
100
AcDbEntity
  8
Defpoints
 62
     0
100
AcDbPoint
 10
327.0143159917075
 20
254.0990765311462
 30
0.0
  0
ENDBLK
  5
1978
330
196D
100
AcDbEntity
  8
0
100
AcDbBlockEnd
  0
BLOCK
  5
19A3
330
197D
100
AcDbEntity
  8
0
100
AcDbBlockBegin
  2
A$C7A963A1A
 70
     0
 10
0.0
 20
0.0
 30
0.0
  3
A$C7A963A1A
  1

  0
LINE
  5
197E
330
197D
100
AcDbEntity
  8
AM_0
100
AcDbLine
 10
0.0
 20
-7.999999999999971
 30
0.0
 11
2.800000000000011
 21
-7.999999999999971
 31
0.0
  0
LINE
  5
197F
330
197D
100
AcDbEntity
  8
AM_0
100
AcDbLine
 10
2.999999999999943
 20
-7.799999999999982
 30
0.0
 11
2.800000000000011
 21
-7.999999999999971
 31
0.0
1001
GENIUS_GENFIL_13
1070
     0
1040
0.2
1040
0.2
1040
0.2000000000000455
1040
45.00000000000407
1000
~T
1001
GENIUS_GENOREF_13
1005
19A0
  0
LINE
  5
1980
330
197D
100
AcDbEntity
  8
AM_0
100
AcDbLine
 10
2.999999999999943
 20
-7.799999999999982
 30
0.0
 11
3.000000000000454
 21
0.0
 31
0.0
  0
LINE
  5
1981
330
197D
100
AcDbEntity
  8
AM_0
100
AcDbLine
 10
0.0
 20
8.0
 30
0.0
 11
2.800000000000011
 21
8.0
 31
0.0
  0
LINE
  5
1982
330
197D
100
AcDbEntity
  8
AM_0
100
AcDbLine
 10
2.999999999999943
 20
7.800000000000068
 30
0.0
 11
3.000000000000227
 21
0.0
 31
0.0
  0
LINE
  5
1983
330
197D
100
AcDbEntity
  8
AM_0
100
AcDbLine
 10
2.999999999999943
 20
7.800000000000068
 30
0.0
 11
2.800000000000011
 21
8.0
 31
0.0
1001
GENIUS_GENFIL_13
1070
     0
1040
0.2
1040
0.2
1040
0.2000000000000455
1040
45.00000000000407
1000
~T
1001
GENIUS_GENOREF_13
1005
0
  0
LINE
  5
1984
330
197D
100
AcDbEntity
  8
AM_0
100
AcDbLine
 10
3.0
 20
7.5
 30
0.0
 11
16.30000000000001
 21
7.499999999999943
 31
0.0
  0
LINE
  5
1985
330
197D
100
AcDbEntity
  8
AM_0
100
AcDbLine
 10
16.49999999999994
 20
7.300000000000011
 30
0.0
 11
16.5
 21
0.0
 31
0.0
  0
LINE
  5
1986
330
197D
100
AcDbEntity
  8
AM_0
100
AcDbLine
 10
16.49999999999994
 20
7.300000000000011
 30
0.0
 11
16.29999999999995
 21
7.5
 31
0.0
1001
GENIUS_GENFIL_13
1070
     0
1040
0.2
1040
0.2
1040
20.0
1040
0.0
1002
{
1002
}
1001
GENIUS_GENODEF_13
1002
{
1000
HIER
1070
     0
1002
}
1002
{
1000
MANEDIT
1070
     0
1002
}
1002
{
1000
NOSEL
1070
     0
1002
}
1002
{
1000
BEHIND
1070
     0
1002
}
1002
{
1000
REACTOR
1002
}
1001
GENIUS_GENOBJ-N-CHA_13
1002
{
1000
OWNER
1000
GEN
1002
}
  0
LINE
  5
1987
330
197D
100
AcDbEntity
  8
AM_0
100
AcDbLine
 10
18.00000000000006
 20
6.5
 30
0.0
 11
19.00000000000011
 21
6.5
 31
0.0
  0
LINE
  5
1988
330
197D
100
AcDbEntity
  8
AM_0
100
AcDbLine
 10
2.800000000000011
 20
8.0
 30
0.0
 11
2.800000000000011
 21
-7.999999999999971
 31
0.0
  0
LINE
  5
1989
330
197D
100
AcDbEntity
  8
AM_0
100
AcDbLine
 10
16.29999999999995
 20
7.5
 30
0.0
 11
16.2999999999999
 21
0.0
 31
0.0
  0
LINE
  5
198A
330
197D
100
AcDbEntity
  8
AM_0
100
AcDbLine
 10
19.00000000000011
 20
6.5
 30
0.0
 11
19.00000000000011
 21
0.0
 31
0.0
  0
LINE
  5
198B
330
197D
100
AcDbEntity
  8
AM_0
100
AcDbLine
 10
16.5
 20
5.0
 30
0.0
 11
17.5
 21
5.0
 31
0.0
  0
LINE
  5
198C
330
197D
100
AcDbEntity
  8
AM_0
100
AcDbLine
 10
17.50000000000011
 20
6.000000000000056
 30
0.0
 11
17.50000000000006
 21
0.0
 31
0.0
  0
LINE
  5
198D
330
197D
100
AcDbEntity
  8
AM_0
100
AcDbLine
 10
16.49999999999994
 20
-7.300000000000011
 30
0.0
 11
16.5
 21
0.0
 31
0.0
  0
LINE
  5
198E
330
197D
100
AcDbEntity
  8
AM_0
100
AcDbLine
 10
16.29999999999995
 20
-7.5
 30
0.0
 11
16.2999999999999
 21
0.0
 31
0.0
  0
LINE
  5
198F
330
197D
100
AcDbEntity
  8
AM_0
100
AcDbLine
 10
3.0
 20
-7.5
 30
0.0
 11
16.29999999999995
 21
-7.500000000000028
 31
0.0
  0
LINE
  5
1990
330
197D
100
AcDbEntity
  8
AM_0
100
AcDbLine
 10
16.49999999999994
 20
-7.300000000000011
 30
0.0
 11
16.29999999999995
 21
-7.5
 31
0.0
1001
GENIUS_GENFIL_13
1070
     0
1040
0.2
1040
0.2
1040
20.0
1040
0.0
1002
{
1002
}
1001
GENIUS_GENODEF_13
1002
{
1000
HIER
1070
     0
1002
}
1002
{
1000
MANEDIT
1070
     0
1002
}
1002
{
1000
NOSEL
1070
     0
1002
}
1002
{
1000
BEHIND
1070
     0
1002
}
1002
{
1000
REACTOR
1002
}
1001
GENIUS_GENOBJ-N-CHA_13
1002
{
1000
OWNER
1000
GEN
1002
}
  0
LINE
  5
1991
330
197D
100
AcDbEntity
  8
AM_3
  6
AM_ISO02W050
100
AcDbLine
 10
19.00000000000011
 20
3.999999999999943
 30
0.0
 11
5.000000000000113
 21
4.0
 31
0.0
  0
LINE
  5
1992
330
197D
100
AcDbEntity
  8
AM_3
  6
AM_ISO02W050
100
AcDbLine
 10
5.000000000000113
 20
2.899999999999977
 30
0.0
 11
0.0
 21
2.899999999999977
 31
0.0
  0
LINE
  5
1993
330
197D
100
AcDbEntity
  8
AM_3
  6
AM_ISO02W050
100
AcDbLine
 10
5.000000000000113
 20
4.0
 30
0.0
 11
5.000000000000113
 21
0.0
 31
0.0
  0
LINE
  5
1994
330
197D
100
AcDbEntity
  8
AM_3
  6
AM_ISO02W050
100
AcDbLine
 10
19.00000000000011
 20
-4.000000000000028
 30
0.0
 11
5.000000000000113
 21
-4.0
 31
0.0
  0
LINE
  5
1995
330
197D
100
AcDbEntity
  8
AM_3
  6
AM_ISO02W050
100
AcDbLine
 10
5.000000000000113
 20
-2.899999999999977
 30
0.0
 11
0.0
 21
-2.899999999999977
 31
0.0
  0
LINE
  5
1996
330
197D
100
AcDbEntity
  8
AM_3
  6
AM_ISO02W050
100
AcDbLine
 10
5.000000000000113
 20
-4.0
 30
0.0
 11
5.000000000000113
 21
0.0
 31
0.0
  0
INSERT
  5
1997
330
197D
100
AcDbEntity
  8
AM_5
100
AcDbBlockReference
  2
*S17
 10
0.0
 20
0.0
 30
0.0
  0
LINE
  5
1998
330
197D
100
AcDbEntity
  8
AM_0
100
AcDbLine
 10
18.00000000000006
 20
6.5
 30
0.0
 11
17.50000000000006
 21
6.0
 31
0.0
1001
GENIUS_GENFIL_13
1070
     0
1040
0.5
1040
0.5
1040
20.0
1040
0.0
1002
{
1002
}
1001
GENIUS_GENODEF_13
1002
{
1000
HIER
1070
     0
1002
}
1002
{
1000
MANEDIT
1070
     0
1002
}
1002
{
1000
NOSEL
1070
     0
1002
}
1002
{
1000
BEHIND
1070
     0
1002
}
1002
{
1000
REACTOR
1002
}
1001
GENIUS_GENOBJ-N-CHA_13
1002
{
1000
OWNER
1000
GEN
1002
}
  0
LINE
  5
1999
330
197D
100
AcDbEntity
  8
AM_0
100
AcDbLine
 10
17.50000000000011
 20
-6.000000000000056
 30
0.0
 11
17.50000000000006
 21
0.0
 31
0.0
  0
LINE
  5
199A
330
197D
100
AcDbEntity
  8
AM_0
100
AcDbLine
 10
19.00000000000011
 20
-6.5
 30
0.0
 11
19.00000000000011
 21
0.0
 31
0.0
  0
LINE
  5
199B
330
197D
100
AcDbEntity
  8
AM_0
100
AcDbLine
 10
18.00000000000006
 20
-6.5
 30
0.0
 11
19.00000000000011
 21
-6.5
 31
0.0
  0
LINE
  5
199C
330
197D
100
AcDbEntity
  8
AM_0
100
AcDbLine
 10
18.00000000000006
 20
-6.5
 30
0.0
 11
17.50000000000006
 21
-6.0
 31
0.0
1001
GENIUS_GENFIL_13
1070
     0
1040
0.5
1040
0.5
1040
20.0
1040
0.0
1002
{
1002
}
1001
GENIUS_GENODEF_13
1002
{
1000
HIER
1070
     0
1002
}
1002
{
1000
MANEDIT
1070
     0
1002
}
1002
{
1000
NOSEL
1070
     0
1002
}
1002
{
1000
BEHIND
1070
     0
1002
}
1002
{
1000
REACTOR
1002
}
1001
GENIUS_GENOBJ-N-CHA_13
1002
{
1000
OWNER
1000
GEN
1002
}
  0
LINE
  5
199D
330
197D
100
AcDbEntity
  8
AM_0
100
AcDbLine
 10
16.5
 20
-5.0
 30
0.0
 11
17.5
 21
-5.0
 31
0.0
  0
LINE
  5
199E
330
197D
100
AcDbEntity
  8
AM_0
100
AcDbLine
 10
18.00000000000006
 20
6.5
 30
0.0
 11
18.00000000000006
 21
-6.5
 31
0.0
  0
DIMENSION
  5
199F
330
197D
100
AcDbEntity
  8
AM_5
100
AcDbDimension
  2
*D11
 10
25.00000000000011
 20
-4.000000000000028
 30
0.0
 11
23.37500000000006
 21
0.0
 31
0.0
 12
-302.0143159917074
 22
-258.0990765311462
 32
0.0
  1
%%c<>
 71
     5
 42
7.999999999999943
  3
AM_JIS
100
AcDbAlignedDimension
 13
19.00000000000011
 23
3.999999999999943
 33
0.0
 14
19.00000000000011
 24
-4.000000000000028
 34
0.0
 50
90.0
100
AcDbRotatedDimension
1001
GENIUS_GENDTOL_13
1000

1000
h7
1000

1040
0.0
  0
POINT
  5
19A0
330
197D
100
AcDbEntity
  8
0
 60
     1
100
AcDbPoint
 10
-265.3542845635263
 20
-349.3111410714663
 30
0.0
1001
GENIUS_GENODEF_13
1002
{
1000
HIER
1070
     1
1002
}
1002
{
1000
MANEDIT
1070
     0
1002
}
1002
{
1000
NOSEL
1070
     0
1002
}
1002
{
1000
BEHIND
1070
     0
1002
}
1002
{
1000
REACTOR
1002
}
1001
GENIUS_GENOBJ-N-CHA_13
1002
{
1000
OWNER
1000
GEN
1002
}
1001
GENIUS_GENOENT_13
1002
{
1000
MYREF
1005
19A0
1002
}
1002
{
1000
GRP
1005
0
1002
}
1001
GENIUS_GENOLIS_13
1002
{
1000
ENT
1005
197F
1002
}
  0
ENDBLK
  5
19A4
330
197D
100
AcDbEntity
  8
0
100
AcDbBlockEnd
  0
BLOCK
  5
1AEA
330
1AB8
100
AcDbEntity
  8
0
100
AcDbBlockBegin
  2
ASO-A
 70
     2
 10
0.0
 20
0.0
 30
0.0
  3
ASO-A
  1

  0
LINE
  5
1AB9
330
1AB8
100
AcDbEntity
  8
AM_BOR
 62
   211
100
AcDbLine
 10
-110.0
 20
0.0
 30
0.0
 11
0.0
 21
0.0
 31
0.0
1001
GENIUS_GENREC_14
1002
{
1000
PYDIR
1011
-110.0
1021
40.0
1031
0.0
1002
}
1002
{
1000
PXDIR
1011
0.0
1021
0.0
1031
0.0
1002
}
1002
{
1000
PORI
1011
-110.0
1021
0.0
1031
0.0
1002
}
1002
{
1000
PINS
1011
-110.0
1021
0.0
1031
0.0
1002
}
1002
{
1000
HVAL
1000
40
1002
}
1002
{
1000
H
1070
     2
1002
}
1002
{
1000
WVAL
1000
110
1002
}
1002
{
1000
W
1070
     2
1002
}
1002
{
1000
C
1070
     1
1002
}
1001
GENIUS_GENODEF_13
1002
{
1000
HIER
1070
     0
1002
}
1002
{
1000
MANEDIT
1070
     0
1002
}
1002
{
1000
NOSEL
1070
     0
1002
}
1002
{
1000
BEHIND
1070
     0
1002
}
1002
{
1000
REACTOR
1002
}
1001
GENIUS_GENOBJ-N-REC_13
1002
{
1000
OWNER
1000
GEN
1002
}
  0
LINE
  5
1ABA
330
1AB8
100
AcDbEntity
  8
AM_BOR
 62
   211
100
AcDbLine
 10
0.0
 20
0.0
 30
0.0
 11
0.0
 21
40.0
 31
0.0
1001
GENIUS_GENREC_14
1002
{
1000
PYDIR
1011
-110.0
1021
40.0
1031
0.0
1002
}
1002
{
1000
PXDIR
1011
0.0
1021
0.0
1031
0.0
1002
}
1002
{
1000
PORI
1011
-110.0
1021
0.0
1031
0.0
1002
}
1002
{
1000
PINS
1011
-110.0
1021
0.0
1031
0.0
1002
}
1002
{
1000
HVAL
1000
40
1002
}
1002
{
1000
H
1070
     2
1002
}
1002
{
1000
WVAL
1000
110
1002
}
1002
{
1000
W
1070
     2
1002
}
1002
{
1000
C
1070
     1
1002
}
1001
GENIUS_GENODEF_13
1002
{
1000
HIER
1070
     0
1002
}
1002
{
1000
MANEDIT
1070
     0
1002
}
1002
{
1000
NOSEL
1070
     0
1002
}
1002
{
1000
BEHIND
1070
     0
1002
}
1002
{
1000
REACTOR
1002
}
1001
GENIUS_GENOBJ-N-REC_13
1002
{
1000
OWNER
1000
GEN
1002
}
  0
LINE
  5
1ABB
330
1AB8
100
AcDbEntity
  8
AM_BOR
 62
   211
100
AcDbLine
 10
0.0
 20
40.0
 30
0.0
 11
-110.0
 21
40.00000000000001
 31
0.0
1001
GENIUS_GENREC_14
1002
{
1000
PYDIR
1011
-110.0
1021
40.0
1031
0.0
1002
}
1002
{
1000
PXDIR
1011
0.0
1021
0.0
1031
0.0
1002
}
1002
{
1000
PORI
1011
-110.0
1021
0.0
1031
0.0
1002
}
1002
{
1000
PINS
1011
-110.0
1021
0.0
1031
0.0
1002
}
1002
{
1000
HVAL
1000
40
1002
}
1002
{
1000
H
1070
     2
1002
}
1002
{
1000
WVAL
1000
110
1002
}
1002
{
1000
W
1070
     2
1002
}
1002
{
1000
C
1070
     1
1002
}
1001
GENIUS_GENODEF_13
1002
{
1000
HIER
1070
     0
1002
}
1002
{
1000
MANEDIT
1070
     0
1002
}
1002
{
1000
NOSEL
1070
     0
1002
}
1002
{
1000
BEHIND
1070
     0
1002
}
1002
{
1000
REACTOR
1002
}
1001
GENIUS_GENOBJ-N-REC_13
1002
{
1000
OWNER
1000
GEN
1002
}
  0
LINE
  5
1ABC
330
1AB8
100
AcDbEntity
  8
AM_BOR
 62
   211
100
AcDbLine
 10
-110.0
 20
40.00000000000001
 30
0.0
 11
-110.0
 21
0.0
 31
0.0
1001
GENIUS_GENREC_14
1002
{
1000
PYDIR
1011
-110.0
1021
40.0
1031
0.0
1002
}
1002
{
1000
PXDIR
1011
0.0
1021
0.0
1031
0.0
1002
}
1002
{
1000
PORI
1011
-110.0
1021
0.0
1031
0.0
1002
}
1002
{
1000
PINS
1011
-110.0
1021
0.0
1031
0.0
1002
}
1002
{
1000
HVAL
1000
40
1002
}
1002
{
1000
H
1070
     2
1002
}
1002
{
1000
WVAL
1000
110
1002
}
1002
{
1000
W
1070
     2
1002
}
1002
{
1000
C
1070
     1
1002
}
1001
GENIUS_GENODEF_13
1002
{
1000
HIER
1070
     0
1002
}
1002
{
1000
MANEDIT
1070
     0
1002
}
1002
{
1000
NOSEL
1070
     0
1002
}
1002
{
1000
BEHIND
1070
     0
1002
}
1002
{
1000
REACTOR
1002
}
1001
GENIUS_GENOBJ-N-REC_13
1002
{
1000
OWNER
1000
GEN
1002
}
  0
LINE
  5
1ABD
330
1AB8
100
AcDbEntity
  8
AM_BOR
 62
     5
100
AcDbLine
 10
-60.0
 20
9.999999999999992
 30
0.0
 11
0.0
 21
10.0
 31
0.0
1001
GENIUS_GENREC_14
1002
{
1000
PYDIR
1011
-110.0
1021
40.0
1031
0.0
1002
}
1002
{
1000
PXDIR
1011
0.0
1021
0.0
1031
0.0
1002
}
1002
{
1000
PORI
1011
-110.0
1021
0.0
1031
0.0
1002
}
1002
{
1000
PINS
1011
-110.0
1021
0.0
1031
0.0
1002
}
1002
{
1000
HVAL
1000
40
1002
}
1002
{
1000
H
1070
     2
1002
}
1002
{
1000
WVAL
1000
110
1002
}
1002
{
1000
W
1070
     2
1002
}
1002
{
1000
C
1070
     1
1002
}
  0
LINE
  5
1ABE
330
1AB8
100
AcDbEntity
  8
AM_BOR
 62
     5
100
AcDbLine
 10
-110.0
 20
19.0
 30
0.0
 11
0.0
 21
19.0
 31
0.0
1001
GENIUS_GENREC_14
1002
{
1000
PYDIR
1011
-110.0
1021
40.0
1031
0.0
1002
}
1002
{
1000
PXDIR
1011
0.0
1021
0.0
1031
0.0
1002
}
1002
{
1000
PORI
1011
-110.0
1021
0.0
1031
0.0
1002
}
1002
{
1000
PINS
1011
-110.0
1021
0.0
1031
0.0
1002
}
1002
{
1000
HVAL
1000
40
1002
}
1002
{
1000
H
1070
     2
1002
}
1002
{
1000
WVAL
1000
110
1002
}
1002
{
1000
W
1070
     2
1002
}
1002
{
1000
C
1070
     1
1002
}
1001
GENIUS_GENODEF_13
1002
{
1000
HIER
1070
     0
1002
}
1002
{
1000
MANEDIT
1070
     0
1002
}
1002
{
1000
NOSEL
1070
     0
1002
}
1002
{
1000
BEHIND
1070
     0
1002
}
1002
{
1000
REACTOR
1002
}
1001
GENIUS_GENOBJ-N-REC_13
1002
{
1000
OWNER
1000
GEN
1002
}
  0
LINE
  5
1ABF
330
1AB8
100
AcDbEntity
  8
AM_BOR
 62
     5
100
AcDbLine
 10
-110.0
 20
26.0
 30
0.0
 11
0.0
 21
26.0
 31
0.0
1001
GENIUS_GENREC_14
1002
{
1000
PYDIR
1011
-110.0
1021
40.0
1031
0.0
1002
}
1002
{
1000
PXDIR
1011
0.0
1021
0.0
1031
0.0
1002
}
1002
{
1000
PORI
1011
-110.0
1021
0.0
1031
0.0
1002
}
1002
{
1000
PINS
1011
-110.0
1021
0.0
1031
0.0
1002
}
1002
{
1000
HVAL
1000
40
1002
}
1002
{
1000
H
1070
     2
1002
}
1002
{
1000
WVAL
1000
110
1002
}
1002
{
1000
W
1070
     2
1002
}
1002
{
1000
C
1070
     1
1002
}
1001
GENIUS_GENODEF_13
1002
{
1000
HIER
1070
     0
1002
}
1002
{
1000
MANEDIT
1070
     0
1002
}
1002
{
1000
NOSEL
1070
     0
1002
}
1002
{
1000
BEHIND
1070
     0
1002
}
1002
{
1000
REACTOR
1002
}
1001
GENIUS_GENOBJ-N-REC_13
1002
{
1000
OWNER
1000
GEN
1002
}
  0
LINE
  5
1AC0
330
1AB8
100
AcDbEntity
  8
AM_BOR
 62
     5
100
AcDbLine
 10
-110.0
 20
33.0
 30
0.0
 11
0.0
 21
33.0
 31
0.0
1001
GENIUS_GENREC_14
1002
{
1000
PYDIR
1011
-110.0
1021
40.0
1031
0.0
1002
}
1002
{
1000
PXDIR
1011
0.0
1021
0.0
1031
0.0
1002
}
1002
{
1000
PORI
1011
-110.0
1021
0.0
1031
0.0
1002
}
1002
{
1000
PINS
1011
-110.0
1021
0.0
1031
0.0
1002
}
1002
{
1000
HVAL
1000
40
1002
}
1002
{
1000
H
1070
     2
1002
}
1002
{
1000
WVAL
1000
110
1002
}
1002
{
1000
W
1070
     2
1002
}
1002
{
1000
C
1070
     1
1002
}
1001
GENIUS_GENODEF_13
1002
{
1000
HIER
1070
     0
1002
}
1002
{
1000
MANEDIT
1070
     0
1002
}
1002
{
1000
NOSEL
1070
     0
1002
}
1002
{
1000
BEHIND
1070
     0
1002
}
1002
{
1000
REACTOR
1002
}
1001
GENIUS_GENOBJ-N-REC_13
1002
{
1000
OWNER
1000
GEN
1002
}
  0
LINE
  5
1AC1
330
1AB8
100
AcDbEntity
  8
AM_BOR
 62
     5
100
AcDbLine
 10
-85.0
 20
33.0
 30
0.0
 11
-85.0
 21
18.99999999999998
 31
0.0
1001
GENIUS_GENREC_14
1002
{
1000
PYDIR
1011
-110.0
1021
40.0
1031
0.0
1002
}
1002
{
1000
PXDIR
1011
0.0
1021
0.0
1031
0.0
1002
}
1002
{
1000
PORI
1011
-110.0
1021
0.0
1031
0.0
1002
}
1002
{
1000
PINS
1011
-110.0
1021
0.0
1031
0.0
1002
}
1002
{
1000
HVAL
1000
40
1002
}
1002
{
1000
H
1070
     2
1002
}
1002
{
1000
WVAL
1000
110
1002
}
1002
{
1000
W
1070
     2
1002
}
1002
{
1000
C
1070
     1
1002
}
1001
GENIUS_GENODEF_13
1002
{
1000
HIER
1070
     0
1002
}
1002
{
1000
MANEDIT
1070
     0
1002
}
1002
{
1000
NOSEL
1070
     0
1002
}
1002
{
1000
BEHIND
1070
     0
1002
}
1002
{
1000
REACTOR
1002
}
1001
GENIUS_GENOBJ-N-REC_13
1002
{
1000
OWNER
1000
GEN
1002
}
  0
LINE
  5
1AC2
330
1AB8
100
AcDbEntity
  8
AM_BOR
 62
     5
100
AcDbLine
 10
-60.0
 20
40.00000000000001
 30
0.0
 11
-60.0
 21
0.0
 31
0.0
1001
GENIUS_GENREC_14
1002
{
1000
PYDIR
1011
-110.0
1021
40.0
1031
0.0
1002
}
1002
{
1000
PXDIR
1011
0.0
1021
0.0
1031
0.0
1002
}
1002
{
1000
PORI
1011
-110.0
1021
0.0
1031
0.0
1002
}
1002
{
1000
PINS
1011
-110.0
1021
0.0
1031
0.0
1002
}
1002
{
1000
HVAL
1000
40
1002
}
1002
{
1000
H
1070
     2
1002
}
1002
{
1000
WVAL
1000
110
1002
}
1002
{
1000
W
1070
     2
1002
}
1002
{
1000
C
1070
     1
1002
}
1001
GENIUS_GENODEF_13
1002
{
1000
HIER
1070
     0
1002
}
1002
{
1000
MANEDIT
1070
     0
1002
}
1002
{
1000
NOSEL
1070
     0
1002
}
1002
{
1000
BEHIND
1070
     0
1002
}
1002
{
1000
REACTOR
1002
}
1001
GENIUS_GENOBJ-N-REC_13
1002
{
1000
OWNER
1000
GEN
1002
}
  0
LINE
  5
1AC3
330
1AB8
100
AcDbEntity
  8
AM_BOR
 62
     5
100
AcDbLine
 10
-20.0
 20
33.0
 30
0.0
 11
-20.0
 21
40.0
 31
0.0
1001
GENIUS_GENREC_14
1002
{
1000
PYDIR
1011
-110.0
1021
40.0
1031
0.0
1002
}
1002
{
1000
PXDIR
1011
0.0
1021
0.0
1031
0.0
1002
}
1002
{
1000
PORI
1011
-110.0
1021
0.0
1031
0.0
1002
}
1002
{
1000
PINS
1011
-110.0
1021
0.0
1031
0.0
1002
}
1002
{
1000
HVAL
1000
40
1002
}
1002
{
1000
H
1070
     2
1002
}
1002
{
1000
WVAL
1000
110
1002
}
1002
{
1000
W
1070
     2
1002
}
1002
{
1000
C
1070
     1
1002
}
1001
GENIUS_GENODEF_13
1002
{
1000
HIER
1070
     0
1002
}
1002
{
1000
MANEDIT
1070
     0
1002
}
1002
{
1000
NOSEL
1070
     0
1002
}
1002
{
1000
BEHIND
1070
     0
1002
}
1002
{
1000
REACTOR
1002
}
1001
GENIUS_GENOBJ-N-REC_13
1002
{
1000
OWNER
1000
GEN
1002
}
  0
LINE
  5
1AC4
330
1AB8
100
AcDbEntity
  8
AM_BOR
 62
     5
100
AcDbLine
 10
-40.0
 20
33.0
 30
0.0
 11
-40.0
 21
40.0
 31
0.0
1001
GENIUS_GENREC_14
1002
{
1000
PYDIR
1011
-110.0
1021
40.0
1031
0.0
1002
}
1002
{
1000
PXDIR
1011
0.0
1021
0.0
1031
0.0
1002
}
1002
{
1000
PORI
1011
-110.0
1021
0.0
1031
0.0
1002
}
1002
{
1000
PINS
1011
-110.0
1021
0.0
1031
0.0
1002
}
1002
{
1000
HVAL
1000
40
1002
}
1002
{
1000
H
1070
     2
1002
}
1002
{
1000
WVAL
1000
110
1002
}
1002
{
1000
W
1070
     2
1002
}
1002
{
1000
C
1070
     1
1002
}
1001
GENIUS_GENODEF_13
1002
{
1000
HIER
1070
     0
1002
}
1002
{
1000
MANEDIT
1070
     0
1002
}
1002
{
1000
NOSEL
1070
     0
1002
}
1002
{
1000
BEHIND
1070
     0
1002
}
1002
{
1000
REACTOR
1002
}
1001
GENIUS_GENOBJ-N-REC_13
1002
{
1000
OWNER
1000
GEN
1002
}
  0
LINE
  5
1AC5
330
1AB8
100
AcDbEntity
  8
AM_BOR
 62
     5
100
AcDbLine
 10
-80.0
 20
33.0
 30
0.0
 11
-80.0
 21
40.0
 31
0.0
1001
GENIUS_GENREC_14
1002
{
1000
PYDIR
1011
-110.0
1021
40.0
1031
0.0
1002
}
1002
{
1000
PXDIR
1011
0.0
1021
0.0
1031
0.0
1002
}
1002
{
1000
PORI
1011
-110.0
1021
0.0
1031
0.0
1002
}
1002
{
1000
PINS
1011
-110.0
1021
0.0
1031
0.0
1002
}
1002
{
1000
HVAL
1000
40
1002
}
1002
{
1000
H
1070
     2
1002
}
1002
{
1000
WVAL
1000
110
1002
}
1002
{
1000
W
1070
     2
1002
}
1002
{
1000
C
1070
     1
1002
}
1001
GENIUS_GENODEF_13
1002
{
1000
HIER
1070
     0
1002
}
1002
{
1000
MANEDIT
1070
     0
1002
}
1002
{
1000
NOSEL
1070
     0
1002
}
1002
{
1000
BEHIND
1070
     0
1002
}
1002
{
1000
REACTOR
1002
}
1001
GENIUS_GENOBJ-N-REC_13
1002
{
1000
OWNER
1000
GEN
1002
}
  0
TEXT
  5
1AC6
330
1AB8
100
AcDbEntity
  8
AM_BOR
 62
     2
100
AcDbText
 10
-57.4
 20
35.0
 30
0.0
 40
3.0
  1
単位 ｍｍ
 72
     4
 11
-50.0
 21
36.5
 31
0.0
100
AcDbText
  0
TEXT
  5
1AC7
330
1AB8
100
AcDbEntity
  8
AM_BOR
 62
     2
100
AcDbText
 10
-39.0
 20
35.0
 30
0.0
 40
3.0
  1
尺度
 41
0.9
 11
-39.0
 21
36.5
 31
0.0
100
AcDbText
 73
     2
  0
TEXT
  5
1AC8
330
1AB8
100
AcDbEntity
  8
AM_BOR
 62
     2
100
AcDbText
 10
-19.0
 20
35.0
 30
0.0
 40
3.0
  1
日付
 41
0.9
 11
-19.0
 21
36.5
 31
0.0
100
AcDbText
 73
     2
  0
TEXT
  5
1AC9
330
1AB8
100
AcDbEntity
  8
AM_BOR
 62
     2
100
AcDbText
 10
-76.79999999999999
 20
34.99999999999999
 30
0.0
 40
3.0
  1
第３角法
 72
     4
 11
-70.0
 21
36.49999999999999
 31
0.0
100
AcDbText
  0
TEXT
  5
1ACA
330
1AB8
100
AcDbEntity
  8
AM_BOR
 62
     2
100
AcDbText
 10
-59.0
 20
29.5
 30
0.0
 40
3.0
  1
材 質
 11
-59.0
 21
31.0
 31
0.0
100
AcDbText
 73
     2
  0
TEXT
  5
1ACB
330
1AB8
100
AcDbEntity
  8
AM_BOR
 62
     2
100
AcDbText
 10
-59.0
 20
22.5
 30
0.0
 40
3.0
  1
備 考
 11
-59.0
 21
24.0
 31
0.0
100
AcDbText
 73
     2
  0
TEXT
  5
1ACC
330
1AB8
100
AcDbEntity
  8
AM_BOR
 62
     2
100
AcDbText
 10
-59.0
 20
15.5
 30
0.0
 40
3.0
  1
品 名
 11
-59.0
 21
17.0
 31
0.0
100
AcDbText
 73
     2
  0
TEXT
  5
1ACD
330
1AB8
100
AcDbEntity
  8
AM_BOR
 62
     2
100
AcDbText
 10
-59.0
 20
6.499999999999992
 30
0.0
 40
3.0
  1
図 番
 11
-59.0
 21
7.999999999999992
 31
0.0
100
AcDbText
 73
     2
  0
TEXT
  5
1ACE
330
1AB8
100
AcDbEntity
  8
AM_BOR
 62
     2
100
AcDbText
 10
-109.0
 20
29.5
 30
0.0
 40
3.0
  1
承認
 11
-109.0
 21
31.0
 31
0.0
100
AcDbText
 73
     2
  0
TEXT
  5
1ACF
330
1AB8
100
AcDbEntity
  8
AM_BOR
 62
     2
100
AcDbText
 10
-109.0
 20
22.5
 30
0.0
 40
3.0
  1
設計
 11
-109.0
 21
24.0
 31
0.0
100
AcDbText
 73
     2
  0
TEXT
  5
1AD0
330
1AB8
100
AcDbEntity
  8
AM_BOR
 62
     2
100
AcDbText
 10
-84.0
 20
22.5
 30
0.0
 40
3.0
  1
製図
 11
-84.0
 21
24.0
 31
0.0
100
AcDbText
 73
     2
  0
TEXT
  5
1AD1
330
1AB8
100
AcDbEntity
  8
AM_BOR
 62
     2
100
AcDbText
 10
-84.0
 20
29.5
 30
0.0
 40
3.0
  1
検図
 11
-84.0
 21
31.0
 31
0.0
100
AcDbText
 73
     2
  0
ATTDEF
  5
1AD2
330
1AB8
100
AcDbEntity
  8
AM_BOR
100
AcDbText
 10
-49.48020001333898
 20
12.75
 30
0.0
 40
3.5
  1

 11
-49.48020001333898
 21
14.5
 31
0.0
100
AcDbAttributeDefinition
  3
品名
  2
HINMEI{14}
 70
     0
 74
     2
  0
ATTDEF
  5
1AD3
330
1AB8
100
AcDbEntity
  8
AM_BOR
100
AcDbText
 10
-49.48020001333898
 20
3.249999999999992
 30
0.0
 40
3.5
  1

 11
-49.48020001333898
 21
4.999999999999992
 31
0.0
100
AcDbAttributeDefinition
  3
図番
  2
ZUBAN{14}
 70
     0
 74
     2
  0
ATTDEF
  5
1AD4
330
1AB8
100
AcDbEntity
  8
AM_BOR
 62
     2
100
AcDbText
 10
-11.91705654530994
 20
35.0
 30
0.0
 40
3.0
  1

 41
0.8
 11
-11.91705654530994
 21
36.5
 31
0.0
100
AcDbAttributeDefinition
  3
日付
  2
GEN-TITLE-DAT{3.5}
 70
     0
 74
     2
  0
ATTDEF
  5
1AD5
330
1AB8
100
AcDbEntity
  8
AM_BOR
 62
     2
100
AcDbText
 10
-71.63012018472975
 20
20.00000000000001
 30
0.0
 40
3.0
  1
水 田
 72
     4
 11
-67.63012018472974
 21
21.50000000000002
 31
0.0
100
AcDbAttributeDefinition
  3
製図
  2
SEIZU
 70
     0
  0
ATTDEF
  5
1AD6
330
1AB8
100
AcDbEntity
  8
AM_BOR
 62
     2
100
AcDbText
 10
-31.91705654530995
 20
35.0
 30
0.0
 40
3.0
  1

 11
-31.91705654530995
 21
36.5
 31
0.0
100
AcDbAttributeDefinition
  3
尺度
  2
GEN-TITLE-SCA
 70
     0
 74
     2
  0
LINE
  5
1AD7
330
1AB8
100
AcDbEntity
  8
0
100
AcDbLine
 10
-106.9502221859465
 20
14.71456568209314
 30
0.0
 11
-107.7139711131768
 21
11.16237652835879
 31
0.0
  0
LINE
  5
1AD8
330
1AB8
100
AcDbEntity
  8
0
100
AcDbLine
 10
-107.7139711131768
 20
11.16237652835879
 30
0.0
 11
-107.6697551010107
 21
11.22470827233807
 31
0.0
  0
ELLIPSE
  5
1AD9
330
1AB8
100
AcDbEntity
  8
0
100
AcDbEllipse
 10
-106.5198686826232
 20
9.133166589319488
 30
0.0
 11
0.0200858413762701
 21
2.795177724472429
 31
0.0
210
0.0
220
0.0
230
0.9999999999999998
 40
0.6250197778053533
 41
-1.051714224928873
 42
0.7298517778971401
1001
GENIUS_GENODEF_13
1002
{
1000
HIER
1070
     0
1002
}
1002
{
1000
MANEDIT
1070
     0
1002
}
1002
{
1000
NOSEL
1070
     0
1002
}
1002
{
1000
BEHIND
1070
     0
1002
}
1002
{
1000
REACTOR
1002
}
1001
GENIUS_GENOBJ-N-FIL_13
1002
{
1000
OWNER
1000
GEN
1002
}
  0
ELLIPSE
  5
1ADA
330
1AB8
100
AcDbEntity
  8
0
100
AcDbEllipse
 10
-105.2984958385996
 20
13.8219417489321
 30
0.0
 11
0.0200858413762916
 21
2.795177724472415
 31
0.0
210
0.0
220
0.0
230
1.0
 40
0.6250197778053527
 41
-1.051714224928867
 42
1.250253596044828
1001
GENIUS_GENODEF_13
1002
{
1000
HIER
1070
     0
1002
}
1002
{
1000
MANEDIT
1070
     0
1002
}
1002
{
1000
NOSEL
1070
     0
1002
}
1002
{
1000
BEHIND
1070
     0
1002
}
1002
{
1000
REACTOR
1002
}
1001
GENIUS_GENOBJ-N-FIL_13
1002
{
1000
OWNER
1000
GEN
1002
}
  0
LINE
  5
1ADB
330
1AB8
100
AcDbEntity
  8
0
100
AcDbLine
 10
-98.48721298302093
 20
8.077457208786752
 30
0.0
 11
-99.45177360188811
 21
4.065819878065248
 31
0.0
  0
ELLIPSE
  5
1ADC
330
1AB8
100
AcDbEntity
  8
0
100
AcDbEllipse
 10
-101.0818809708247
 20
5.053412867376919
 30
0.0
 11
0.0200858413762853
 21
2.795177724472413
 31
0.0
210
0.0
220
0.0
230
1.0
 40
0.6250197778053547
 41
2.089878428660925
 42
4.355766148231805
1001
GENIUS_GENODEF_13
1002
{
1000
HIER
1070
     0
1002
}
1002
{
1000
MANEDIT
1070
     0
1002
}
1002
{
1000
NOSEL
1070
     0
1002
}
1002
{
1000
BEHIND
1070
     0
1002
}
1002
{
1000
REACTOR
1002
}
1001
GENIUS_GENOBJ-N-FIL_13
1002
{
1000
OWNER
1000
GEN
1002
}
  0
LINE
  5
1ADD
330
1AB8
100
AcDbEntity
  8
0
100
AcDbLine
 10
-98.48721298302093
 20
8.077457208786752
 30
0.0
 11
-98.66382720839389
 21
7.801834007856294
 31
0.0
  0
ELLIPSE
  5
1ADE
330
1AB8
100
AcDbEntity
  8
0
100
AcDbEllipse
 10
-99.87931293102301
 20
9.796066964505511
 30
0.0
 11
0.0200858413762724
 21
2.795177724472415
 31
0.0
210
0.0
220
0.0
230
0.9999999999999998
 40
0.6250197778053552
 41
2.08987842866092
 42
3.922474143254961
1001
GENIUS_GENODEF_13
1002
{
1000
HIER
1070
     0
1002
}
1002
{
1000
MANEDIT
1070
     0
1002
}
1002
{
1000
NOSEL
1070
     0
1002
}
1002
{
1000
BEHIND
1070
     0
1002
}
1002
{
1000
REACTOR
1002
}
1001
GENIUS_GENOBJ-N-FIL_13
1002
{
1000
OWNER
1000
GEN
1002
}
  0
HATCH
  5
1ADF
330
1AB8
100
AcDbEntity
  8
AM_8
100
AcDbHatch
 10
0.0
 20
0.0
 30
0.0
210
0.0
220
0.0
230
1.0
  2
SOLID
 70
     1
 71
     0
 91
        1
 92
        1
 93
        2
 72
     3
 10
-106.7638987916396
 20
4.957358478318376
 11
0.0000000000000547
 21
2.56276973145977
 40
0.8333333333333941
 50
-77.14069946214277
 51
264.4007371808275
 73
     1
 72
     3
 10
-106.7638987916396
 20
4.957358478318376
 11
-0.0000000000003928
 21
2.562769731461267
 40
0.8333333333328997
 50
264.4007371808174
 51
282.8593005378472
 73
     1
 97
        0
 75
     0
 76
     1
 98
        1
 10
65.20293740923941
 20
-32.16820874956388
1001
GENIUS_GENODEF_13
1002
{
1000
HIER
1070
     0
1002
}
1002
{
1000
MANEDIT
1070
     0
1002
}
1002
{
1000
NOSEL
1070
     0
1002
}
1002
{
1000
BEHIND
1070
     0
1002
}
1002
{
1000
REACTOR
1002
}
1001
GENIUS_GENOBJ-N-HTC_13
1002
{
1000
OWNER
1000
GEN
1002
}
1001
GENIUS_GENHATCH_13
1002
{
1000
DATA
1040
0.0
1042
0.0015799698758396
1000
SOLID
1070
     0
1011
70.0136537122014
1021
-14.7540192633455
1031
0.0
1002
}
1002
{
1000
UCS
1010
0.0
1020
0.0
1030
0.0
1010
1.0
1020
0.0
1030
0.0
1010
0.0
1020
1.0
1030
0.0
1002
}
  0
ELLIPSE
  5
1AE0
330
1AB8
100
AcDbEntity
  8
0
100
AcDbEllipse
 10
-106.7638987916396
 20
4.957358478318417
 30
0.0
 11
0.0000000000000006
 21
2.562769731459943
 31
0.0
210
0.0
220
0.0
230
1.0
 40
0.8333333333333353
 41
-1.570796326794896
 42
4.712388980384689
  0
HATCH
  5
1AE1
330
1AB8
100
AcDbEntity
  8
AM_8
100
AcDbHatch
 10
0.0
 20
0.0
 30
0.0
210
0.0
220
0.0
230
1.0
  2
SOLID
 70
     1
 71
     0
 91
        1
 92
        1
 93
       10
 72
     1
 10
-106.9502221859465
 20
14.71456568209311
 11
-107.7139711131768
 21
11.16237652835879
 72
     1
 10
-107.7139711131768
 20
11.16237652835879
 11
-107.6697551010108
 21
11.22470827233809
 72
     3
 10
-106.5198686826232
 20
9.133166589319488
 11
0.0200858413762859
 21
2.795177724472421
 40
0.6250197778053525
 50
-29.21280058452436
 51
47.56891328106517
 73
     0
 72
     1
 10
-104.9929922696577
 20
10.5089073790986
 11
-102.6087573837903
 21
3.677672077597827
 72
     3
 10
-101.0818809708247
 20
5.053412867376919
 11
0.0200858413762844
 21
2.79517772447242
 40
0.625019777805353
 50
132.4310867189347
 51
239.202331800838
 73
     1
 72
     1
 10
-99.45177360188809
 20
4.065819878065248
 11
-98.48721298302093
 21
8.077457208786761
 72
     1
 10
-98.48721298302095
 20
8.077457208786752
 11
-98.66382720839393
 21
7.801834007856288
 72
     3
 10
-99.87931293102301
 20
9.796066964505511
 11
0.0200858413762811
 21
2.795177724472416
 40
0.6250197778053536
 50
148.2259629226598
 51
227.5689132810653
 73
     0
 72
     1
 10
-101.4061893439886
 20
8.420326174726406
 11
-103.771619425634
 21
15.19768253871121
 72
     3
 10
-105.2984958385996
 20
13.8219417489321
 11
0.02008584137625
 21
2.795177724472417
 40
0.6250197778053583
 50
-47.56891328106589
 51
62.02409398278944
 73
     1
 97
        0
 75
     0
 76
     1
 98
        1
 10
65.20293740923941
 20
-32.16820874956388
1001
GENIUS_GENODEF_13
1002
{
1000
HIER
1070
     0
1002
}
1002
{
1000
MANEDIT
1070
     0
1002
}
1002
{
1000
NOSEL
1070
     0
1002
}
1002
{
1000
BEHIND
1070
     0
1002
}
1002
{
1000
REACTOR
1002
}
1001
GENIUS_GENOBJ-N-HTC_13
1002
{
1000
OWNER
1000
GEN
1002
}
1001
GENIUS_GENHATCH_13
1002
{
1000
DATA
1040
0.0
1042
0.0015799698758396
1000
SOLID
1070
     0
1011
74.07735655451816
1021
-11.90112763631223
1031
0.0
1002
}
1002
{
1000
UCS
1010
0.0
1020
0.0
1030
0.0
1010
1.0
1020
0.0
1030
0.0
1010
0.0
1020
1.0
1030
0.0
1002
}
  0
LINE
  5
1AE2
330
1AB8
100
AcDbEntity
  8
0
100
AcDbLine
 10
-104.9929922696577
 20
10.5089073790986
 30
0.0
 11
-102.6087573837903
 21
3.677672077597847
 31
0.0
  0
LINE
  5
1AE3
330
1AB8
100
AcDbEntity
  8
0
100
AcDbLine
 10
-101.4061893439886
 20
8.420326174726406
 30
0.0
 11
-103.771619425634
 21
15.1976825387112
 31
0.0
  0
TEXT
  5
1AE4
330
1AB8
100
AcDbEntity
  8
0
100
AcDbText
 10
-92.04358977334541
 20
2.736280326823534
 30
0.0
 40
1.397647058823528
  1
ASOH   CO.LTD
 41
2.222222222222219
  7
ｽﾀｲﾙ1
100
AcDbText
  0
TEXT
  5
1AE5
330
1AB8
100
AcDbEntity
  8
0
100
AcDbText
 10
-96.37601713265375
 20
7.065690057310197
 30
0.0
 40
9.355420606948992
  1
アソー株式会社
 41
0.4444444444444381
  7
ｽﾀｲﾙ1
100
AcDbText
  0
ATTDEF
  5
1AE6
330
1AB8
100
AcDbEntity
  8
AM_BOR
 62
     2
100
AcDbText
 10
-98.50320560717072
 20
20.29902073441097
 30
0.0
 40
3.0
  1
水 田
 72
     4
 11
-94.50320560717072
 21
21.79902073441097
 31
0.0
100
AcDbAttributeDefinition
  3
設計
  2
SEIZU
 70
     0
  0
ATTDEF
  5
1AE7
330
1AB8
100
AcDbEntity
  8
AM_BOR
 62
     2
100
AcDbText
 10
-97.04186970375872
 20
27.05583171251668
 30
0.0
 40
3.0
  1
樫井
 72
     4
 11
-93.8418697037587
 21
28.55583171251668
 31
0.0
100
AcDbAttributeDefinition
  3
承認
  2
SYOUNIN
 70
     0
  0
ATTDEF
  5
1AE8
330
1AB8
100
AcDbEntity
  8
AM_BOR
 62
     2
100
AcDbText
 10
-72.04186970375871
 20
27.05583171251668
 30
0.0
 40
3.0
  1
樫井
 72
     4
 11
-68.8418697037587
 21
28.55583171251668
 31
0.0
100
AcDbAttributeDefinition
  3
承認
  2
SYOUNIN
 70
     0
  0
ENDBLK
  5
1AEB
330
1AB8
100
AcDbEntity
  8
0
100
AcDbBlockEnd
  0
BLOCK
  5
1C2E
330
1C2A
100
AcDbEntity
  8
0
100
AcDbBlockBegin
  2
_Open
 70
     0
 10
0.0
 20
0.0
 30
0.0
  3
_Open
  1

  0
LINE
  5
1C2B
330
1C2A
100
AcDbEntity
  8
0
  6
ByBlock
 62
     0
370
    -2
100
AcDbLine
 10
-1.0
 20
0.1666666666666666
 30
0.0
 11
0.0
 21
0.0
 31
0.0
  0
LINE
  5
1C2C
330
1C2A
100
AcDbEntity
  8
0
  6
ByBlock
 62
     0
370
    -2
100
AcDbLine
 10
-1.0
 20
-0.1666666666666666
 30
0.0
 11
0.0
 21
0.0
 31
0.0
  0
LINE
  5
1C2D
330
1C2A
100
AcDbEntity
  8
0
  6
ByBlock
 62
     0
370
    -2
100
AcDbLine
 10
0.0
 20
0.0
 30
0.0
 11
-1.0
 21
0.0
 31
0.0
  0
ENDBLK
  5
1C2F
330
1C2A
100
AcDbEntity
  8
0
100
AcDbBlockEnd
  0
BLOCK
  5
27E3
330
27E2
100
AcDbEntity
  8
0
100
AcDbBlockBegin
  2
*D15
 70
     1
 10
0.0
 20
0.0
 30
0.0
  3
*D15
  1

  0
LINE
  5
27EE
330
27E2
100
AcDbEntity
  8
AM_5
100
AcDbLine
 10
159.0651382224963
 20
155.3531167616513
 30
0.0
 11
164.5651382224966
 21
155.3531167616513
 31
0.0
  0
LINE
  5
27EF
330
27E2
100
AcDbEntity
  8
AM_5
100
AcDbLine
 10
159.0651382224963
 20
147.3531167616514
 30
0.0
 11
164.5651382224966
 21
147.3531167616514
 31
0.0
  0
LINE
  5
27F0
330
27E2
100
AcDbEntity
  8
AM_5
100
AcDbLine
 10
164.0651382224966
 20
154.1031167616513
 30
0.0
 11
164.0651382224966
 21
148.6031167616514
 31
0.0
  0
INSERT
  5
27F1
330
27E2
100
AcDbEntity
  8
AM_5
100
AcDbBlockReference
  2
_Open30
 10
164.0651382224966
 20
155.3531167616513
 30
0.0
 41
1.25
 42
1.25
 43
1.25
 50
90.0
  0
INSERT
  5
27F2
330
27E2
100
AcDbEntity
  8
AM_5
100
AcDbBlockReference
  2
_Open30
 10
164.0651382224966
 20
147.3531167616514
 30
0.0
 41
1.25
 42
1.25
 43
1.25
 50
270.0
  0
MTEXT
  5
27F3
330
27E2
100
AcDbEntity
  8
AM_5
 62
     2
100
AcDbMText
 10
162.4401382224965
 20
151.3531167616514
 30
0.0
 40
1.75
 41
0.0
 71
     5
 72
     1
  1
%%c8
 11
0.0000000000000001
 21
1.0
 31
0.0
 73
     1
 44
1.0
1001
ACAD
1000
MTEXTBEGIN
1070
    73
1070
     1
1070
    44
1040
1.0
1070
    74
1070
     0
1000
MTEXTEND
  0
POINT
  5
27F4
330
27E2
100
AcDbEntity
  8
Defpoints
 62
     0
100
AcDbPoint
 10
158.5651382224963
 20
155.3531167616513
 30
0.0
  0
POINT
  5
27F5
330
27E2
100
AcDbEntity
  8
Defpoints
 62
     0
100
AcDbPoint
 10
158.5651382224963
 20
147.3531167616514
 30
0.0
  0
POINT
  5
27F6
330
27E2
100
AcDbEntity
  8
Defpoints
 62
     0
100
AcDbPoint
 10
164.0651382224966
 20
147.3531167616514
 30
0.0
  0
ENDBLK
  5
27E4
330
27E2
100
AcDbEntity
  8
0
100
AcDbBlockEnd
  0
BLOCK
  5
2BA6
330
2B9F
100
AcDbEntity
  8
0
100
AcDbBlockBegin
  2
*S17
 70
     1
 10
0.0
 20
0.0
 30
0.0
  3
*S17
  1

  0
LINE
  5
2BA0
330
2B9F
100
AcDbEntity
  8
AM_5
100
AcDbLine
 10
69.02693994139948
 20
-22.28940560035522
 30
0.0
 11
30.85943994139944
 21
-22.28940560035522
 31
0.0
  0
LINE
  5
2BA1
330
2B9F
100
AcDbEntity
  8
AM_5
100
AcDbLine
 10
30.85943994139944
 20
-22.28940560035522
 30
0.0
 11
25.42152946609455
 21
-5.498380781690737
 31
0.0
  0
LINE
  5
2BA2
330
2B9F
100
AcDbEntity
  8
AM_5
  6
Continuous
100
AcDbLine
 10
25.42152946609455
 20
-5.498380781690739
 30
0.0
 11
24.93626661664092
 21
-4.0
 31
0.0
  0
LINE
  5
2BA3
330
2B9F
100
AcDbEntity
  8
AM_5
  6
Continuous
100
AcDbLine
 10
25.61879503746094
 20
-5.434494715858835
 30
0.0
 11
24.93626661664092
 21
-4.0
 31
0.0
  0
LINE
  5
2BA4
330
2B9F
100
AcDbEntity
  8
AM_5
  6
Continuous
100
AcDbLine
 10
24.93626661664092
 20
-4.0
 30
0.0
 11
25.22426389472815
 21
-5.562266847522644
 31
0.0
  0
MTEXT
  5
2BA5
330
2B9F
100
AcDbEntity
  8
AM_5
 62
     2
100
AcDbMText
 10
31.64693994139947
 20
-21.50190560035523
 30
0.0
 40
1.575
 41
0.0
 71
     7
 72
     5
  1
適用チューブ外径です。\P適用チューブは、ナイロン・ポリウレタン製
  7
ACJISTS
 73
     1
 44
1.0
1001
ACAD
1000
MTEXTBEGIN
1070
    73
1070
     1
1070
    44
1040
1.0
1070
    74
1070
     0
1000
MTEXTEND
  0
ENDBLK
  5
2BA7
330
2B9F
100
AcDbEntity
  8
0
100
AcDbBlockEnd
  0
ENDSEC
  0
SECTION
  2
ENTITIES
  0
LINE
  5
28A
330
1F
100
AcDbEntity
  8
AM_0
100
AcDbLine
 10
133.4651382224955
 20
161.8531167616511
 30
0.0
 11
133.4651382224962
 21
160.6031167616514
 31
0.0
  0
LINE
  5
293
330
1F
100
AcDbEntity
  8
AM_0
100
AcDbLine
 10
121.6651382224955
 20
161.8531167616511
 30
0.0
 11
121.6651382224955
 21
160.6031167616513
 31
0.0
  0
POINT
  5
571
330
1F
100
AcDbEntity
  8
0
 60
     1
100
AcDbPoint
 10
-151.4269958492301
 20
-99.50666812047797
 30
0.0
1001
GENIUS_GENOBJ-NBEHI-BHF_13
1002
{
1000
OWNER
1000
GENBEHI
1002
}
1001
GENIUS_GENOENT_13
1002
{
1000
MYREF
1005
571
1002
}
1002
{
1000
GRP
1005
0
1002
}
1001
GENIUS_GENOLIS_13
1002
{
1000
ENT
1005
562
1002
}
1001
GENIUS_GENODEF_13
1002
{
1000
HIER
1070
     1
1002
}
1002
{
1000
MANEDIT
1070
     0
1002
}
1002
{
1000
NOSEL
1070
     1
1002
}
1002
{
1000
BEHIND
1070
     0
1002
}
1002
{
1000
REACTOR
1002
}
1001
GENIUS_GENBH_13
1002
{
1000
OIUMAP
1000
OIU
1002
}
1002
{
1000
FLAGS
1070
    32
1002
}
1002
{
1000
BGO
1005
0
1002
}
  0
LINE
  5
662
330
1F
100
AcDbEntity
  8
0
100
AcDbLine
 10
115.6651382224961
 20
205.0267631422577
 30
0.0
 11
115.6651382224961
 21
212.7767631422577
 31
0.0
  0
LINE
  5
663
330
1F
100
AcDbEntity
  8
0
100
AcDbLine
 10
116.1651382224961
 20
213.2767631422577
 30
0.0
 11
127.5651382224961
 21
213.2767631422577
 31
0.0
  0
LINE
  5
664
330
1F
100
AcDbEntity
  8
0
100
AcDbLine
 10
127.5651382224961
 20
213.2767631422577
 30
0.0
 11
139.0651382224961
 21
213.2767631422578
 31
0.0
  0
ARC
  5
694
330
1F
100
AcDbEntity
  8
0
100
AcDbCircle
 10
125.9221265985677
 20
209.1517631422577
 30
0.0
 40
10.25698837607156
100
AcDbArc
 50
156.2864175266652
 51
199.2107576032267
  0
ARC
  5
6C0
330
1F
100
AcDbEntity
  8
0
100
AcDbCircle
 10
111.4081498464246
 20
209.1517631422577
 30
0.0
 40
10.25698837607156
100
AcDbArc
 50
0.9600597920648146
 51
23.71358247333473
  0
LINE
  5
6CB
330
1F
100
AcDbEntity
  8
0
100
AcDbLine
 10
121.2539705611678
 20
212.0267631422577
 30
0.0
 11
125.4939067047756
 21
212.0267631422577
 31
0.0
  0
LINE
  5
6D0
330
1F
100
AcDbEntity
  8
0
100
AcDbLine
 10
133.8763058838244
 20
212.0267631422577
 30
0.0
 11
129.6363697402165
 21
212.0267631422577
 31
0.0
  0
ARC
  5
6D1
330
1F
100
AcDbEntity
  8
0
100
AcDbCircle
 10
143.7221265985676
 20
209.1517631422577
 30
0.0
 40
10.25698837607156
100
AcDbArc
 50
156.2864175266652
 51
170.6674617881791
  0
ARC
  5
6D2
330
1F
100
AcDbEntity
  8
0
100
AcDbCircle
 10
129.3081498464246
 20
209.1517631422577
 30
0.0
 40
10.25698837607156
100
AcDbArc
 50
1.8778427777954
 51
23.71358247333473
  0
LINE
  5
6E9
330
1F
100
AcDbEntity
  8
0
100
AcDbLine
 10
115.6651382224961
 20
205.7767631422577
 30
0.0
 11
120.3037678284176
 21
205.7767631422577
 31
0.0
  0
ARC
  5
703
330
1F
100
AcDbEntity
  8
0
100
AcDbCircle
 10
139.0651382224961
 20
212.7767631422578
 30
0.0
 40
0.5
100
AcDbArc
 50
0.0
 51
90.0
1001
GENIUS_GENODEF_13
1002
{
1000
HIER
1070
     0
1002
}
1002
{
1000
MANEDIT
1070
     0
1002
}
1002
{
1000
NOSEL
1070
     0
1002
}
1002
{
1000
BEHIND
1070
     0
1002
}
1002
{
1000
REACTOR
1002
}
1001
GENIUS_GENOBJ-N-FIL_13
1002
{
1000
OWNER
1000
GEN
1002
}
  0
ARC
  5
705
330
1F
100
AcDbEntity
  8
0
100
AcDbCircle
 10
116.1651382224961
 20
212.7767631422577
 30
0.0
 40
0.5
100
AcDbArc
 50
90.0
 51
180.0
1001
GENIUS_GENODEF_13
1002
{
1000
HIER
1070
     0
1002
}
1002
{
1000
MANEDIT
1070
     0
1002
}
1002
{
1000
NOSEL
1070
     0
1002
}
1002
{
1000
BEHIND
1070
     0
1002
}
1002
{
1000
REACTOR
1002
}
1001
GENIUS_GENOBJ-N-FIL_13
1002
{
1000
OWNER
1000
GEN
1002
}
  0
ARC
  5
706
330
1F
100
AcDbEntity
  8
0
100
AcDbCircle
 10
111.4081498464246
 20
200.9017631422577
 30
0.0
 40
10.25698837607156
100
AcDbArc
 50
336.2864175266653
 51
359.0399402079344
  0
LINE
  5
707
330
1F
100
AcDbEntity
  8
0
100
AcDbLine
 10
121.2539705611678
 20
198.0267631422577
 30
0.0
 11
125.493906704775
 21
198.0267631422577
 31
0.0
  0
LINE
  5
708
330
1F
100
AcDbEntity
  8
0
100
AcDbLine
 10
116.1651382224961
 20
196.7767631422577
 30
0.0
 11
127.5651382224961
 21
196.7767631422577
 31
0.0
  0
LINE
  5
709
330
1F
100
AcDbEntity
  8
0
100
AcDbLine
 10
115.6651382224961
 20
205.0267631422577
 30
0.0
 11
115.6651382224961
 21
197.2767631422577
 31
0.0
  0
ARC
  5
70A
330
1F
100
AcDbEntity
  8
0
100
AcDbCircle
 10
125.9221265985677
 20
200.9017631422577
 30
0.0
 40
10.25698837607156
100
AcDbArc
 50
160.7892423967732
 51
203.7135824733347
  0
ARC
  5
70B
330
1F
100
AcDbEntity
  8
0
100
AcDbCircle
 10
116.1651382224961
 20
197.2767631422577
 30
0.0
 40
0.5
100
AcDbArc
 50
180.0
 51
270.0
1001
GENIUS_GENODEF_13
1002
{
1000
HIER
1070
     0
1002
}
1002
{
1000
MANEDIT
1070
     0
1002
}
1002
{
1000
NOSEL
1070
     0
1002
}
1002
{
1000
BEHIND
1070
     0
1002
}
1002
{
1000
REACTOR
1002
}
1001
GENIUS_GENOBJ-N-FIL_13
1002
{
1000
OWNER
1000
GEN
1002
}
  0
LINE
  5
70C
330
1F
100
AcDbEntity
  8
0
100
AcDbLine
 10
115.6651382224961
 20
204.2767631422577
 30
0.0
 11
120.3037678284175
 21
204.2767631422577
 31
0.0
  0
LINE
  5
70D
330
1F
100
AcDbEntity
  8
0
100
AcDbLine
 10
127.5651382224961
 20
196.7767631422577
 30
0.0
 11
139.0651382224961
 21
196.7767631422577
 31
0.0
  0
ARC
  5
70E
330
1F
100
AcDbEntity
  8
0
100
AcDbCircle
 10
143.7221265985676
 20
200.9017631422577
 30
0.0
 40
10.25698837607156
100
AcDbArc
 50
189.3325382118218
 51
203.7135824733347
  0
LINE
  5
70F
330
1F
100
AcDbEntity
  8
0
100
AcDbLine
 10
133.8763058838244
 20
198.0267631422577
 30
0.0
 11
129.6363697402171
 21
198.0267631422577
 31
0.0
  0
ARC
  5
711
330
1F
100
AcDbEntity
  8
0
100
AcDbCircle
 10
129.3081498464246
 20
200.9017631422577
 30
0.0
 40
10.25698837607156
100
AcDbArc
 50
336.2864175266653
 51
358.1221572222035
  0
ARC
  5
714
330
1F
100
AcDbEntity
  8
0
100
AcDbCircle
 10
139.0651382224961
 20
197.2767631422577
 30
0.0
 40
0.5
100
AcDbArc
 50
270.0
 51
0.0
1001
GENIUS_GENODEF_13
1002
{
1000
HIER
1070
     0
1002
}
1002
{
1000
MANEDIT
1070
     0
1002
}
1002
{
1000
NOSEL
1070
     0
1002
}
1002
{
1000
BEHIND
1070
     0
1002
}
1002
{
1000
REACTOR
1002
}
1001
GENIUS_GENOBJ-N-FIL_13
1002
{
1000
OWNER
1000
GEN
1002
}
  0
LINE
  5
73E
330
1F
100
AcDbEntity
  8
AM_7
100
AcDbLine
 10
114.1651382224961
 20
205.0267631422577
 30
0.0
 11
169.0651382224962
 21
205.0267631422576
 31
0.0
1001
GENIUS_GENODEF_13
1002
{
1000
HIER
1070
     0
1002
}
1002
{
1000
MANEDIT
1070
     0
1002
}
1002
{
1000
NOSEL
1070
     0
1002
}
1002
{
1000
BEHIND
1070
     0
1002
}
1002
{
1000
REACTOR
1002
}
1001
GENIUS_GENOBJ-N-CEN_13
1002
{
1000
OWNER
1000
GEN
1002
}
  0
LINE
  5
74A
330
1F
100
AcDbEntity
  8
AM_7
100
AcDbLine
 10
127.5651382224961
 20
215.5267631422578
 30
0.0
 11
127.5651382224961
 21
194.5267631422576
 31
0.0
1001
GENIUS_GENODEF_13
1002
{
1000
HIER
1070
     0
1002
}
1002
{
1000
MANEDIT
1070
     0
1002
}
1002
{
1000
NOSEL
1070
     0
1002
}
1002
{
1000
BEHIND
1070
     0
1002
}
1002
{
1000
REACTOR
1002
}
1001
GENIUS_GENOBJ-N-CEN_13
1002
{
1000
OWNER
1000
GEN
1002
}
  0
ARC
  5
1692
330
1F
100
AcDbEntity
  8
AM_0
100
AcDbCircle
 10
127.565138222496
 20
205.0267631422576
 30
0.0
 40
7.299999999999982
100
AcDbArc
 50
15.68824833011467
 51
344.3117516698852
  0
CIRCLE
  5
1693
330
1F
100
AcDbEntity
  8
AM_0
100
AcDbCircle
 10
127.5651382224961
 20
205.0267631422577
 30
0.0
 40
5.5
  0
LINE
  5
1694
330
1F
100
AcDbEntity
  8
AM_0
100
AcDbLine
 10
121.5651382224961
 20
205.0267631422576
 30
0.0
 11
121.5651382224961
 21
206.6767631422577
 31
0.0
  0
LINE
  5
1695
330
1F
100
AcDbEntity
  8
AM_0
100
AcDbLine
 10
121.5651382224961
 20
203.3767631422576
 30
0.0
 11
122.3184726147029
 21
203.3767631422576
 31
0.0
  0
LINE
  5
1696
330
1F
100
AcDbEntity
  8
AM_0
100
AcDbLine
 10
121.5651382224961
 20
205.0267631422576
 30
0.0
 11
121.5651382224961
 21
203.3767631422576
 31
0.0
  0
LINE
  5
1697
330
1F
100
AcDbEntity
  8
AM_0
100
AcDbLine
 10
121.5651382224961
 20
206.6767631422577
 30
0.0
 11
122.3184726147029
 21
206.6767631422577
 31
0.0
  0
LINE
  5
1698
330
1F
100
AcDbEntity
  8
AM_0
100
AcDbLine
 10
133.565138222496
 20
205.0267631422576
 30
0.0
 11
133.565138222496
 21
206.6767631422577
 31
0.0
  0
LINE
  5
1699
330
1F
100
AcDbEntity
  8
AM_0
100
AcDbLine
 10
133.565138222496
 20
203.3767631422576
 30
0.0
 11
132.8118038302892
 21
203.3767631422576
 31
0.0
  0
LINE
  5
169A
330
1F
100
AcDbEntity
  8
AM_0
100
AcDbLine
 10
133.565138222496
 20
205.0267631422576
 30
0.0
 11
133.565138222496
 21
203.3767631422576
 31
0.0
  0
LINE
  5
169B
330
1F
100
AcDbEntity
  8
AM_0
100
AcDbLine
 10
133.565138222496
 20
206.6767631422577
 30
0.0
 11
132.8118038302892
 21
206.6767631422577
 31
0.0
  0
LINE
  5
169C
330
1F
100
AcDbEntity
  8
AM_0
100
AcDbLine
 10
147.5651382224961
 20
208.6022125710965
 30
0.0
 11
132.7793016261496
 21
206.7767631422576
 31
0.0
  0
LINE
  5
169D
330
1F
100
AcDbEntity
  8
AM_0
100
AcDbLine
 10
147.5651382224961
 20
201.4513137134188
 30
0.0
 11
132.7793016261496
 21
203.2767631422576
 31
0.0
  0
LINE
  5
169E
330
1F
100
AcDbEntity
  8
AM_0
100
AcDbLine
 10
147.5651382224961
 20
208.6022125710965
 30
0.0
 11
147.5651382224959
 21
201.4513137134188
 31
0.0
  0
ARC
  5
169F
330
1F
100
AcDbEntity
  8
AM_0
100
AcDbCircle
 10
150.6960698941775
 20
273.5267631422576
 30
0.0
 40
65.0
100
AcDbArc
 50
251.3413144938863
 51
270.0
  0
LINE
  5
16A0
330
1F
100
AcDbEntity
  8
AM_0
100
AcDbLine
 10
167.2565068900113
 20
208.5267631422576
 30
0.0
 11
150.6960698941775
 21
208.5267631422576
 31
0.0
  0
ARC
  5
16A1
330
1F
100
AcDbEntity
  8
AM_0
100
AcDbCircle
 10
150.6960698941775
 20
136.5267631422576
 30
0.0
 40
65.0
100
AcDbArc
 50
90.0
 51
108.6586855061137
  0
LINE
  5
16A2
330
1F
100
AcDbEntity
  8
AM_0
100
AcDbLine
 10
167.2565068900113
 20
201.5267631422577
 30
0.0
 11
150.6960698941775
 21
201.5267631422577
 31
0.0
  0
ARC
  5
16A3
330
1F
100
AcDbEntity
  8
AM_0
100
AcDbCircle
 10
147.5651382224961
 20
205.0267631422576
 30
0.0
 40
20.0
100
AcDbArc
 50
349.9213418922116
 51
10.07865810778838
  0
LINE
  5
16AC
330
1F
100
AcDbEntity
  8
AM_0
100
AcDbLine
 10
127.5651382224961
 20
205.5267631422577
 30
0.0
 11
122.8151382224961
 21
205.5267631422577
 31
0.0
  0
LINE
  5
16AD
330
1F
100
AcDbEntity
  8
AM_0
100
AcDbLine
 10
127.5651382224961
 20
204.5267631422577
 30
0.0
 11
122.8151382224961
 21
204.5267631422577
 31
0.0
  0
HATCH
  5
16AE
330
1F
100
AcDbEntity
  8
AM_8
100
AcDbHatch
 10
0.0
 20
0.0
 30
0.0
210
0.0
220
0.0
230
1.0
  2
SOLID
 70
     1
 71
     0
 91
        1
 92
        1
 93
        4
 72
     1
 10
122.8151382224961
 20
204.5267631422577
 11
132.3151382224961
 21
204.5267631422577
 72
     1
 10
132.3151382224961
 20
204.5267631422577
 11
132.3151382224961
 21
205.5267631422577
 72
     1
 10
132.3151382224961
 20
205.5267631422577
 11
122.8151382224961
 21
205.5267631422577
 72
     1
 10
122.8151382224961
 20
205.5267631422577
 11
122.8151382224961
 21
204.5267631422577
 97
        0
 75
     0
 76
     1
 98
        1
 10
336.8403594886046
 20
40.89833266061808
1001
GENIUS_GENODEF_13
1002
{
1000
HIER
1070
     0
1002
}
1002
{
1000
MANEDIT
1070
     0
1002
}
1002
{
1000
NOSEL
1070
     0
1002
}
1002
{
1000
BEHIND
1070
     0
1002
}
1002
{
1000
REACTOR
1002
}
1001
GENIUS_GENOBJ-N-HTC_13
1002
{
1000
OWNER
1000
GEN
1002
}
1001
GENIUS_GENHATCH_13
1002
{
1000
DATA
1040
45.0
1042
2.299999999999999
1000
_U
1070
     1
1011
125.7703131013925
1021
205.3031332992606
1031
0.0
1002
}
1002
{
1000
UCS
1010
0.0
1020
0.0
1030
0.0
1010
1.0
1020
0.0
1030
0.0
1010
0.0
1020
1.0
1030
0.0
1002
}
  0
LINE
  5
16AF
330
1F
100
AcDbEntity
  8
AM_0
100
AcDbLine
 10
122.8151382224961
 20
205.5267631422577
 30
0.0
 11
122.8151382224961
 21
205.0267631422577
 31
0.0
  0
LINE
  5
16B0
330
1F
100
AcDbEntity
  8
AM_0
100
AcDbLine
 10
122.8151382224961
 20
204.5267631422577
 30
0.0
 11
122.8151382224961
 21
205.0267631422577
 31
0.0
  0
LINE
  5
16B1
330
1F
100
AcDbEntity
  8
AM_0
100
AcDbLine
 10
127.5651382224961
 20
205.5267631422577
 30
0.0
 11
132.3151382224961
 21
205.5267631422577
 31
0.0
  0
LINE
  5
16B2
330
1F
100
AcDbEntity
  8
AM_0
100
AcDbLine
 10
127.5651382224961
 20
204.5267631422577
 30
0.0
 11
132.3151382224961
 21
204.5267631422577
 31
0.0
  0
LINE
  5
16B3
330
1F
100
AcDbEntity
  8
AM_0
100
AcDbLine
 10
132.3151382224961
 20
205.5267631422577
 30
0.0
 11
132.3151382224961
 21
205.0267631422577
 31
0.0
  0
LINE
  5
16B4
330
1F
100
AcDbEntity
  8
AM_0
100
AcDbLine
 10
132.3151382224961
 20
204.5267631422577
 30
0.0
 11
132.3151382224961
 21
205.0267631422577
 31
0.0
  0
LINE
  5
16BC
330
1F
100
AcDbEntity
  8
0
100
AcDbLine
 10
139.5651382224961
 20
212.7767631422578
 30
0.0
 11
139.5651382224961
 21
209.4869133601075
 31
0.0
  0
LINE
  5
16BD
330
1F
100
AcDbEntity
  8
0
100
AcDbLine
 10
139.5651382224961
 20
213.0267631422577
 30
0.0
 11
139.5651382224961
 21
211.2267631422577
 31
0.0
  0
LINE
  5
16BE
330
1F
100
AcDbEntity
  8
0
100
AcDbLine
 10
139.5651382224961
 20
198.8267631422576
 30
0.0
 11
139.5651382224961
 21
197.0267631422576
 31
0.0
  0
LINE
  5
16DE
330
1F
100
AcDbEntity
  8
0
100
AcDbLine
 10
139.5651382224961
 20
200.5666129244078
 30
0.0
 11
139.5651382224961
 21
197.2767631422577
 31
0.0
  0
LINE
  5
170E
330
1F
100
AcDbEntity
  8
AM_7
100
AcDbLine
 10
127.5651382224961
 20
180.2501167616511
 30
0.0
 11
127.5651382224961
 21
126.4561167616514
 31
0.0
1001
GENIUS_GENODEF_13
1002
{
1000
HIER
1070
     0
1002
}
1002
{
1000
MANEDIT
1070
     0
1002
}
1002
{
1000
NOSEL
1070
     0
1002
}
1002
{
1000
BEHIND
1070
     0
1002
}
1002
{
1000
OTHER
1070
     0
1002
}
1002
{
1000
REACTOR
1002
}
1001
GENIUS_GENOBJ-N-CEN_13
1002
{
1000
OWNER
1000
GEN
1002
}
1001
GENIUS_GENCEN_19
1002
{
1040
1.397
1002
}
  0
LINE
  5
1B19
330
1F
100
AcDbEntity
  8
AM_0
100
AcDbLine
 10
139.5596298388103
 20
197.0267631422575
 30
0.0
 11
142.3596298388104
 21
197.0267631422575
 31
0.0
  0
LINE
  5
1B2A
330
1F
100
AcDbEntity
  8
AM_0
100
AcDbLine
 10
139.5596298388103
 20
213.0267631422578
 30
0.0
 11
142.3596298388104
 21
213.0267631422578
 31
0.0
  0
LINE
  5
1B7D
330
1F
100
AcDbEntity
  8
AM_0
100
AcDbLine
 10
139.5651382224961
 20
159.3531167616513
 30
0.0
 11
142.3651382224961
 21
159.3531167616513
 31
0.0
  0
LINE
  5
1B7E
330
1F
100
AcDbEntity
  8
AM_0
100
AcDbLine
 10
139.5651382224961
 20
143.3531167616513
 30
0.0
 11
142.3651382224961
 21
143.3531167616513
 31
0.0
  0
LINE
  5
2018
330
1F
100
AcDbEntity
  8
AM_0
100
AcDbLine
 10
167.5651382224961
 20
179.8531167616511
 30
0.0
 11
167.5651382224961
 21
174.8531167616511
 31
0.0
  0
LINE
  5
2019
330
1F
100
AcDbEntity
  8
AM_0
100
AcDbLine
 10
122.0651382224961
 20
177.8531167616511
 30
0.0
 11
133.0651382224961
 21
177.8531167616511
 31
0.0
  0
LINE
  5
201A
330
1F
100
AcDbEntity
  8
AM_0
100
AcDbLine
 10
122.0651382224961
 20
177.8531167616511
 30
0.0
 11
120.2651382224962
 21
169.8531167616511
 31
0.0
  0
LINE
  5
201B
330
1F
100
AcDbEntity
  8
AM_0
100
AcDbLine
 10
120.2651382224962
 20
161.8531167616511
 30
0.0
 11
120.2651382224962
 21
169.8531167616511
 31
0.0
  0
LINE
  5
201C
330
1F
100
AcDbEntity
  8
AM_0
100
AcDbLine
 10
134.8651382224962
 20
161.8531167616511
 30
0.0
 11
120.2651382224962
 21
161.8531167616511
 31
0.0
  0
ARC
  5
201D
330
1F
100
AcDbEntity
  8
AM_0
100
AcDbCircle
 10
138.8651382224962
 20
162.7280425041525
 30
0.0
 40
4.0
100
AcDbArc
 50
112.5150954490925
 51
180.0
1001
GENIUS_GENODEF_13
1002
{
1000
HIER
1070
     0
1002
}
1002
{
1000
MANEDIT
1070
     0
1002
}
1002
{
1000
NOSEL
1070
     0
1002
}
1002
{
1000
BEHIND
1070
     0
1002
}
1002
{
1000
REACTOR
1002
}
1001
GENIUS_GENOBJ-N-FIL_13
1002
{
1000
OWNER
1000
GEN
1002
}
1001
GENIUS_GENOREF_13
1005
2038
  0
LINE
  5
201E
330
1F
100
AcDbEntity
  8
AM_0
100
AcDbLine
 10
134.8651382224962
 20
162.7280425041525
 30
0.0
 11
134.8651382224962
 21
161.8531167616511
 31
0.0
  0
ARC
  5
201F
330
1F
100
AcDbEntity
  8
AM_0
100
AcDbCircle
 10
154.5651382224961
 20
124.8531167616511
 30
0.0
 40
45.0
100
AcDbArc
 50
90.0
 51
112.5150954490925
1001
GENIUS_GENOREF_13
1005
0
  0
LINE
  5
2020
330
1F
100
AcDbEntity
  8
AM_0
100
AcDbLine
 10
162.5651382224961
 20
169.8531167616511
 30
0.0
 11
154.5651382224961
 21
169.8531167616511
 31
0.0
  0
ARC
  5
2021
330
1F
100
AcDbEntity
  8
AM_0
100
AcDbCircle
 10
162.5651382224961
 20
174.8531167616511
 30
0.0
 40
5.0
100
AcDbArc
 50
270.0
 51
0.0
1001
GENIUS_GENODEF_13
1002
{
1000
HIER
1070
     0
1002
}
1002
{
1000
MANEDIT
1070
     0
1002
}
1002
{
1000
NOSEL
1070
     0
1002
}
1002
{
1000
BEHIND
1070
     0
1002
}
1002
{
1000
REACTOR
1002
}
1001
GENIUS_GENOBJ-N-FIL_13
1002
{
1000
OWNER
1000
GEN
1002
}
1001
GENIUS_GENOREF_13
1005
2037
  0
LINE
  5
2022
330
1F
100
AcDbEntity
  8
AM_0
100
AcDbLine
 10
147.5651382224961
 20
179.8531167616511
 30
0.0
 11
167.5651382224961
 21
179.8531167616511
 31
0.0
  0
ARC
  5
2023
330
1F
100
AcDbEntity
  8
AM_0
100
AcDbCircle
 10
141.5651382224962
 20
179.8531167616511
 30
0.0
 40
6.0
100
AcDbArc
 50
270.0
 51
0.0
1001
GENIUS_GENODEF_13
1002
{
1000
HIER
1070
     0
1002
}
1002
{
1000
MANEDIT
1070
     0
1002
}
1002
{
1000
NOSEL
1070
     0
1002
}
1002
{
1000
BEHIND
1070
     0
1002
}
1002
{
1000
REACTOR
1002
}
1001
GENIUS_GENOBJ-N-FIL_13
1002
{
1000
OWNER
1000
GEN
1002
}
1001
GENIUS_GENOREF_13
1005
2036
1005
2035
  0
LINE
  5
2024
330
1F
100
AcDbEntity
  8
AM_0
100
AcDbLine
 10
147.5651382224961
 20
179.8531167616511
 30
0.0
 11
147.5651382224962
 21
179.8531167616511
 31
0.0
  0
ARC
  5
2025
330
1F
100
AcDbEntity
  8
AM_0
100
AcDbCircle
 10
141.0651382224961
 20
183.8531167616511
 30
0.0
 40
10.0
100
AcDbArc
 50
216.8698976458416
 51
270.0
1001
GENIUS_GENOREF_13
1005
2034
  0
LINE
  5
2026
330
1F
100
AcDbEntity
  8
AM_0
100
AcDbLine
 10
141.0651382224961
 20
173.8531167616511
 30
0.0
 11
141.5651382224962
 21
173.8531167616511
 31
0.0
  0
LINE
  5
2027
330
1F
100
AcDbEntity
  8
AM_0
100
AcDbLine
 10
147.5651382224962
 20
170.8531167616511
 30
0.0
 11
129.9006264825692
 21
170.8531167616511
 31
0.0
  0
LINE
  5
2028
330
1F
100
AcDbEntity
  8
AM_0
100
AcDbLine
 10
133.0651382224961
 20
177.8531167616511
 30
0.0
 11
134.6401382224961
 21
170.8531167616511
 31
0.0
  0
LINE
  5
2029
330
1F
100
AcDbEntity
  8
AM_0
100
AcDbLine
 10
147.5651382224962
 20
170.8531167616511
 30
0.0
 11
148.5651382224961
 21
169.8531167616512
 31
0.0
  0
LINE
  5
202A
330
1F
100
AcDbEntity
  8
AM_0
100
AcDbLine
 10
148.5651382224961
 20
169.8531167616512
 30
0.0
 11
154.5651382224961
 21
169.8531167616511
 31
0.0
  0
ARC
  5
202B
330
1F
100
AcDbEntity
  8
AM_0
100
AcDbCircle
 10
127.5651382224961
 20
128.286450094984
 30
0.0
 40
50.566666666667
100
AcDbArc
 50
83.75573907576965
 51
96.24426092423036
  0
LINE
  5
202C
330
1F
100
AcDbEntity
  8
AM_0
100
AcDbLine
 10
122.0651382224961
 20
177.8531167616511
 30
0.0
 11
133.0651382224962
 21
177.8531167616511
 31
0.0
  0
LINE
  5
202D
330
1F
100
AcDbEntity
  8
AM_0
100
AcDbLine
 10
121.565138222496
 20
177.8531167616511
 30
0.0
 11
123.215138222496
 21
177.8531167616511
 31
0.0
  0
LINE
  5
202E
330
1F
100
AcDbEntity
  8
AM_0
100
AcDbLine
 10
122.0651382224964
 20
178.5531167616511
 30
0.0
 11
121.565138222496
 21
178.553116761651
 31
0.0
  0
LINE
  5
202F
330
1F
100
AcDbEntity
  8
AM_0
100
AcDbLine
 10
121.565138222496
 20
178.553116761651
 30
0.0
 11
121.565138222496
 21
177.8531167616511
 31
0.0
  0
LINE
  5
2030
330
1F
100
AcDbEntity
  8
AM_0
100
AcDbLine
 10
131.9151382224961
 20
177.8531167616511
 30
0.0
 11
133.5651382224961
 21
177.8531167616511
 31
0.0
  0
LINE
  5
2031
330
1F
100
AcDbEntity
  8
AM_0
100
AcDbLine
 10
133.5651382224961
 20
178.5531167616511
 30
0.0
 11
133.0651382224959
 21
178.5531167616511
 31
0.0
  0
LINE
  5
2032
330
1F
100
AcDbEntity
  8
AM_0
100
AcDbLine
 10
133.5651382224961
 20
177.8531167616511
 30
0.0
 11
133.5651382224961
 21
178.5531167616511
 31
0.0
  0
POINT
  5
2034
330
1F
100
AcDbEntity
  8
0
 60
     1
100
AcDbPoint
 10
-89.01835738347456
 20
53.62498464708011
 30
0.0
1001
GENIUS_GENOBJ-N-FIL_13
1002
{
1000
OWNER
1000
GEN
1002
}
1001
GENIUS_GENOENT_13
1002
{
1000
MYREF
1005
2034
1002
}
1002
{
1000
GRP
1005
0
1002
}
1001
GENIUS_GENOLIS_13
1002
{
1000
ENT
1005
0
1005
2025
1002
}
1001
GENIUS_GENODEF_13
1002
{
1000
HIER
1070
     1
1002
}
1002
{
1000
MANEDIT
1070
     1
1002
}
1002
{
1000
NOSEL
1070
     0
1002
}
1002
{
1000
BEHIND
1070
     0
1002
}
1002
{
1000
REACTOR
1002
}
  0
POINT
  5
2035
330
1F
100
AcDbEntity
  8
0
 60
     1
100
AcDbPoint
 10
-89.01835738347456
 20
53.62498464708011
 30
0.0
1001
GENIUS_GENOBJ-N-FIL_13
1002
{
1000
OWNER
1000
GEN
1002
}
1001
GENIUS_GENOENT_13
1002
{
1000
MYREF
1005
2035
1002
}
1002
{
1000
GRP
1005
0
1002
}
1001
GENIUS_GENOLIS_13
1002
{
1000
ENT
1005
0
1005
2023
1002
}
1001
GENIUS_GENODEF_13
1002
{
1000
HIER
1070
     1
1002
}
1002
{
1000
MANEDIT
1070
     1
1002
}
1002
{
1000
NOSEL
1070
     0
1002
}
1002
{
1000
BEHIND
1070
     0
1002
}
1002
{
1000
REACTOR
1002
}
  0
POINT
  5
2036
330
1F
100
AcDbEntity
  8
0
 60
     1
100
AcDbPoint
 10
-89.01835738347456
 20
53.62498464708011
 30
0.0
1001
GENIUS_GENOBJ-N-FIL_13
1002
{
1000
OWNER
1000
GEN
1002
}
1001
GENIUS_GENOENT_13
1002
{
1000
MYREF
1005
2036
1002
}
1002
{
1000
GRP
1005
0
1002
}
1001
GENIUS_GENOLIS_13
1002
{
1000
ENT
1005
0
1005
2023
1002
}
1001
GENIUS_GENODEF_13
1002
{
1000
HIER
1070
     1
1002
}
1002
{
1000
MANEDIT
1070
     1
1002
}
1002
{
1000
NOSEL
1070
     0
1002
}
1002
{
1000
BEHIND
1070
     0
1002
}
1002
{
1000
REACTOR
1002
}
  0
POINT
  5
2037
330
1F
100
AcDbEntity
  8
0
 60
     1
100
AcDbPoint
 10
-89.01835738347456
 20
53.62498464708011
 30
0.0
1001
GENIUS_GENODEF_13
1002
{
1000
HIER
1070
     1
1002
}
1002
{
1000
MANEDIT
1070
     0
1002
}
1002
{
1000
NOSEL
1070
     0
1002
}
1002
{
1000
BEHIND
1070
     0
1002
}
1002
{
1000
REACTOR
1002
}
1001
GENIUS_GENOBJ-N-FIL_13
1002
{
1000
OWNER
1000
GEN
1002
}
1001
GENIUS_GENOENT_13
1002
{
1000
MYREF
1005
2037
1002
}
1002
{
1000
GRP
1005
0
1002
}
1001
GENIUS_GENOLIS_13
1002
{
1000
ENT
1005
0
1005
2021
1002
}
  0
POINT
  5
2038
330
1F
100
AcDbEntity
  8
0
 60
     1
100
AcDbPoint
 10
-89.01835738347456
 20
53.62498464708011
 30
0.0
1001
GENIUS_GENOBJ-N-FIL_13
1002
{
1000
OWNER
1000
GEN
1002
}
1001
GENIUS_GENOENT_13
1002
{
1000
MYREF
1005
2038
1002
}
1002
{
1000
GRP
1005
0
1002
}
1001
GENIUS_GENOLIS_13
1002
{
1000
ENT
1005
0
1005
201D
1002
}
1001
GENIUS_GENODEF_13
1002
{
1000
HIER
1070
     1
1002
}
1002
{
1000
MANEDIT
1070
     1
1002
}
1002
{
1000
NOSEL
1070
     0
1002
}
1002
{
1000
BEHIND
1070
     0
1002
}
1002
{
1000
REACTOR
1002
}
  0
LINE
  5
2074
330
1F
100
AcDbEntity
  8
AM_0
100
AcDbLine
 10
199.9996198540561
 20
179.0393777207622
 30
0.0
 11
199.9996198540561
 21
170.66685580254
 31
0.0
  0
LINE
  5
2075
330
1F
100
AcDbEntity
  8
AM_0
100
AcDbLine
 10
192.9996198540561
 20
170.66685580254
 30
0.0
 11
192.9996198540561
 21
179.0393777207622
 31
0.0
  0
LINE
  5
2076
330
1F
100
AcDbEntity
  8
AM_0
100
AcDbLine
 10
201.9996198540562
 20
177.8531167616511
 30
0.0
 11
199.9996198540561
 21
177.8531167616511
 31
0.0
  0
LINE
  5
2077
330
1F
100
AcDbEntity
  8
AM_0
100
AcDbLine
 10
201.9996198540562
 20
177.8531167616511
 30
0.0
 11
203.7996198540562
 21
169.8531167616511
 31
0.0
  0
LINE
  5
2078
330
1F
100
AcDbEntity
  8
AM_0
100
AcDbLine
 10
203.7996198540562
 20
169.8531167616511
 30
0.0
 11
203.7996198540562
 21
161.8531167616511
 31
0.0
  0
LINE
  5
2079
330
1F
100
AcDbEntity
  8
AM_0
100
AcDbLine
 10
203.7996198540562
 20
161.8531167616511
 30
0.0
 11
196.4996198540561
 21
161.8531167616511
 31
0.0
  0
LINE
  5
207A
330
1F
100
AcDbEntity
  8
AM_0
100
AcDbLine
 10
203.4159407392566
 20
162.7280425041526
 30
0.0
 11
199.9321588901656
 21
170.4160371783482
 31
0.0
  0
LINE
  5
207B
330
1F
100
AcDbEntity
  8
AM_0
100
AcDbLine
 10
203.4159407392566
 20
162.7280425041526
 30
0.0
 11
203.4159407392566
 21
161.8531167616511
 31
0.0
  0
LINE
  5
207C
330
1F
100
AcDbEntity
  8
AM_0
100
AcDbLine
 10
199.9996198540561
 20
170.8531167616512
 30
0.0
 11
203.4159407392566
 21
170.8531167616512
 31
0.0
  0
ARC
  5
207D
330
1F
100
AcDbEntity
  8
AM_0
100
AcDbCircle
 10
196.4996198540561
 20
184.8531167616511
 30
0.0
 40
15.0
100
AcDbArc
 50
258.0594560393919
 51
281.9405439606081
1001
GENIUS_GENOREF_13
1005
0
  0
ARC
  5
207E
330
1F
100
AcDbEntity
  8
AM_0
100
AcDbCircle
 10
196.4996198540561
 20
164.8531167616511
 30
0.0
 40
15.0
100
AcDbArc
 50
78.05945603939189
 51
101.9405439606081
1001
GENIUS_GENOREF_13
1005
0
  0
ARC
  5
207F
330
1F
100
AcDbEntity
  8
AM_0
100
AcDbCircle
 10
199.4996198540562
 20
179.0393777207622
 30
0.0
 40
0.5
100
AcDbArc
 50
0.0
 51
78.05945603938837
1001
GENIUS_GENODEF_13
1002
{
1000
HIER
1070
     0
1002
}
1002
{
1000
MANEDIT
1070
     0
1002
}
1002
{
1000
NOSEL
1070
     0
1002
}
1002
{
1000
BEHIND
1070
     0
1002
}
1002
{
1000
REACTOR
1002
}
1001
GENIUS_GENOBJ-N-FIL_13
1002
{
1000
OWNER
1000
GEN
1002
}
1001
GENIUS_GENOREF_13
1005
0
  0
ARC
  5
2080
330
1F
100
AcDbEntity
  8
AM_0
100
AcDbCircle
 10
193.4996198540561
 20
179.0393777207622
 30
0.0
 40
0.5
100
AcDbArc
 50
101.9405439606116
 51
180.0
1001
GENIUS_GENODEF_13
1002
{
1000
HIER
1070
     0
1002
}
1002
{
1000
MANEDIT
1070
     0
1002
}
1002
{
1000
NOSEL
1070
     0
1002
}
1002
{
1000
BEHIND
1070
     0
1002
}
1002
{
1000
REACTOR
1002
}
1001
GENIUS_GENOBJ-N-FIL_13
1002
{
1000
OWNER
1000
GEN
1002
}
1001
GENIUS_GENOREF_13
1005
0
  0
ARC
  5
2081
330
1F
100
AcDbEntity
  8
AM_0
100
AcDbCircle
 10
193.4996198540561
 20
170.66685580254
 30
0.0
 40
0.5
100
AcDbArc
 50
180.0
 51
258.0594560393883
1001
GENIUS_GENODEF_13
1002
{
1000
HIER
1070
     0
1002
}
1002
{
1000
MANEDIT
1070
     0
1002
}
1002
{
1000
NOSEL
1070
     0
1002
}
1002
{
1000
BEHIND
1070
     0
1002
}
1002
{
1000
REACTOR
1002
}
1001
GENIUS_GENOBJ-N-FIL_13
1002
{
1000
OWNER
1000
GEN
1002
}
1001
GENIUS_GENOREF_13
1005
20A6
  0
ARC
  5
2082
330
1F
100
AcDbEntity
  8
AM_0
100
AcDbCircle
 10
199.4996198540562
 20
170.66685580254
 30
0.0
 40
0.5
100
AcDbArc
 50
281.9405439606116
 51
0.0
1001
GENIUS_GENODEF_13
1002
{
1000
HIER
1070
     0
1002
}
1002
{
1000
MANEDIT
1070
     0
1002
}
1002
{
1000
NOSEL
1070
     0
1002
}
1002
{
1000
BEHIND
1070
     0
1002
}
1002
{
1000
REACTOR
1002
}
1001
GENIUS_GENOBJ-N-FIL_13
1002
{
1000
OWNER
1000
GEN
1002
}
1001
GENIUS_GENOREF_13
1005
20A5
  0
LINE
  5
2083
330
1F
100
AcDbEntity
  8
AM_0
100
AcDbLine
 10
192.999619854056
 20
170.8531167616512
 30
0.0
 11
189.5832989688556
 21
170.8531167616512
 31
0.0
  0
LINE
  5
2084
330
1F
100
AcDbEntity
  8
AM_0
100
AcDbLine
 10
190.999619854056
 20
177.8531167616511
 30
0.0
 11
189.1996198540561
 21
169.8531167616511
 31
0.0
  0
LINE
  5
2085
330
1F
100
AcDbEntity
  8
AM_0
100
AcDbLine
 10
190.999619854056
 20
177.8531167616511
 30
0.0
 11
192.999619854056
 21
177.8531167616511
 31
0.0
  0
LINE
  5
2086
330
1F
100
AcDbEntity
  8
AM_0
100
AcDbLine
 10
189.5832989688556
 20
162.7280425041526
 30
0.0
 11
193.0670808179466
 21
170.4160371783482
 31
0.0
  0
LINE
  5
2087
330
1F
100
AcDbEntity
  8
AM_0
100
AcDbLine
 10
189.1996198540561
 20
169.8531167616511
 30
0.0
 11
189.1996198540561
 21
161.8531167616511
 31
0.0
  0
LINE
  5
2088
330
1F
100
AcDbEntity
  8
AM_0
100
AcDbLine
 10
189.1996198540561
 20
161.8531167616511
 30
0.0
 11
196.499619854056
 21
161.8531167616511
 31
0.0
  0
LINE
  5
2089
330
1F
100
AcDbEntity
  8
AM_0
100
AcDbLine
 10
189.5832989688556
 20
162.7280425041526
 30
0.0
 11
189.5832989688556
 21
161.8531167616511
 31
0.0
  0
LINE
  5
208A
330
1F
100
AcDbEntity
  8
AM_7
100
AcDbLine
 10
196.4996198540561
 20
182.3204673071473
 30
0.0
 11
196.4996198540561
 21
126.5290536235919
 31
0.0
1001
GENIUS_GENODEF_13
1002
{
1000
HIER
1070
     0
1002
}
1002
{
1000
MANEDIT
1070
     0
1002
}
1002
{
1000
NOSEL
1070
     0
1002
}
1002
{
1000
BEHIND
1070
     0
1002
}
1002
{
1000
REACTOR
1002
}
1001
GENIUS_GENOBJ-N-CEN_13
1002
{
1000
OWNER
1000
GEN
1002
}
  0
LINE
  5
208B
330
1F
100
AcDbEntity
  8
AM_0
100
AcDbLine
 10
202.3996198540555
 20
161.8531167616511
 30
0.0
 11
202.3996198540555
 21
157.7617047496565
 31
0.0
  0
LINE
  5
208C
330
1F
100
AcDbEntity
  8
AM_0
100
AcDbLine
 10
203.7996198540562
 20
161.8531167616511
 30
0.0
 11
189.1996198540561
 21
161.8531167616511
 31
0.0
  0
LINE
  5
208D
330
1F
100
AcDbEntity
  8
AM_0
100
AcDbLine
 10
203.7996198540562
 20
162.7280425041525
 30
0.0
 11
203.7996198540562
 21
161.8531167616511
 31
0.0
  0
LINE
  5
208E
330
1F
100
AcDbEntity
  8
AM_0
100
AcDbLine
 10
190.5996198540568
 20
161.8531167616511
 30
0.0
 11
190.5996198540568
 21
157.7617047496565
 31
0.0
  0
LINE
  5
208F
330
1F
100
AcDbEntity
  8
AM_7
100
AcDbLine
 10
208.5030258405436
 20
151.3531167616513
 30
0.0
 11
184.4962138675687
 21
151.3531167616513
 31
0.0
  0
LINE
  5
2090
330
1F
100
AcDbEntity
  8
AM_0
100
AcDbLine
 10
190.9996198540561
 20
177.8531167616511
 30
0.0
 11
192.9996198540561
 21
177.8531167616511
 31
0.0
  0
LINE
  5
2091
330
1F
100
AcDbEntity
  8
AM_0
100
AcDbLine
 10
199.9996198540562
 20
177.8531167616511
 30
0.0
 11
201.9996198540562
 21
177.8531167616511
 31
0.0
  0
ARC
  5
2092
330
1F
100
AcDbEntity
  8
AM_0
100
AcDbCircle
 10
196.4996198540561
 20
128.286450094984
 30
0.0
 40
50.566666666667
100
AcDbArc
 50
83.75573907576965
 51
86.03106733778542
  0
ARC
  5
2093
330
1F
100
AcDbEntity
  8
AM_0
100
AcDbCircle
 10
196.4996198540561
 20
128.286450094984
 30
0.0
 40
50.566666666667
100
AcDbArc
 50
93.96893266221457
 51
96.24426092423036
  0
LINE
  5
2094
330
1F
100
AcDbEntity
  8
AM_0
100
AcDbLine
 10
190.9996198540561
 20
177.8531167616511
 30
0.0
 11
192.9996198540561
 21
177.8531167616511
 31
0.0
  0
LINE
  5
2095
330
1F
100
AcDbEntity
  8
AM_0
100
AcDbLine
 10
199.9996198540562
 20
177.8531167616511
 30
0.0
 11
201.9996198540562
 21
177.8531167616511
 31
0.0
  0
LINE
  5
2096
330
1F
100
AcDbEntity
  8
AM_0
100
AcDbLine
 10
190.499619854056
 20
177.8531167616511
 30
0.0
 11
192.149619854056
 21
177.8531167616511
 31
0.0
  0
LINE
  5
2097
330
1F
100
AcDbEntity
  8
AM_0
100
AcDbLine
 10
190.9996198540564
 20
178.5531167616511
 30
0.0
 11
190.499619854056
 21
178.553116761651
 31
0.0
  0
LINE
  5
2098
330
1F
100
AcDbEntity
  8
AM_0
100
AcDbLine
 10
190.499619854056
 20
178.553116761651
 30
0.0
 11
190.499619854056
 21
177.8531167616511
 31
0.0
  0
LINE
  5
2099
330
1F
100
AcDbEntity
  8
AM_0
100
AcDbLine
 10
200.8496198540561
 20
177.8531167616511
 30
0.0
 11
202.4996198540561
 21
177.8531167616511
 31
0.0
  0
LINE
  5
209A
330
1F
100
AcDbEntity
  8
AM_0
100
AcDbLine
 10
202.4996198540561
 20
178.5531167616511
 30
0.0
 11
201.9996198540559
 21
178.5531167616511
 31
0.0
  0
LINE
  5
209B
330
1F
100
AcDbEntity
  8
AM_0
100
AcDbLine
 10
202.4996198540561
 20
177.8531167616511
 30
0.0
 11
202.4996198540561
 21
178.5531167616511
 31
0.0
  0
CIRCLE
  5
209C
330
1F
100
AcDbEntity
  8
AM_5
100
AcDbCircle
 10
196.4996198540561
 20
151.3531167616513
 30
0.0
 40
4.000000000000028
  0
CIRCLE
  5
209D
330
1F
100
AcDbEntity
  8
AM_0
100
AcDbCircle
 10
196.4996198540561
 20
151.3531167616513
 30
0.0
 40
7.300000000000096
  0
CIRCLE
  5
209E
330
1F
100
AcDbEntity
  8
AM_0
100
AcDbCircle
 10
196.4996198540561
 20
151.3531167616513
 30
0.0
 40
7.500000000000085
  0
CIRCLE
  5
209F
330
1F
100
AcDbEntity
  8
AM_0
100
AcDbCircle
 10
196.4996198540561
 20
151.3531167616513
 30
0.0
 40
6.5
  0
CIRCLE
  5
20A1
330
1F
100
AcDbEntity
  8
AM_0
100
AcDbCircle
 10
196.4996198540561
 20
151.3531167616513
 30
0.0
 40
8.0
  0
CIRCLE
  5
20A2
330
1F
100
AcDbEntity
  8
AM_0
100
AcDbCircle
 10
196.4996198540561
 20
151.3531167616513
 30
0.0
 40
7.800000000000068
  0
MTEXT
  5
20A3
330
1F
100
AcDbEntity
  8
AM_0
100
AcDbMText
 10
177.3333593399622
 20
206.2413644171359
 30
0.0
 40
1.6
 41
35.15125569939164
 71
     1
 72
     5
  1
{\fMS Gothic|b0|i0|c128|p49;エースボール　アングル　BC-3308}
 73
     1
 44
1.0
1001
ACAD
1000
ACAD_MTEXT_COLUMN_INFO_BEGIN
1070
    75
1070
     2
1070
    79
1070
     0
1070
    76
1070
     1
1070
    78
1070
     0
1070
    48
1040
35.15125569939164
1070
    49
1040
7.5
1070
    50
1070
     1
1040
0.0
1000
ACAD_MTEXT_COLUMN_INFO_END
1000
MTEXTBEGIN
1070
    73
1070
     1
1070
    44
1040
1.0
1070
    74
1070
     0
1000
MTEXTEND
  0
CIRCLE
  5
20A4
330
1F
100
AcDbEntity
  8
AM_0
100
AcDbCircle
 10
196.4996198540561
 20
151.3531167616513
 30
0.0
 40
2.9
  0
POINT
  5
20A5
330
1F
100
AcDbEntity
  8
0
 60
     1
100
AcDbPoint
 10
-41.69891093089233
 20
59.15386756234622
 30
0.0
1001
GENIUS_GENOBJ-N-FIL_13
1002
{
1000
OWNER
1000
GEN
1002
}
1001
GENIUS_GENOENT_13
1002
{
1000
MYREF
1005
20A5
1002
}
1002
{
1000
GRP
1005
0
1002
}
1001
GENIUS_GENOLIS_13
1002
{
1000
ENT
1005
0
1005
2082
1002
}
1001
GENIUS_GENODEF_13
1002
{
1000
HIER
1070
     1
1002
}
1002
{
1000
MANEDIT
1070
     1
1002
}
1002
{
1000
NOSEL
1070
     0
1002
}
1002
{
1000
BEHIND
1070
     0
1002
}
1002
{
1000
REACTOR
1002
}
  0
POINT
  5
20A6
330
1F
100
AcDbEntity
  8
0
 60
     1
100
AcDbPoint
 10
-41.69891093089233
 20
59.15386756234622
 30
0.0
1001
GENIUS_GENOBJ-N-FIL_13
1002
{
1000
OWNER
1000
GEN
1002
}
1001
GENIUS_GENOENT_13
1002
{
1000
MYREF
1005
20A6
1002
}
1002
{
1000
GRP
1005
0
1002
}
1001
GENIUS_GENOLIS_13
1002
{
1000
ENT
1005
0
1005
2081
1002
}
1001
GENIUS_GENODEF_13
1002
{
1000
HIER
1070
     1
1002
}
1002
{
1000
MANEDIT
1070
     1
1002
}
1002
{
1000
NOSEL
1070
     0
1002
}
1002
{
1000
BEHIND
1070
     0
1002
}
1002
{
1000
REACTOR
1002
}
  0
LINE
  5
20A7
330
1F
100
AcDbEntity
  8
0
100
AcDbLine
 10
139.5651382224961
 20
159.3531167616513
 30
0.0
 11
139.5651382224962
 21
143.3531167616514
 31
0.0
  0
LINE
  5
2450
330
1F
100
AcDbEntity
  8
AM_0
100
AcDbLine
 10
138.9877879533065
 20
160.6031167616513
 30
0.0
 11
133.4651382224961
 21
160.6031167616513
 31
0.0
  0
LINE
  5
2451
330
1F
100
AcDbEntity
  8
AM_0
100
AcDbLine
 10
136.8151382224961
 20
142.1031167616513
 30
0.0
 11
138.9877879533065
 21
142.1031167616513
 31
0.0
  0
LINE
  5
2452
330
1F
100
AcDbEntity
  8
AM_0
100
AcDbLine
 10
139.5651382224961
 20
143.1031167616514
 30
0.0
 11
139.5651382224961
 21
159.6031167616513
 31
0.0
  0
LINE
  5
2453
330
1F
100
AcDbEntity
  8
AM_0
100
AcDbLine
 10
139.5651382224961
 20
143.1031167616513
 30
0.0
 11
138.9877879533065
 21
142.1031167616513
 31
0.0
  0
LINE
  5
2454
330
1F
100
AcDbEntity
  8
AM_0
100
AcDbLine
 10
139.5651382224961
 20
159.6031167616513
 30
0.0
 11
138.9877879533065
 21
160.6031167616513
 31
0.0
  0
ARC
  5
2455
330
1F
100
AcDbEntity
  8
AM_0
100
AcDbCircle
 10
135.7815242934368
 20
158.714332693819
 30
0.0
 40
3.783613929059307
100
AcDbArc
 50
331.1732975099165
 51
19.5701031551786
  0
LINE
  5
2456
330
1F
100
AcDbEntity
  8
AM_0
100
AcDbLine
 10
139.0962805988342
 20
156.8900177539032
 30
0.0
 11
139.0962805988342
 21
155.0017466414829
 31
0.0
  0
LINE
  5
2457
330
1F
100
AcDbEntity
  8
AM_0
100
AcDbLine
 10
134.033995846158
 20
156.8900177539032
 30
0.0
 11
134.033995846158
 21
155.0017466414829
 31
0.0
  0
LINE
  5
2458
330
1F
100
AcDbEntity
  8
AM_0
100
AcDbLine
 10
133.5651382224961
 20
160.6031167616513
 30
0.0
 11
133.5651382224961
 21
154.6031167616513
 31
0.0
  0
ARC
  5
2459
330
1F
100
AcDbEntity
  8
AM_0
100
AcDbCircle
 10
125.1339689417506
 20
151.3531167616513
 30
0.0
 40
14.43116928074549
100
AcDbArc
 50
345.3549704502605
 51
14.6450295497395
  0
ARC
  5
245A
330
1F
100
AcDbEntity
  8
AM_0
100
AcDbCircle
 10
147.9963075032416
 20
151.3531167616513
 30
0.0
 40
14.43116928074549
100
AcDbArc
 50
165.3549704502605
 51
166.9849505845253
  0
ARC
  5
245B
330
1F
100
AcDbEntity
  8
AM_0
100
AcDbCircle
 10
135.7815242934368
 20
143.9919008294836
 30
0.0
 40
3.783613929059307
100
AcDbArc
 50
340.4298968448214
 51
28.82670249008351
  0
LINE
  5
245C
330
1F
100
AcDbEntity
  8
AM_0
100
AcDbLine
 10
139.0962805988342
 20
145.8162157693994
 30
0.0
 11
139.0962805988342
 21
147.7044868818197
 31
0.0
  0
LINE
  5
245D
330
1F
100
AcDbEntity
  8
AM_0
100
AcDbLine
 10
134.033995846158
 20
145.8162157693994
 30
0.0
 11
134.033995846158
 21
147.7044868818197
 31
0.0
  0
ARC
  5
245E
330
1F
100
AcDbEntity
  8
AM_0
100
AcDbCircle
 10
137.3487521515554
 20
143.9919008294836
 30
0.0
 40
3.783613929059307
100
AcDbArc
 50
151.1732975099165
 51
174.6925341475266
  0
LINE
  5
245F
330
1F
100
AcDbEntity
  8
AM_0
100
AcDbLine
 10
134.033995846158
 20
145.8162157693994
 30
0.0
 11
139.0962805988342
 21
145.8162157693994
 31
0.0
  0
LINE
  5
2460
330
1F
100
AcDbEntity
  8
AM_0
100
AcDbLine
 10
139.0962805988342
 20
147.7044868818197
 30
0.0
 11
134.033995846158
 21
147.7044868818197
 31
0.0
  0
LINE
  5
2461
330
1F
100
AcDbEntity
  8
AM_0
100
AcDbLine
 10
139.0962805988342
 20
155.0017466414829
 30
0.0
 11
134.033995846158
 21
155.0017466414829
 31
0.0
  0
LINE
  5
2462
330
1F
100
AcDbEntity
  8
AM_0
100
AcDbLine
 10
139.0962805988342
 20
156.8900177539032
 30
0.0
 11
134.033995846158
 21
156.8900177539032
 31
0.0
  0
LINE
  5
2463
330
1F
100
AcDbEntity
  8
AM_0
100
AcDbLine
 10
116.033995846158
 20
156.8900177539032
 30
0.0
 11
121.0962805988342
 21
156.8900177539032
 31
0.0
  0
LINE
  5
2464
330
1F
100
AcDbEntity
  8
AM_0
100
AcDbLine
 10
116.033995846158
 20
155.0017466414829
 30
0.0
 11
121.0962805988342
 21
155.0017466414829
 31
0.0
  0
LINE
  5
2465
330
1F
100
AcDbEntity
  8
AM_0
100
AcDbLine
 10
116.033995846158
 20
147.7044868818197
 30
0.0
 11
121.0962805988342
 21
147.7044868818197
 31
0.0
  0
LINE
  5
2466
330
1F
100
AcDbEntity
  8
AM_0
100
AcDbLine
 10
121.0962805988342
 20
145.8162157693994
 30
0.0
 11
116.033995846158
 21
145.8162157693994
 31
0.0
  0
ARC
  5
2467
330
1F
100
AcDbEntity
  8
AM_0
100
AcDbCircle
 10
117.7815242934368
 20
143.9919008294836
 30
0.0
 40
3.783613929059307
100
AcDbArc
 50
5.307465852473308
 51
28.82670249008351
  0
LINE
  5
2468
330
1F
100
AcDbEntity
  8
AM_0
100
AcDbLine
 10
121.0962805988342
 20
145.8162157693994
 30
0.0
 11
121.0962805988342
 21
147.7044868818197
 31
0.0
  0
LINE
  5
2469
330
1F
100
AcDbEntity
  8
AM_0
100
AcDbLine
 10
116.033995846158
 20
145.8162157693994
 30
0.0
 11
116.033995846158
 21
147.7044868818197
 31
0.0
  0
ARC
  5
246A
330
1F
100
AcDbEntity
  8
AM_0
100
AcDbCircle
 10
119.3487521515554
 20
143.9919008294836
 30
0.0
 40
3.783613929059307
100
AcDbArc
 50
151.1732975099165
 51
199.5701031551786
  0
ARC
  5
246B
330
1F
100
AcDbEntity
  8
AM_0
100
AcDbCircle
 10
107.1339689417506
 20
151.3531167616513
 30
0.0
 40
14.43116928074549
100
AcDbArc
 50
345.3549704502605
 51
346.9849505845254
  0
ARC
  5
246C
330
1F
100
AcDbEntity
  8
AM_0
100
AcDbCircle
 10
129.9963075032416
 20
151.3531167616513
 30
0.0
 40
14.43116928074549
100
AcDbArc
 50
165.3549704502605
 51
194.6450295497395
  0
LINE
  5
246D
330
1F
100
AcDbEntity
  8
AM_0
100
AcDbLine
 10
121.5651382224961
 20
160.6031167616513
 30
0.0
 11
121.5651382224961
 21
154.6031167616513
 31
0.0
  0
LINE
  5
246E
330
1F
100
AcDbEntity
  8
AM_0
100
AcDbLine
 10
121.0962805988342
 20
156.8900177539032
 30
0.0
 11
121.0962805988342
 21
155.0017466414829
 31
0.0
  0
LINE
  5
246F
330
1F
100
AcDbEntity
  8
AM_0
100
AcDbLine
 10
116.033995846158
 20
156.8900177539032
 30
0.0
 11
116.033995846158
 21
155.0017466414829
 31
0.0
  0
ARC
  5
2470
330
1F
100
AcDbEntity
  8
AM_0
100
AcDbCircle
 10
119.3487521515554
 20
158.714332693819
 30
0.0
 40
3.783613929059307
100
AcDbArc
 50
160.4298968448214
 51
208.8267024900835
  0
LINE
  5
2471
330
1F
100
AcDbEntity
  8
AM_0
100
AcDbLine
 10
115.5651382224961
 20
159.6031167616513
 30
0.0
 11
116.1424884916858
 21
160.6031167616513
 31
0.0
  0
LINE
  5
2472
330
1F
100
AcDbEntity
  8
AM_0
100
AcDbLine
 10
115.5651382224961
 20
143.1031167616513
 30
0.0
 11
116.1424884916858
 21
142.1031167616513
 31
0.0
  0
LINE
  5
2473
330
1F
100
AcDbEntity
  8
AM_0
100
AcDbLine
 10
115.5651382224961
 20
143.1031167616514
 30
0.0
 11
115.5651382224961
 21
159.6031167616513
 31
0.0
  0
LINE
  5
2474
330
1F
100
AcDbEntity
  8
AM_0
100
AcDbLine
 10
116.1424884916858
 20
160.6031167616513
 30
0.0
 11
121.6651382224961
 21
160.6031167616513
 31
0.0
  0
LINE
  5
2475
330
1F
100
AcDbEntity
  8
AM_0
100
AcDbLine
 10
118.3151382224962
 20
142.1031167616513
 30
0.0
 11
116.1424884916858
 21
142.1031167616513
 31
0.0
  0
LINE
  5
2476
330
1F
100
AcDbEntity
  8
AM_0
100
AcDbLine
 10
121.1944151227768
 20
154.6031167616513
 30
0.0
 11
133.9358613222155
 21
154.6031167616513
 31
0.0
  0
LINE
  5
2477
330
1F
100
AcDbEntity
  8
AM_0
100
AcDbLine
 10
121.1944151227767
 20
148.1031167616513
 30
0.0
 11
124.3151382224961
 21
148.1031167616513
 31
0.0
  0
LINE
  5
2478
330
1F
100
AcDbEntity
  8
AM_0
100
AcDbLine
 10
130.8151382224961
 20
148.1031167616513
 30
0.0
 11
133.9358613222155
 21
148.1031167616513
 31
0.0
  0
ARC
  5
2479
330
1F
100
AcDbEntity
  8
AM_0
100
AcDbCircle
 10
127.5651382224961
 20
165.3078863735943
 30
0.0
 40
7.546181623938196
100
AcDbArc
 50
218.5695089084121
 51
321.4304910915878
  0
LINE
  5
247A
330
1F
100
AcDbEntity
  8
AM_0
100
AcDbLine
 10
121.5651382224961
 20
159.6031167616513
 30
0.0
 11
120.9877879533065
 21
160.6031167616513
 31
0.0
  0
ARC
  5
247B
330
1F
100
AcDbEntity
  8
AM_0
100
AcDbCircle
 10
117.7815242934368
 20
158.714332693819
 30
0.0
 40
3.783613929059307
100
AcDbArc
 50
331.1732975099165
 51
19.5701031551786
  0
LINE
  5
247C
330
1F
100
AcDbEntity
  8
AM_0
100
AcDbLine
 10
133.5651382224961
 20
159.6031167616513
 30
0.0
 11
134.1424884916857
 21
160.6031167616513
 31
0.0
  0
ARC
  5
247D
330
1F
100
AcDbEntity
  8
AM_0
100
AcDbCircle
 10
137.3487521515554
 20
158.714332693819
 30
0.0
 40
3.783613929059307
100
AcDbArc
 50
160.4298968448214
 51
208.8267024900835
  0
ARC
  5
247E
330
1F
100
AcDbEntity
  8
AM_0
100
AcDbCircle
 10
120.2039222903285
 20
140.569502832592
 30
0.0
 40
3.783613929059307
100
AcDbArc
 50
61.1732975099164
 51
72.82238010611215
  0
LINE
  5
247F
330
1F
100
AcDbEntity
  8
AM_0
100
AcDbLine
 10
122.0282372302443
 20
140.8219743853133
 30
0.0
 11
122.0282372302443
 21
143.8842591379894
 31
0.0
  0
LINE
  5
2480
330
1F
100
AcDbEntity
  8
AM_0
100
AcDbLine
 10
123.9165083426647
 20
140.8219743853132
 30
0.0
 11
123.9165083426645
 21
143.8842591379894
 31
0.0
  0
LINE
  5
2481
330
1F
100
AcDbEntity
  8
AM_0
100
AcDbLine
 10
131.2137681023275
 20
140.8219743853132
 30
0.0
 11
131.2137681023278
 21
143.8842591379894
 31
0.0
  0
LINE
  5
2482
330
1F
100
AcDbEntity
  8
AM_0
100
AcDbLine
 10
133.1020392147481
 20
143.8842591379894
 30
0.0
 11
133.1020392147481
 21
140.8219743853132
 31
0.0
  0
ARC
  5
2483
330
1F
100
AcDbEntity
  8
AM_0
100
AcDbCircle
 10
134.9263541546638
 20
140.569502832592
 30
0.0
 40
3.783613929059307
100
AcDbArc
 50
107.1776198938878
 51
118.8267024900836
  0
LINE
  5
2484
330
1F
100
AcDbEntity
  8
AM_0
100
AcDbLine
 10
133.1020392147481
 20
143.8842591379894
 30
0.0
 11
131.2137681023278
 21
143.8842591379894
 31
0.0
  0
ARC
  5
2487
330
1F
100
AcDbEntity
  8
AM_0
100
AcDbCircle
 10
127.5651382224962
 20
129.9219474809058
 30
0.0
 40
14.43116928074549
100
AcDbArc
 50
75.35497045026048
 51
76.98495058452573
  0
LINE
  5
2489
330
1F
100
AcDbEntity
  8
AM_0
100
AcDbLine
 10
121.5651382224961
 20
144.3531167616513
 30
0.0
 11
124.3151382224961
 21
144.3531167616513
 31
0.0
  0
LINE
  5
248A
330
1F
100
AcDbEntity
  8
AM_0
100
AcDbLine
 10
122.0282372302442
 20
143.8842591379894
 30
0.0
 11
123.9165083426645
 21
143.8842591379894
 31
0.0
  0
LINE
  5
2490
330
1F
100
AcDbEntity
  8
AM_0
100
AcDbLine
 10
118.3151382224962
 20
141.0799292616513
 30
0.0
 11
118.3151382224962
 21
142.1031167616513
 31
0.0
  0
LINE
  5
2491
330
1F
100
AcDbEntity
  8
AM_7
100
AcDbLine
 10
114.1681382224961
 20
151.3531167616513
 30
0.0
 11
160.4954054162317
 21
151.3531167616513
 31
0.0
1001
GENIUS_GENODEF_13
1002
{
1000
HIER
1070
     0
1002
}
1002
{
1000
MANEDIT
1070
     0
1002
}
1002
{
1000
NOSEL
1070
     0
1002
}
1002
{
1000
BEHIND
1070
     0
1002
}
1002
{
1000
OTHER
1070
     0
1002
}
1002
{
1000
REACTOR
1002
}
1001
GENIUS_GENOBJ-N-CEN_13
1002
{
1000
OWNER
1000
GEN
1002
}
  0
LINE
  5
2492
330
1F
100
AcDbEntity
  8
AM_0
100
AcDbLine
 10
130.8151382224961
 20
143.982393661932
 30
0.0
 11
130.8151382224961
 21
148.1031167616513
 31
0.0
  0
LINE
  5
2493
330
1F
100
AcDbEntity
  8
AM_0
100
AcDbLine
 10
124.3151382224961
 20
143.9823936619319
 30
0.0
 11
124.3151382224961
 21
148.1031167616513
 31
0.0
  0
LINE
  5
2494
330
1F
100
AcDbEntity
  8
AM_0
100
AcDbLine
 10
136.8151382224961
 20
141.0799292616514
 30
0.0
 11
136.8151382224961
 21
142.1031167616513
 31
0.0
  0
LINE
  5
2495
330
1F
100
AcDbEntity
  8
AM_0
100
AcDbLine
 10
133.5651382224961
 20
144.3531167616513
 30
0.0
 11
136.8151382224961
 21
142.1031167616513
 31
0.0
  0
LINE
  5
2496
330
1F
100
AcDbEntity
  8
AM_0
100
AcDbLine
 10
118.3151382224962
 20
142.1031167616513
 30
0.0
 11
121.5651382224961
 21
144.3531167616513
 31
0.0
  0
LWPOLYLINE
  5
250A
330
1F
100
AcDbEntity
  8
AM_0
100
AcDbPolyline
 90
        2
 70
     0
 43
0.0
 10
195.4094260189973
 20
160.5386476337348
 10
189.089813689115
 20
156.8900177539032
  0
ARC
  5
250B
330
1F
100
AcDbEntity
  8
AM_0
100
AcDbCircle
 10
196.4996198540561
 20
151.3531167616513
 30
0.0
 40
9.25
100
AcDbArc
 50
83.23145650500768
 51
96.76854349499231
  0
LWPOLYLINE
  5
250C
330
1F
100
AcDbEntity
  8
AM_0
100
AcDbPolyline
 90
        2
 70
     0
 43
0.0
 10
203.9094260189973
 20
156.8900177539032
 10
197.589813689115
 20
160.5386476337348
  0
ARC
  5
250D
330
1F
100
AcDbEntity
  8
AM_0
100
AcDbCircle
 10
196.4996198540561
 20
151.3531167616513
 30
0.0
 40
9.25
100
AcDbArc
 50
23.23145650500681
 51
36.76854349499226
  0
LWPOLYLINE
  5
250E
330
1F
100
AcDbEntity
  8
AM_0
100
AcDbPolyline
 90
        2
 70
     0
 43
0.0
 10
204.9996198540561
 20
144.3531167616513
 10
204.9996198540561
 20
155.0017466414829
  0
ARC
  5
250F
330
1F
100
AcDbEntity
  8
AM_0
100
AcDbCircle
 10
196.4996198540561
 20
151.3531167616513
 30
0.0
 40
9.25
100
AcDbArc
 50
323.2314565050076
 51
336.7685434949919
  0
LWPOLYLINE
  5
2510
330
1F
100
AcDbEntity
  8
AM_0
100
AcDbPolyline
 90
        2
 70
     0
 43
0.0
 10
197.589813689115
 20
142.1675858895678
 10
203.9094260189973
 20
145.8162157693994
  0
ARC
  5
2511
330
1F
100
AcDbEntity
  8
AM_0
100
AcDbCircle
 10
196.4996198540561
 20
151.3531167616513
 30
0.0
 40
9.25
100
AcDbArc
 50
263.2314565050076
 51
276.7685434949923
  0
ARC
  5
2512
330
1F
100
AcDbEntity
  8
AM_0
100
AcDbCircle
 10
196.4996198540561
 20
151.3531167616513
 30
0.0
 40
9.25
100
AcDbArc
 50
143.2314565050077
 51
156.7685434949919
  0
ARC
  5
2513
330
1F
100
AcDbEntity
  8
AM_0
100
AcDbCircle
 10
196.4996198540561
 20
151.3531167616513
 30
0.0
 40
9.25
100
AcDbArc
 50
203.231456505008
 51
216.7685434949924
  0
LINE
  5
2514
330
1F
100
AcDbEntity
  8
AM_0
100
AcDbLine
 10
188.4996198540562
 20
155.1031167616513
 30
0.0
 11
189.4329728415048
 21
155.1031167616513
 31
0.0
  0
LINE
  5
2515
330
1F
100
AcDbEntity
  8
AM_0
100
AcDbLine
 10
187.9996198540561
 20
155.0017466414829
 30
0.0
 11
187.9996198540561
 21
144.3531167616513
 31
0.0
  0
ARC
  5
2516
330
1F
100
AcDbEntity
  8
AM_0
100
AcDbCircle
 10
188.4996198540562
 20
154.6031167616513
 30
0.0
 40
0.5
100
AcDbArc
 50
90.0
 51
180.0
1001
GENIUS_GENODEF_13
1002
{
1000
HIER
1070
     0
1002
}
1002
{
1000
MANEDIT
1070
     0
1002
}
1002
{
1000
NOSEL
1070
     0
1002
}
1002
{
1000
BEHIND
1070
     0
1002
}
1002
{
1000
OTHER
1070
     0
1002
}
1002
{
1000
REACTOR
1002
}
1001
GENIUS_GENOBJ-N-FIL_13
1002
{
1000
OWNER
1000
GEN
1002
}
  0
ARC
  5
2517
330
1F
100
AcDbEntity
  8
AM_0
100
AcDbCircle
 10
188.4996198540562
 20
148.1031167616513
 30
0.0
 40
0.5
100
AcDbArc
 50
180.0
 51
270.0
1001
GENIUS_GENODEF_13
1002
{
1000
HIER
1070
     0
1002
}
1002
{
1000
MANEDIT
1070
     0
1002
}
1002
{
1000
NOSEL
1070
     0
1002
}
1002
{
1000
BEHIND
1070
     0
1002
}
1002
{
1000
OTHER
1070
     0
1002
}
1002
{
1000
REACTOR
1002
}
1001
GENIUS_GENOBJ-N-FIL_13
1002
{
1000
OWNER
1000
GEN
1002
}
  0
LINE
  5
2518
330
1F
100
AcDbEntity
  8
AM_0
100
AcDbLine
 10
188.4996198540562
 20
147.6031167616513
 30
0.0
 11
189.4329728415048
 21
147.6031167616513
 31
0.0
  0
LINE
  5
2519
330
1F
100
AcDbEntity
  8
AM_0
100
AcDbLine
 10
204.9996198540561
 20
144.3531167616513
 30
0.0
 11
201.3752642010741
 21
144.3531167616513
 31
0.0
  0
LINE
  5
251A
330
1F
100
AcDbEntity
  8
AM_0
100
AcDbLine
 10
195.4094260189972
 20
142.1675858895678
 30
0.0
 11
195.4094260189972
 21
140.930467030841
 31
0.0
  0
LINE
  5
251C
330
1F
100
AcDbEntity
  8
AM_0
100
AcDbLine
 10
189.0898136891149
 20
143.7757664924617
 30
0.0
 11
187.9996198540561
 21
143.7757664924617
 31
0.0
  0
LINE
  5
251F
330
1F
100
AcDbEntity
  8
AM_0
100
AcDbLine
 10
203.9094260189973
 20
143.7757664924617
 30
0.0
 11
204.9996198540561
 21
143.7757664924617
 31
0.0
  0
ARC
  5
2520
330
1F
100
AcDbEntity
  8
AM_0
100
AcDbCircle
 10
192.2496198540561
 20
135.4177192361464
 30
0.0
 40
8.935397525504949
100
AcDbArc
 50
93.79674351384677
 51
110.7093770285277
  0
ARC
  5
2521
330
1F
100
AcDbEntity
  8
AM_0
100
AcDbCircle
 10
200.7496198540561
 20
135.4177192361464
 30
0.0
 40
8.935397525504949
100
AcDbArc
 50
69.29062297147222
 51
86.20325648615322
  0
LINE
  5
2524
330
1F
100
AcDbEntity
  8
AM_0
100
AcDbLine
 10
189.089813689115
 20
140.930467030841
 30
0.0
 11
189.089813689115
 21
143.7757664924617
 31
0.0
  0
LINE
  5
2525
330
1F
100
AcDbEntity
  8
AM_0
100
AcDbLine
 10
197.5898136891151
 20
140.930467030841
 30
0.0
 11
197.589813689115
 21
142.1675858895678
 31
0.0
  0
LINE
  5
2526
330
1F
100
AcDbEntity
  8
AM_0
100
AcDbLine
 10
203.9094260189973
 20
140.930467030841
 30
0.0
 11
203.9094260189973
 21
143.7757664924617
 31
0.0
  0
LINE
  5
2529
330
1F
100
AcDbEntity
  8
AM_0
100
AcDbLine
 10
187.9996198540561
 20
140.3531167616514
 30
0.0
 11
187.9996198540561
 21
144.3531167616513
 31
0.0
  0
LINE
  5
252A
330
1F
100
AcDbEntity
  8
AM_0
100
AcDbLine
 10
204.9996198540561
 20
140.3531167616514
 30
0.0
 11
204.9996198540561
 21
144.3531167616513
 31
0.0
  0
LINE
  5
252B
330
1F
100
AcDbEntity
  8
AM_0
100
AcDbLine
 10
191.6239755070382
 20
144.3531167616513
 30
0.0
 11
187.9996198540561
 21
144.3531167616513
 31
0.0
  0
ARC
  5
252C
330
1F
100
AcDbEntity
  8
AM_0
100
AcDbCircle
 10
204.4996198540562
 20
154.6031167616513
 30
0.0
 40
0.5
100
AcDbArc
 50
0.0
 51
90.0
1001
GENIUS_GENODEF_13
1002
{
1000
HIER
1070
     0
1002
}
1002
{
1000
MANEDIT
1070
     0
1002
}
1002
{
1000
NOSEL
1070
     0
1002
}
1002
{
1000
BEHIND
1070
     0
1002
}
1002
{
1000
OTHER
1070
     0
1002
}
1002
{
1000
REACTOR
1002
}
1001
GENIUS_GENOBJ-N-FIL_13
1002
{
1000
OWNER
1000
GEN
1002
}
  0
LINE
  5
252D
330
1F
100
AcDbEntity
  8
AM_0
100
AcDbLine
 10
204.4996198540562
 20
155.1031167616513
 30
0.0
 11
203.5662668666075
 21
155.1031167616513
 31
0.0
  0
LINE
  5
252E
330
1F
100
AcDbEntity
  8
AM_0
100
AcDbLine
 10
204.4996198540562
 20
147.6031167616513
 30
0.0
 11
203.5662668666075
 21
147.6031167616513
 31
0.0
  0
ARC
  5
252F
330
1F
100
AcDbEntity
  8
AM_0
100
AcDbCircle
 10
204.4996198540562
 20
148.1031167616513
 30
0.0
 40
0.5
100
AcDbArc
 50
270.0
 51
0.0
1001
GENIUS_GENODEF_13
1002
{
1000
HIER
1070
     0
1002
}
1002
{
1000
MANEDIT
1070
     0
1002
}
1002
{
1000
NOSEL
1070
     0
1002
}
1002
{
1000
BEHIND
1070
     0
1002
}
1002
{
1000
OTHER
1070
     0
1002
}
1002
{
1000
REACTOR
1002
}
1001
GENIUS_GENOBJ-N-FIL_13
1002
{
1000
OWNER
1000
GEN
1002
}
  0
LWPOLYLINE
  5
2530
330
1F
100
AcDbEntity
  8
AM_0
100
AcDbPolyline
 90
        2
 70
     0
 43
0.0
 10
195.4094260189973
 20
142.1675858895678
 10
189.089813689115
 20
145.8162157693994
  0
LINE
  5
27C9
330
1F
100
AcDbEntity
  8
AM_0
100
AcDbLine
 10
142.5651382224961
 20
143.5531167616514
 30
0.0
 11
142.3651382224962
 21
143.3531167616514
 31
0.0
1001
GENIUS_GENFIL_13
1070
     0
1040
0.2
1040
0.2
1040
0.2000000000000455
1040
45.00000000000407
1000
~T
1001
GENIUS_GENOREF_13
1005
27E1
  0
LINE
  5
27CA
330
1F
100
AcDbEntity
  8
AM_0
100
AcDbLine
 10
142.5651382224961
 20
143.5531167616514
 30
0.0
 11
142.5651382224967
 21
151.3531167616514
 31
0.0
  0
LINE
  5
27CB
330
1F
100
AcDbEntity
  8
AM_0
100
AcDbLine
 10
142.5651382224961
 20
159.1531167616515
 30
0.0
 11
142.5651382224964
 21
151.3531167616514
 31
0.0
  0
LINE
  5
27CC
330
1F
100
AcDbEntity
  8
AM_0
100
AcDbLine
 10
142.5651382224961
 20
159.1531167616515
 30
0.0
 11
142.3651382224962
 21
159.3531167616514
 31
0.0
1001
GENIUS_GENFIL_13
1070
     0
1040
0.2
1040
0.2
1040
0.2000000000000455
1040
45.00000000000407
1000
~T
1001
GENIUS_GENOREF_13
1005
0
  0
LINE
  5
27CD
330
1F
100
AcDbEntity
  8
AM_0
100
AcDbLine
 10
142.5651382224962
 20
158.8531167616514
 30
0.0
 11
155.8651382224962
 21
158.8531167616513
 31
0.0
  0
LINE
  5
27CE
330
1F
100
AcDbEntity
  8
AM_0
100
AcDbLine
 10
156.0651382224961
 20
158.6531167616514
 30
0.0
 11
156.0651382224962
 21
151.3531167616514
 31
0.0
  0
LINE
  5
27CF
330
1F
100
AcDbEntity
  8
AM_0
100
AcDbLine
 10
156.0651382224961
 20
158.6531167616514
 30
0.0
 11
155.8651382224961
 21
158.8531167616514
 31
0.0
1001
GENIUS_GENFIL_13
1070
     0
1040
0.2
1040
0.2
1040
20.0
1040
0.0
1002
{
1002
}
1001
GENIUS_GENODEF_13
1002
{
1000
HIER
1070
     0
1002
}
1002
{
1000
MANEDIT
1070
     0
1002
}
1002
{
1000
NOSEL
1070
     0
1002
}
1002
{
1000
BEHIND
1070
     0
1002
}
1002
{
1000
REACTOR
1002
}
1001
GENIUS_GENOBJ-N-CHA_13
1002
{
1000
OWNER
1000
GEN
1002
}
  0
LINE
  5
27D0
330
1F
100
AcDbEntity
  8
AM_0
100
AcDbLine
 10
157.5651382224962
 20
157.8531167616514
 30
0.0
 11
158.5651382224963
 21
157.8531167616514
 31
0.0
  0
LINE
  5
27D1
330
1F
100
AcDbEntity
  8
AM_0
100
AcDbLine
 10
142.3651382224962
 20
159.3531167616514
 30
0.0
 11
142.3651382224962
 21
143.3531167616514
 31
0.0
  0
LINE
  5
27D2
330
1F
100
AcDbEntity
  8
AM_0
100
AcDbLine
 10
155.8651382224961
 20
158.8531167616514
 30
0.0
 11
155.8651382224961
 21
151.3531167616514
 31
0.0
  0
LINE
  5
27D3
330
1F
100
AcDbEntity
  8
AM_0
100
AcDbLine
 10
158.5651382224963
 20
157.8531167616514
 30
0.0
 11
158.5651382224963
 21
151.3531167616514
 31
0.0
  0
LINE
  5
27D4
330
1F
100
AcDbEntity
  8
AM_0
100
AcDbLine
 10
156.0651382224962
 20
156.3531167616514
 30
0.0
 11
157.0651382224962
 21
156.3531167616514
 31
0.0
  0
LINE
  5
27D5
330
1F
100
AcDbEntity
  8
AM_0
100
AcDbLine
 10
157.0651382224963
 20
157.3531167616515
 30
0.0
 11
157.0651382224963
 21
151.3531167616514
 31
0.0
  0
LINE
  5
27D6
330
1F
100
AcDbEntity
  8
AM_0
100
AcDbLine
 10
156.0651382224961
 20
144.0531167616514
 30
0.0
 11
156.0651382224962
 21
151.3531167616514
 31
0.0
  0
LINE
  5
27D7
330
1F
100
AcDbEntity
  8
AM_0
100
AcDbLine
 10
155.8651382224961
 20
143.8531167616514
 30
0.0
 11
155.8651382224961
 21
151.3531167616514
 31
0.0
  0
LINE
  5
27D8
330
1F
100
AcDbEntity
  8
AM_0
100
AcDbLine
 10
142.5651382224962
 20
143.8531167616514
 30
0.0
 11
155.8651382224961
 21
143.8531167616514
 31
0.0
  0
LINE
  5
27D9
330
1F
100
AcDbEntity
  8
AM_0
100
AcDbLine
 10
156.0651382224961
 20
144.0531167616514
 30
0.0
 11
155.8651382224961
 21
143.8531167616514
 31
0.0
1001
GENIUS_GENFIL_13
1070
     0
1040
0.2
1040
0.2
1040
20.0
1040
0.0
1002
{
1002
}
1001
GENIUS_GENODEF_13
1002
{
1000
HIER
1070
     0
1002
}
1002
{
1000
MANEDIT
1070
     0
1002
}
1002
{
1000
NOSEL
1070
     0
1002
}
1002
{
1000
BEHIND
1070
     0
1002
}
1002
{
1000
REACTOR
1002
}
1001
GENIUS_GENOBJ-N-CHA_13
1002
{
1000
OWNER
1000
GEN
1002
}
  0
LINE
  5
27DA
330
1F
100
AcDbEntity
  8
AM_0
100
AcDbLine
 10
157.5651382224962
 20
157.8531167616514
 30
0.0
 11
157.0651382224963
 21
157.3531167616514
 31
0.0
1001
GENIUS_GENFIL_13
1070
     0
1040
0.5
1040
0.5
1040
20.0
1040
0.0
1002
{
1002
}
1001
GENIUS_GENODEF_13
1002
{
1000
HIER
1070
     0
1002
}
1002
{
1000
MANEDIT
1070
     0
1002
}
1002
{
1000
NOSEL
1070
     0
1002
}
1002
{
1000
BEHIND
1070
     0
1002
}
1002
{
1000
REACTOR
1002
}
1001
GENIUS_GENOBJ-N-CHA_13
1002
{
1000
OWNER
1000
GEN
1002
}
  0
LINE
  5
27DB
330
1F
100
AcDbEntity
  8
AM_0
100
AcDbLine
 10
157.0651382224963
 20
145.3531167616513
 30
0.0
 11
157.0651382224963
 21
151.3531167616514
 31
0.0
  0
LINE
  5
27DC
330
1F
100
AcDbEntity
  8
AM_0
100
AcDbLine
 10
158.5651382224963
 20
144.8531167616514
 30
0.0
 11
158.5651382224963
 21
151.3531167616514
 31
0.0
  0
LINE
  5
27DD
330
1F
100
AcDbEntity
  8
AM_0
100
AcDbLine
 10
157.5651382224962
 20
144.8531167616514
 30
0.0
 11
158.5651382224963
 21
144.8531167616514
 31
0.0
  0
LINE
  5
27DE
330
1F
100
AcDbEntity
  8
AM_0
100
AcDbLine
 10
157.5651382224962
 20
144.8531167616514
 30
0.0
 11
157.0651382224963
 21
145.3531167616514
 31
0.0
1001
GENIUS_GENFIL_13
1070
     0
1040
0.5
1040
0.5
1040
20.0
1040
0.0
1002
{
1002
}
1001
GENIUS_GENODEF_13
1002
{
1000
HIER
1070
     0
1002
}
1002
{
1000
MANEDIT
1070
     0
1002
}
1002
{
1000
NOSEL
1070
     0
1002
}
1002
{
1000
BEHIND
1070
     0
1002
}
1002
{
1000
REACTOR
1002
}
1001
GENIUS_GENOBJ-N-CHA_13
1002
{
1000
OWNER
1000
GEN
1002
}
  0
LINE
  5
27DF
330
1F
100
AcDbEntity
  8
AM_0
100
AcDbLine
 10
156.0651382224962
 20
146.3531167616514
 30
0.0
 11
157.0651382224962
 21
146.3531167616514
 31
0.0
  0
LINE
  5
27E0
330
1F
100
AcDbEntity
  8
AM_0
100
AcDbLine
 10
157.5651382224962
 20
157.8531167616514
 30
0.0
 11
157.5651382224962
 21
144.8531167616514
 31
0.0
  0
POINT
  5
27E1
330
1F
100
AcDbEntity
  8
0
 60
     1
100
AcDbPoint
 10
-125.7891463410301
 20
-197.9580243098148
 30
0.0
1001
GENIUS_GENODEF_13
1002
{
1000
HIER
1070
     1
1002
}
1002
{
1000
MANEDIT
1070
     0
1002
}
1002
{
1000
NOSEL
1070
     0
1002
}
1002
{
1000
BEHIND
1070
     0
1002
}
1002
{
1000
REACTOR
1002
}
1001
GENIUS_GENOBJ-N-CHA_13
1002
{
1000
OWNER
1000
GEN
1002
}
1001
GENIUS_GENOENT_13
1002
{
1000
MYREF
1005
27E1
1002
}
1002
{
1000
GRP
1005
0
1002
}
1001
GENIUS_GENOLIS_13
1002
{
1000
ENT
1005
27C9
1002
}
  0
LINE
  5
2838
330
1F
100
AcDbEntity
  8
AM_0
100
AcDbLine
 10
142.5651382224961
 20
197.2267631422578
 30
0.0
 11
142.3651382224962
 21
197.0267631422578
 31
0.0
1001
GENIUS_GENFIL_13
1070
     0
1040
0.2
1040
0.2
1040
0.2000000000000455
1040
45.00000000000407
1000
~T
1001
GENIUS_GENOREF_13
1005
2850
  0
LINE
  5
2839
330
1F
100
AcDbEntity
  8
AM_0
100
AcDbLine
 10
142.5651382224961
 20
197.2267631422578
 30
0.0
 11
142.5651382224964
 21
201.0162037519454
 31
0.0
  0
LINE
  5
283A
330
1F
100
AcDbEntity
  8
AM_0
100
AcDbLine
 10
142.5651382224961
 20
212.8267631422578
 30
0.0
 11
142.5651382224963
 21
209.0373225325698
 31
0.0
  0
LINE
  5
283B
330
1F
100
AcDbEntity
  8
AM_0
100
AcDbLine
 10
142.5651382224961
 20
212.8267631422578
 30
0.0
 11
142.3651382224962
 21
213.0267631422578
 31
0.0
1001
GENIUS_GENFIL_13
1070
     0
1040
0.2
1040
0.2
1040
0.2000000000000455
1040
45.00000000000407
1000
~T
1001
GENIUS_GENOREF_13
1005
0
  0
LINE
  5
283C
330
1F
100
AcDbEntity
  8
AM_0
100
AcDbLine
 10
142.5651382224962
 20
212.5267631422578
 30
0.0
 11
155.8651382224962
 21
212.5267631422577
 31
0.0
  0
LINE
  5
283D
330
1F
100
AcDbEntity
  8
AM_0
100
AcDbLine
 10
156.0651382224961
 20
212.3267631422578
 30
0.0
 11
156.0651382224961
 21
208.5267631422576
 31
0.0
  0
LINE
  5
283E
330
1F
100
AcDbEntity
  8
AM_0
100
AcDbLine
 10
156.0651382224961
 20
212.3267631422578
 30
0.0
 11
155.8651382224961
 21
212.5267631422578
 31
0.0
1001
GENIUS_GENFIL_13
1070
     0
1040
0.2
1040
0.2
1040
20.0
1040
0.0
1002
{
1002
}
1001
GENIUS_GENODEF_13
1002
{
1000
HIER
1070
     0
1002
}
1002
{
1000
MANEDIT
1070
     0
1002
}
1002
{
1000
NOSEL
1070
     0
1002
}
1002
{
1000
BEHIND
1070
     0
1002
}
1002
{
1000
REACTOR
1002
}
1001
GENIUS_GENOBJ-N-CHA_13
1002
{
1000
OWNER
1000
GEN
1002
}
  0
LINE
  5
283F
330
1F
100
AcDbEntity
  8
AM_0
100
AcDbLine
 10
157.5651382224962
 20
211.5267631422578
 30
0.0
 11
158.5651382224963
 21
211.5267631422578
 31
0.0
  0
LINE
  5
2840
330
1F
100
AcDbEntity
  8
AM_0
100
AcDbLine
 10
142.3651382224962
 20
213.0267631422578
 30
0.0
 11
142.3651382224961
 21
209.0628540342786
 31
0.0
  0
LINE
  5
2841
330
1F
100
AcDbEntity
  8
AM_0
100
AcDbLine
 10
155.8651382224961
 20
212.5267631422578
 30
0.0
 11
155.8651382224961
 21
208.5267631422576
 31
0.0
  0
LINE
  5
2842
330
1F
100
AcDbEntity
  8
AM_0
100
AcDbLine
 10
158.5651382224963
 20
211.5267631422578
 30
0.0
 11
158.5651382224963
 21
208.5267631422576
 31
0.0
  0
LINE
  5
2843
330
1F
100
AcDbEntity
  8
AM_0
100
AcDbLine
 10
156.0651382224962
 20
210.0267631422578
 30
0.0
 11
157.0651382224962
 21
210.0267631422578
 31
0.0
  0
LINE
  5
2844
330
1F
100
AcDbEntity
  8
AM_0
100
AcDbLine
 10
157.0651382224963
 20
211.0267631422579
 30
0.0
 11
157.0651382224963
 21
208.5267631422577
 31
0.0
  0
LINE
  5
2845
330
1F
100
AcDbEntity
  8
AM_0
100
AcDbLine
 10
156.0651382224961
 20
197.7267631422577
 30
0.0
 11
156.0651382224961
 21
201.5267631422576
 31
0.0
  0
LINE
  5
2846
330
1F
100
AcDbEntity
  8
AM_0
100
AcDbLine
 10
155.8651382224961
 20
197.5267631422578
 30
0.0
 11
155.8651382224961
 21
201.5267631422577
 31
0.0
  0
LINE
  5
2847
330
1F
100
AcDbEntity
  8
AM_0
100
AcDbLine
 10
142.5651382224962
 20
197.5267631422578
 30
0.0
 11
155.8651382224961
 21
197.5267631422577
 31
0.0
  0
LINE
  5
2848
330
1F
100
AcDbEntity
  8
AM_0
100
AcDbLine
 10
156.0651382224961
 20
197.7267631422577
 30
0.0
 11
155.8651382224961
 21
197.5267631422578
 31
0.0
1001
GENIUS_GENFIL_13
1070
     0
1040
0.2
1040
0.2
1040
20.0
1040
0.0
1002
{
1002
}
1001
GENIUS_GENODEF_13
1002
{
1000
HIER
1070
     0
1002
}
1002
{
1000
MANEDIT
1070
     0
1002
}
1002
{
1000
NOSEL
1070
     0
1002
}
1002
{
1000
BEHIND
1070
     0
1002
}
1002
{
1000
REACTOR
1002
}
1001
GENIUS_GENOBJ-N-CHA_13
1002
{
1000
OWNER
1000
GEN
1002
}
  0
LINE
  5
2849
330
1F
100
AcDbEntity
  8
AM_0
100
AcDbLine
 10
157.5651382224962
 20
211.5267631422578
 30
0.0
 11
157.0651382224962
 21
211.0267631422578
 31
0.0
1001
GENIUS_GENFIL_13
1070
     0
1040
0.5
1040
0.5
1040
20.0
1040
0.0
1002
{
1002
}
1001
GENIUS_GENODEF_13
1002
{
1000
HIER
1070
     0
1002
}
1002
{
1000
MANEDIT
1070
     0
1002
}
1002
{
1000
NOSEL
1070
     0
1002
}
1002
{
1000
BEHIND
1070
     0
1002
}
1002
{
1000
REACTOR
1002
}
1001
GENIUS_GENOBJ-N-CHA_13
1002
{
1000
OWNER
1000
GEN
1002
}
  0
LINE
  5
284A
330
1F
100
AcDbEntity
  8
AM_0
100
AcDbLine
 10
157.0651382224963
 20
199.0267631422577
 30
0.0
 11
157.0651382224963
 21
201.5267631422576
 31
0.0
  0
LINE
  5
284B
330
1F
100
AcDbEntity
  8
AM_0
100
AcDbLine
 10
158.5651382224963
 20
198.5267631422578
 30
0.0
 11
158.5651382224963
 21
201.5267631422576
 31
0.0
  0
LINE
  5
284C
330
1F
100
AcDbEntity
  8
AM_0
100
AcDbLine
 10
157.5651382224962
 20
198.5267631422578
 30
0.0
 11
158.5651382224963
 21
198.5267631422578
 31
0.0
  0
LINE
  5
284D
330
1F
100
AcDbEntity
  8
AM_0
100
AcDbLine
 10
157.5651382224962
 20
198.5267631422578
 30
0.0
 11
157.0651382224962
 21
199.0267631422577
 31
0.0
1001
GENIUS_GENFIL_13
1070
     0
1040
0.5
1040
0.5
1040
20.0
1040
0.0
1002
{
1002
}
1001
GENIUS_GENODEF_13
1002
{
1000
HIER
1070
     0
1002
}
1002
{
1000
MANEDIT
1070
     0
1002
}
1002
{
1000
NOSEL
1070
     0
1002
}
1002
{
1000
BEHIND
1070
     0
1002
}
1002
{
1000
REACTOR
1002
}
1001
GENIUS_GENOBJ-N-CHA_13
1002
{
1000
OWNER
1000
GEN
1002
}
  0
LINE
  5
284E
330
1F
100
AcDbEntity
  8
AM_0
100
AcDbLine
 10
156.0651382224962
 20
200.0267631422578
 30
0.0
 11
157.0651382224962
 21
200.0267631422578
 31
0.0
  0
LINE
  5
284F
330
1F
100
AcDbEntity
  8
AM_0
100
AcDbLine
 10
157.5651382224962
 20
211.5267631422578
 30
0.0
 11
157.5651382224962
 21
208.5267631422576
 31
0.0
  0
POINT
  5
2850
330
1F
100
AcDbEntity
  8
0
 60
     1
100
AcDbPoint
 10
-125.7891463410301
 20
-138.1848624384943
 30
0.0
1001
GENIUS_GENODEF_13
1002
{
1000
HIER
1070
     1
1002
}
1002
{
1000
MANEDIT
1070
     0
1002
}
1002
{
1000
NOSEL
1070
     0
1002
}
1002
{
1000
BEHIND
1070
     0
1002
}
1002
{
1000
REACTOR
1002
}
1001
GENIUS_GENOBJ-N-CHA_13
1002
{
1000
OWNER
1000
GEN
1002
}
1001
GENIUS_GENOENT_13
1002
{
1000
MYREF
1005
2850
1002
}
1002
{
1000
GRP
1005
0
1002
}
1001
GENIUS_GENOLIS_13
1002
{
1000
ENT
1005
2838
1002
}
  0
LINE
  5
2866
330
1F
100
AcDbEntity
  8
AM_0
100
AcDbLine
 10
157.5651382224962
 20
201.5267631422576
 30
0.0
 11
157.5651382224962
 21
198.5267631422578
 31
0.0
  0
LINE
  5
2867
330
1F
100
AcDbEntity
  8
AM_0
100
AcDbLine
 10
142.3651382224961
 20
200.9906722502366
 30
0.0
 11
142.3651382224962
 21
197.0267631422578
 31
0.0
  0
LINE
  5
29C4
330
1F
100
AcDbEntity
  8
AM_0
100
AcDbLine
 10
133.1020392147479
 20
140.8219743853133
 30
0.0
 11
131.2137681023276
 21
140.8219743853133
 31
0.0
  0
ARC
  5
29C5
330
1F
100
AcDbEntity
  8
AM_0
100
AcDbCircle
 10
134.9263541546636
 20
144.1367306907107
 30
0.0
 40
3.783613929059307
100
AcDbArc
 50
241.1732975099172
 51
289.5701031551776
  0
ARC
  5
29C6
330
1F
100
AcDbEntity
  8
AM_0
100
AcDbCircle
 10
127.565138222496
 20
154.7842860423969
 30
0.0
 40
14.43116928074549
100
AcDbArc
 50
255.3549704502605
 51
284.6450295497395
  0
LINE
  5
29C7
330
1F
100
AcDbEntity
  8
AM_0
100
AcDbLine
 10
122.0282372302441
 20
140.8219743853133
 30
0.0
 11
123.9165083426644
 21
140.8219743853133
 31
0.0
  0
ARC
  5
29C8
330
1F
100
AcDbEntity
  8
AM_0
100
AcDbCircle
 10
120.2039222903283
 20
144.1367306907107
 30
0.0
 40
3.783613929059307
100
AcDbArc
 50
250.4298968448224
 51
298.8267024900835
  0
LINE
  5
29C9
330
1F
100
AcDbEntity
  8
AM_0
100
AcDbLine
 10
119.315138222496
 20
140.3531167616514
 30
0.0
 11
118.6687696574999
 21
140.7262978266476
 31
0.0
  0
LINE
  5
29CA
330
1F
100
AcDbEntity
  8
0
100
AcDbLine
 10
119.315138222496
 20
140.3531167616514
 30
0.0
 11
127.565138222496
 21
140.3531167616514
 31
0.0
  0
LINE
  5
29CB
330
1F
100
AcDbEntity
  8
AM_0
100
AcDbLine
 10
135.815138222496
 20
140.3531167616514
 30
0.0
 11
136.4615067874925
 21
140.7262978266479
 31
0.0
  0
LINE
  5
29CC
330
1F
100
AcDbEntity
  8
0
100
AcDbLine
 10
135.815138222496
 20
140.3531167616514
 30
0.0
 11
127.565138222496
 21
140.3531167616514
 31
0.0
  0
LINE
  5
29CD
330
1F
100
AcDbEntity
  8
0
100
AcDbLine
 10
119.367766052694
 20
129.9270261953177
 30
0.0
 11
119.0419507224961
 21
140.3531167616514
 31
0.0
  0
LINE
  5
29CE
330
1F
100
AcDbEntity
  8
AM_4
100
AcDbLine
 10
120.2731915098989
 20
128.3587833009724
 30
0.0
 11
119.9259949720513
 21
139.4690725120961
 31
0.0
  0
LINE
  5
29CF
330
1F
100
AcDbEntity
  8
AM_0
100
AcDbLine
 10
120.565138222496
 20
127.8531167616513
 30
0.0
 11
119.367766052694
 21
129.9270261953177
 31
0.0
  0
LINE
  5
29D0
330
1F
100
AcDbEntity
  8
AM_0
100
AcDbLine
 10
120.5651382224961
 20
127.8531167616513
 30
0.0
 11
134.565138222496
 21
127.8531167616514
 31
0.0
  0
LINE
  5
29D1
330
1F
100
AcDbEntity
  8
AM_4
100
AcDbLine
 10
134.8570849350931
 20
128.3587833009723
 30
0.0
 11
135.2042814729407
 21
139.4690725120961
 31
0.0
  0
LINE
  5
29D2
330
1F
100
AcDbEntity
  8
0
100
AcDbLine
 10
135.762510392298
 20
129.9270261953175
 30
0.0
 11
136.088325722496
 21
140.3531167616514
 31
0.0
  0
LINE
  5
29D3
330
1F
100
AcDbEntity
  8
AM_0
100
AcDbLine
 10
134.565138222496
 20
127.8531167616514
 30
0.0
 11
135.762510392298
 21
129.9270261953175
 31
0.0
  0
LINE
  5
29D5
330
1F
100
AcDbEntity
  8
AM_4
100
AcDbLine
 10
119.0419507224961
 20
140.3531167616514
 30
0.0
 11
119.9259949720513
 21
139.4690725120961
 31
0.0
  0
LINE
  5
29D6
330
1F
100
AcDbEntity
  8
AM_4
100
AcDbLine
 10
136.088325722496
 20
140.3531167616514
 30
0.0
 11
135.2042814729407
 21
139.4690725120961
 31
0.0
  0
LINE
  5
29D7
330
1F
100
AcDbEntity
  8
AM_0
100
AcDbLine
 10
119.0419507224961
 20
140.3531167616514
 30
0.0
 11
118.3151382224962
 21
141.0799292616513
 31
0.0
  0
LINE
  5
29D8
330
1F
100
AcDbEntity
  8
AM_0
100
AcDbLine
 10
136.088325722496
 20
140.3531167616514
 30
0.0
 11
136.815138222496
 21
141.0799292616514
 31
0.0
  0
LINE
  5
29D9
330
1F
100
AcDbEntity
  8
AM_0
100
AcDbLine
 10
119.9259949720513
 20
139.4690725120961
 30
0.0
 11
119.0695771052947
 21
139.4690725120961
 31
0.0
  0
LINE
  5
29DA
330
1F
100
AcDbEntity
  8
AM_0
100
AcDbLine
 10
135.2042814729407
 20
139.4690725120961
 30
0.0
 11
136.0606993396974
 21
139.4690725120961
 31
0.0
  0
LINE
  5
29DB
330
1F
100
AcDbEntity
  8
0
100
AcDbLine
 10
119.9259949720513
 20
139.4690725120961
 30
0.0
 11
135.2042814729407
 21
139.4690725120961
 31
0.0
  0
LINE
  5
29DC
330
1F
100
AcDbEntity
  8
0
100
AcDbLine
 10
119.367766052694
 20
129.9270261953177
 30
0.0
 11
135.762510392298
 21
129.9270261953175
 31
0.0
  0
LINE
  5
29DD
330
1F
100
AcDbEntity
  8
0
100
AcDbLine
 10
119.0419507224961
 20
140.3531167616514
 30
0.0
 11
136.088325722496
 21
140.3531167616514
 31
0.0
  0
LINE
  5
2A48
330
1F
100
AcDbEntity
  8
AM_0
100
AcDbLine
 10
189.0898136891149
 20
140.930467030841
 30
0.0
 11
187.9996198540561
 21
140.930467030841
 31
0.0
  0
LINE
  5
2A49
330
1F
100
AcDbEntity
  8
AM_0
100
AcDbLine
 10
197.589813689115
 20
140.930467030841
 30
0.0
 11
195.4094260189972
 21
140.930467030841
 31
0.0
  0
LINE
  5
2A4A
330
1F
100
AcDbEntity
  8
AM_0
100
AcDbLine
 10
203.9094260189973
 20
140.930467030841
 30
0.0
 11
204.9996198540561
 21
140.930467030841
 31
0.0
  0
ARC
  5
2A4B
330
1F
100
AcDbEntity
  8
AM_0
100
AcDbCircle
 10
192.2496198540561
 20
149.2885142871563
 30
0.0
 40
8.935397525504949
100
AcDbArc
 50
249.2906229714724
 51
290.7093770285276
  0
ARC
  5
2A4C
330
1F
100
AcDbEntity
  8
AM_0
100
AcDbCircle
 10
200.7496198540561
 20
149.2885142871563
 30
0.0
 40
8.935397525504949
100
AcDbArc
 50
249.2906229714724
 51
290.7093770285276
  0
LINE
  5
2A4D
330
1F
100
AcDbEntity
  8
AM_0
100
AcDbLine
 10
187.9996198540561
 20
140.3531167616514
 30
0.0
 11
196.4996198540561
 21
140.3531167616514
 31
0.0
  0
LINE
  5
2A4E
330
1F
100
AcDbEntity
  8
AM_0
100
AcDbLine
 10
204.9996198540561
 20
140.3531167616514
 30
0.0
 11
196.4996198540561
 21
140.3531167616514
 31
0.0
  0
LINE
  5
2A4F
330
1F
100
AcDbEntity
  8
0
100
AcDbLine
 10
188.3022476842541
 20
129.9270261953177
 30
0.0
 11
187.9764323540562
 21
140.3531167616514
 31
0.0
  0
LINE
  5
2A50
330
1F
100
AcDbEntity
  8
AM_4
100
AcDbLine
 10
189.2076731414591
 20
128.3587833009724
 30
0.0
 11
188.8604766036115
 21
139.4690725120961
 31
0.0
  0
LINE
  5
2A51
330
1F
100
AcDbEntity
  8
AM_0
100
AcDbLine
 10
189.4996198540562
 20
127.8531167616513
 30
0.0
 11
188.3022476842541
 21
129.9270261953177
 31
0.0
  0
LINE
  5
2A52
330
1F
100
AcDbEntity
  8
AM_0
100
AcDbLine
 10
189.4996198540562
 20
127.8531167616513
 30
0.0
 11
203.4996198540562
 21
127.8531167616514
 31
0.0
  0
LINE
  5
2A53
330
1F
100
AcDbEntity
  8
AM_4
100
AcDbLine
 10
203.7915665666533
 20
128.3587833009723
 30
0.0
 11
204.1387631045009
 21
139.4690725120961
 31
0.0
  0
LINE
  5
2A54
330
1F
100
AcDbEntity
  8
0
100
AcDbLine
 10
204.6969920238582
 20
129.9270261953175
 30
0.0
 11
205.0228073540562
 21
140.3531167616514
 31
0.0
  0
LINE
  5
2A55
330
1F
100
AcDbEntity
  8
AM_0
100
AcDbLine
 10
203.4996198540562
 20
127.8531167616514
 30
0.0
 11
204.6969920238582
 21
129.9270261953175
 31
0.0
  0
LINE
  5
2A57
330
1F
100
AcDbEntity
  8
AM_4
100
AcDbLine
 10
187.9764323540562
 20
140.3531167616514
 30
0.0
 11
188.8604766036115
 21
139.4690725120961
 31
0.0
  0
LINE
  5
2A58
330
1F
100
AcDbEntity
  8
AM_4
100
AcDbLine
 10
205.0228073540562
 20
140.3531167616514
 30
0.0
 11
204.1387631045009
 21
139.4690725120961
 31
0.0
  0
LINE
  5
2A59
330
1F
100
AcDbEntity
  8
AM_0
100
AcDbLine
 10
187.9764323540562
 20
140.3531167616514
 30
0.0
 11
187.9996198540561
 21
140.3531167616514
 31
0.0
  0
LINE
  5
2A5A
330
1F
100
AcDbEntity
  8
AM_0
100
AcDbLine
 10
205.0228073540562
 20
140.3531167616514
 30
0.0
 11
204.9996198540561
 21
140.3531167616514
 31
0.0
  0
LINE
  5
2A5B
330
1F
100
AcDbEntity
  8
AM_0
100
AcDbLine
 10
188.8604766036115
 20
139.4690725120961
 30
0.0
 11
188.0040587368548
 21
139.4690725120961
 31
0.0
  0
LINE
  5
2A5C
330
1F
100
AcDbEntity
  8
AM_0
100
AcDbLine
 10
204.1387631045009
 20
139.4690725120961
 30
0.0
 11
204.9951809712576
 21
139.4690725120961
 31
0.0
  0
LINE
  5
2A5D
330
1F
100
AcDbEntity
  8
0
100
AcDbLine
 10
188.8604766036115
 20
139.4690725120961
 30
0.0
 11
204.1387631045009
 21
139.4690725120961
 31
0.0
  0
LINE
  5
2A5E
330
1F
100
AcDbEntity
  8
0
100
AcDbLine
 10
188.3022476842541
 20
129.9270261953177
 30
0.0
 11
204.6969920238582
 21
129.9270261953175
 31
0.0
  0
LINE
  5
2B47
330
1F
100
AcDbEntity
  8
AM_0
100
AcDbLine
 10
121.5651382224961
 20
148.1031167616513
 30
0.0
 11
121.5651382224961
 21
144.3531167616513
 31
0.0
  0
ARC
  5
2B48
330
1F
100
AcDbEntity
  8
AM_0
100
AcDbCircle
 10
107.1339689417506
 20
151.3531167616513
 30
0.0
 40
14.43116928074549
100
AcDbArc
 50
13.0150494154745
 51
14.6450295497395
  0
LINE
  5
2B49
330
1F
100
AcDbEntity
  8
AM_0
100
AcDbLine
 10
130.8151382224961
 20
144.3531167616513
 30
0.0
 11
133.5651382224961
 21
144.3531167616513
 31
0.0
  0
ARC
  5
2B4A
330
1F
100
AcDbEntity
  8
AM_0
100
AcDbCircle
 10
127.5651382224962
 20
129.9219474809058
 30
0.0
 40
14.43116928074549
100
AcDbArc
 50
103.015049415475
 51
104.6450295497395
  0
ARC
  5
2B4B
330
1F
100
AcDbEntity
  8
AM_0
100
AcDbCircle
 10
147.9963075032416
 20
151.3531167616513
 30
0.0
 40
14.43116928074549
100
AcDbArc
 50
193.0150494154746
 51
194.6450295497395
  0
LINE
  5
2B4C
330
1F
100
AcDbEntity
  8
AM_0
100
AcDbLine
 10
133.5651382224961
 20
148.1031167616513
 30
0.0
 11
133.5651382224961
 21
144.3531167616513
 31
0.0
  0
ENDSEC
  0
SECTION
  2
OBJECTS
  0
DICTIONARY
  5
C
330
0
100
AcDbDictionary
281
     1
  3
ACAD_COLOR
350
14A3
  3
ACAD_GROUP
350
D
  3
ACAD_LAYOUT
350
1A
  3
ACAD_MATERIAL
350
148E
  3
ACAD_MLEADERSTYLE
350
1EE3
  3
ACAD_MLINESTYLE
350
17
  3
ACAD_PLOTSETTINGS
350
19
  3
ACAD_PLOTSTYLENAME
350
E
  3
ACAD_SCALELIST
350
1ED1
  3
ACAD_TABLESTYLE
350
14A4
  3
ACAD_VISUALSTYLE
350
1492
  3
ACDB_RECOMPOSE_DATA
350
2BAC
  3
AcDbVariableDictionary
350
3F3
  3
AcmDictionary
350
45
  3
AMG
350
41
  3
AMGSNAPSETTINGS
350
A0
  3
DWGPROPS
350
2BAD
  0
DICTIONARY
  5
189B
330
8
100
AcDbDictionary
280
     1
281
     1
  0
DICTIONARY
  5
1F55
330
2
100
AcDbDictionary
280
     1
281
     1
  3
ACAD_LAYERSTATES
360
1F56
  0
DICTIONARY
  5
1F30
330
10
100
AcDbDictionary
280
     1
281
     1
  3
ADSK_XREC_LAYER_RECONCILED
360
1F31
  0
DICTIONARY
  5
1F32
330
AF
100
AcDbDictionary
280
     1
281
     1
  3
ADSK_XREC_LAYER_RECONCILED
360
1F33
  0
DICTIONARY
  5
1F34
330
DE
100
AcDbDictionary
280
     1
281
     1
  3
ADSK_XREC_LAYER_RECONCILED
360
1F35
  0
DICTIONARY
  5
1F36
330
DF
100
AcDbDictionary
280
     1
281
     1
  3
ADSK_XREC_LAYER_RECONCILED
360
1F37
  0
DICTIONARY
  5
1F38
330
E1
100
AcDbDictionary
280
     1
281
     1
  3
ADSK_XREC_LAYER_RECONCILED
360
1F39
  0
DICTIONARY
  5
1F3A
330
E2
100
AcDbDictionary
280
     1
281
     1
  3
ADSK_XREC_LAYER_RECONCILED
360
1F3B
  0
DICTIONARY
  5
1F3C
330
E3
100
AcDbDictionary
280
     1
281
     1
  3
ADSK_XREC_LAYER_RECONCILED
360
1F3D
  0
DICTIONARY
  5
1F3E
330
E4
100
AcDbDictionary
280
     1
281
     1
  3
ADSK_XREC_LAYER_RECONCILED
360
1F3F
  0
DICTIONARY
  5
1F40
330
2D9
100
AcDbDictionary
280
     1
281
     1
  3
ADSK_XREC_LAYER_RECONCILED
360
1F41
  0
DICTIONARY
  5
1F42
330
3DD
100
AcDbDictionary
280
     1
281
     1
  3
ADSK_XREC_LAYER_RECONCILED
360
1F43
  0
DICTIONARY
  5
1F44
330
539
100
AcDbDictionary
280
     1
281
     1
  3
ADSK_XREC_LAYER_RECONCILED
360
1F45
  0
DICTIONARY
  5
1F46
330
53A
100
AcDbDictionary
280
     1
281
     1
  3
ADSK_XREC_LAYER_RECONCILED
360
1F47
  0
DICTIONARY
  5
1F48
330
53B
100
AcDbDictionary
280
     1
281
     1
  3
ADSK_XREC_LAYER_RECONCILED
360
1F49
  0
DICTIONARY
  5
1F4A
330
53C
100
AcDbDictionary
280
     1
281
     1
  3
ADSK_XREC_LAYER_RECONCILED
360
1F4B
  0
DICTIONARY
  5
1F4C
330
53D
100
AcDbDictionary
280
     1
281
     1
  3
ADSK_XREC_LAYER_RECONCILED
360
1F4D
  0
DICTIONARY
  5
1F4E
330
E08
100
AcDbDictionary
280
     1
281
     1
  3
ADSK_XREC_LAYER_RECONCILED
360
1F4F
  0
DICTIONARY
  5
1F50
330
1979
100
AcDbDictionary
280
     1
281
     1
  3
ADSK_XREC_LAYER_RECONCILED
360
1F51
  0
DICTIONARY
  5
3E4
330
1F
100
AcDbDictionary
280
     1
281
     1
  3
ACAD_LAYOUTSELFREF
360
44C
  3
ACAD_SORTENTS
360
16DD
  0
DICTIONARY
  5
40C
330
1B
100
AcDbDictionary
280
     1
281
     1
  3
ACAD_LAYOUTSELFREF
360
44B
  0
DICTIONARY
  5
40E
330
23
100
AcDbDictionary
280
     1
281
     1
  3
ACAD_LAYOUTSELFREF
360
44D
  0
DICTIONARY
  5
19A1
330
197D
100
AcDbDictionary
280
     1
281
     1
  3
ACAD_SORTENTS
360
19A2
  0
DICTIONARY
  5
1AE9
330
1AB8
100
AcDbDictionary
280
     1
281
     1
  0
DICTIONARY
  5
14A3
102
{ACAD_REACTORS
330
C
102
}
330
C
100
AcDbDictionary
281
     1
  0
DICTIONARY
  5
D
102
{ACAD_REACTORS
330
C
102
}
330
C
100
AcDbDictionary
281
     1
  0
DICTIONARY
  5
1A
102
{ACAD_REACTORS
330
C
102
}
330
C
100
AcDbDictionary
281
     1
  3
Layout1
350
1E
  3
Layout2
350
26
  3
Model
350
22
  0
DICTIONARY
  5
148E
102
{ACAD_REACTORS
330
C
102
}
330
C
100
AcDbDictionary
281
     1
  3
ByBlock
350
1490
  3
ByLayer
350
148F
  3
Global
350
1491
  0
DICTIONARY
  5
1EE3
102
{ACAD_REACTORS
330
C
102
}
330
C
100
AcDbDictionary
281
     1
  3
Standard
350
1EE4
  0
DICTIONARY
  5
17
102
{ACAD_REACTORS
330
C
102
}
330
C
100
AcDbDictionary
281
     1
  3
Standard
350
18
  0
DICTIONARY
  5
19
102
{ACAD_REACTORS
330
C
102
}
330
C
100
AcDbDictionary
281
     1
  0
ACDBDICTIONARYWDFLT
  5
E
102
{ACAD_REACTORS
330
C
102
}
330
C
100
AcDbDictionary
281
     1
  3
Normal
350
F
100
AcDbDictionaryWithDefault
340
F
  0
DICTIONARY
  5
1ED1
102
{ACAD_REACTORS
330
C
102
}
330
C
100
AcDbDictionary
281
     1
  3
A0
350
1ED2
  3
A1
350
1ED3
  3
A2
350
1ED4
  3
A3
350
1ED5
  3
A4
350
1ED6
  3
A5
350
1ED7
  3
A6
350
1ED8
  3
A7
350
1ED9
  3
A8
350
1EDA
  3
A9
350
1EDB
  3
B0
350
1EDC
  3
B1
350
1EDD
  3
B2
350
1EDE
  3
B3
350
1EDF
  3
B4
350
1EE0
  3
B5
350
1EE1
  3
B6
350
1EE2
  0
DICTIONARY
  5
14A4
102
{ACAD_REACTORS
330
C
102
}
330
C
100
AcDbDictionary
281
     1
  3
Standard
350
14A5
  0
DICTIONARY
  5
1492
102
{ACAD_REACTORS
330
C
102
}
330
C
100
AcDbDictionary
281
     1
  3
2dWireframe
350
1498
  3
3D Hidden
350
149A
  3
3dWireframe
350
1499
  3
Basic
350
1497
  3
Brighten
350
149E
  3
ColorChange
350
14A2
  3
Conceptual
350
149B
  3
Dim
350
149D
  3
EdgeColorOff
350
1ED0
  3
Facepattern
350
14A1
  3
Flat
350
1493
  3
FlatWithEdges
350
1494
  3
Gouraud
350
1495
  3
GouraudWithEdges
350
1496
  3
Hidden
350
1EC8
  3
JitterOff
350
1ECE
  3
Linepattern
350
14A0
  3
OverhangOff
350
1ECF
  3
Realistic
350
149C
  3
Shaded
350
1ECD
  3
Shaded with edges
350
1ECC
  3
Shades of Gray
350
1EC9
  3
Sketchy
350
1ECA
  3
Thicken
350
149F
  3
Wireframe
350
1EC7
  3
X-Ray
350
1ECB
  0
XRECORD
  5
2BAC
102
{ACAD_REACTORS
330
C
102
}
330
C
100
AcDbXrecord
280
     1
 90
        1
330
14A5
330
20A3
  0
DICTIONARY
  5
3F3
102
{ACAD_REACTORS
330
C
102
}
330
C
100
AcDbDictionary
281
     1
  3
CANNOSCALE
350
1FAA
  3
CMLEADERSTYLE
350
1FA9
  3
CTABLESTYLE
350
1528
  3
DIMASSOC
350
3F6
  3
HIDETEXT
350
3F5
  3
INDEXCTL
350
3F4
  3
SORTENTS
350
2BA9
  3
XCLIPFRAME
350
2BAA
  0
DICTIONARY
  5
45
102
{ACAD_REACTORS
330
C
102
}
330
C
100
AcDbDictionary
281
     1
  3
AcmBOM
350
EE5
  3
AcmStdDictionary
350
4A
  3
AMDTSECTSYM_ARROWCOLOR
350
1500
  0
DICTIONARY
  5
41
102
{ACAD_REACTORS
330
C
102
}
330
C
100
AcDbDictionary
281
     1
  0
DICTIONARY
  5
A0
102
{ACAD_REACTORS
330
C
102
}
330
C
100
AcDbDictionary
281
     1
  0
XRECORD
  5
2BAD
102
{ACAD_REACTORS
330
C
102
}
330
C
100
AcDbXrecord
280
     1
  1
DWGPROPS COOKIE
  2

  3

  4

  6

  7

  8
user
  9

300
AmdtFileType=84
301
=
302
=
303
=
304
=
305
=
306
=
307
=
308
=
309
=
 40
0.3138758333333333
 41
2453186.648052894
 42
2455674.687141736
  1

 90
        1
  0
DICTIONARY
  5
1F56
102
{ACAD_REACTORS
330
1F55
102
}
330
1F55
100
AcDbDictionary
281
     1
  0
XRECORD
  5
1F31
102
{ACAD_REACTORS
330
1F30
102
}
330
1F30
100
AcDbXrecord
280
     1
290
     1
  0
XRECORD
  5
1F33
102
{ACAD_REACTORS
330
1F32
102
}
330
1F32
100
AcDbXrecord
280
     1
290
     1
  0
XRECORD
  5
1F35
102
{ACAD_REACTORS
330
1F34
102
}
330
1F34
100
AcDbXrecord
280
     1
290
     1
  0
XRECORD
  5
1F37
102
{ACAD_REACTORS
330
1F36
102
}
330
1F36
100
AcDbXrecord
280
     1
290
     1
  0
XRECORD
  5
1F39
102
{ACAD_REACTORS
330
1F38
102
}
330
1F38
100
AcDbXrecord
280
     1
290
     1
  0
XRECORD
  5
1F3B
102
{ACAD_REACTORS
330
1F3A
102
}
330
1F3A
100
AcDbXrecord
280
     1
290
     1
  0
XRECORD
  5
1F3D
102
{ACAD_REACTORS
330
1F3C
102
}
330
1F3C
100
AcDbXrecord
280
     1
290
     1
  0
XRECORD
  5
1F3F
102
{ACAD_REACTORS
330
1F3E
102
}
330
1F3E
100
AcDbXrecord
280
     1
290
     1
  0
XRECORD
  5
1F41
102
{ACAD_REACTORS
330
1F40
102
}
330
1F40
100
AcDbXrecord
280
     1
290
     1
  0
XRECORD
  5
1F43
102
{ACAD_REACTORS
330
1F42
102
}
330
1F42
100
AcDbXrecord
280
     1
290
     1
  0
XRECORD
  5
1F45
102
{ACAD_REACTORS
330
1F44
102
}
330
1F44
100
AcDbXrecord
280
     1
290
     1
  0
XRECORD
  5
1F47
102
{ACAD_REACTORS
330
1F46
102
}
330
1F46
100
AcDbXrecord
280
     1
290
     1
  0
XRECORD
  5
1F49
102
{ACAD_REACTORS
330
1F48
102
}
330
1F48
100
AcDbXrecord
280
     1
290
     1
  0
XRECORD
  5
1F4B
102
{ACAD_REACTORS
330
1F4A
102
}
330
1F4A
100
AcDbXrecord
280
     1
290
     1
  0
XRECORD
  5
1F4D
102
{ACAD_REACTORS
330
1F4C
102
}
330
1F4C
100
AcDbXrecord
280
     1
290
     1
  0
XRECORD
  5
1F4F
102
{ACAD_REACTORS
330
1F4E
102
}
330
1F4E
100
AcDbXrecord
280
     1
290
     1
  0
XRECORD
  5
1F51
102
{ACAD_REACTORS
330
1F50
102
}
330
1F50
100
AcDbXrecord
280
     1
290
     1
  0
XRECORD
  5
44C
102
{ACAD_REACTORS
330
3E4
102
}
330
3E4
100
AcDbXrecord
280
     1
340
1F
  0
SORTENTSTABLE
  5
16DD
102
{ACAD_REACTORS
330
3E4
102
}
330
3E4
100
AcDbSortentsTable
330
1F
331
708
  5
169F
331
2080
  5
209B
331
1B7E
  5
2032
331
2088
  5
20A3
331
2019
  5
2075
331
2B47
  5
248C
331
2090
  5
227A
331
2021
  5
207D
331
2510
  5
251E
331
2461
  5
247E
331
2029
  5
2085
331
2098
  5
2283
331
2A4A
  5
2A50
331
2518
  5
2529
331
2469
  5
2486
331
2A52
  5
2A58
331
2520
  5
2532
331
2471
  5
2492
331
2A5A
  5
2B48
331
2479
  5
24F5
331
29CB
  5
29D1
331
27CE
  5
27D9
331
1692
  5
16AD
331
169A
  5
16B5
331
6D1
  5
1698
331
6E9
  5
169A
331
2031
  5
208D
331
2450
  5
246B
331
2458
  5
2473
331
2530
  5
27D3
331
2481
  5
24FF
331
2079
  5
2094
331
29D3
  5
29DA
331
283D
  5
2848
331
27D6
  5
2838
331
2489
  5
250A
331
29DB
  5
2A4B
331
2845
  5
2867
331
27DE
  5
2840
331
2491
  5
2512
331
16A2
  5
16BD
331
284D
  5
29C6
331
16B2
  5
1B16
331
662
  5
12F2
331
709
  5
16A0
331
711
  5
16A7
331
2081
  5
209C
331
2089
  5
20A4
331
201A
  5
2076
331
2B48
  5
2489
331
2091
  5
227B
331
2022
  5
207E
331
2511
  5
251F
331
2462
  5
247F
331
202A
  5
2086
331
2099
  5
2284
331
2A4B
  5
2A51
331
2519
  5
252C
331
246A
  5
2487
331
2A53
  5
2A59
331
2521
  5
2533
331
2472
  5
2493
331
2A5B
  5
2B49
331
29C4
  5
29CA
331
2529
  5
262D
331
247A
  5
24F6
331
29CC
  5
29D2
331
27CF
  5
27DA
331
1693
  5
16AE
331
169B
  5
16B6
331
6D2
  5
1699
331
20A1
  5
2466
331
2032
  5
208E
331
2451
  5
246C
331
2459
  5
2475
331
2482
  5
2501
331
207A
  5
2095
331
283E
  5
2849
331
27D7
  5
2839
331
248A
  5
250D
331
29DC
  5
2A4C
331
2846
  5
2868
331
27DF
  5
2841
331
2492
  5
2513
331
16A3
  5
16BE
331
284E
  5
29C7
331
250A
  5
2518
331
16B3
  5
1B17
331
663
  5
1692
331
70A
  5
16A1
331
2082
  5
209D
331
208A
  5
20A7
331
201B
  5
2077
331
2B49
  5
250B
331
2092
  5
227C
331
2023
  5
207F
331
2512
  5
2520
331
2463
  5
2480
331
202B
  5
2087
331
209A
  5
2285
331
2A4C
  5
2A52
331
2866
  5
29C9
331
251A
  5
252D
331
246B
  5
2488
331
2A54
  5
2A5A
331
2473
  5
2494
331
2A5C
  5
2B4A
331
29C5
  5
29CB
331
252A
  5
262E
331
247B
  5
24F7
331
29CD
  5
29D3
331
1694
  5
16AF
331
169C
  5
16B7
331
74A
  5
16AA
331
6CB
  5
1696
331
20A2
  5
2467
331
1B19
  5
202F
331
2452
  5
246D
331
245A
  5
2476
331
27D0
  5
27DB
331
2483
  5
2502
331
207B
  5
2096
331
29D5
  5
29DB
331
283F
  5
284A
331
27D8
  5
283A
331
29DD
  5
2A4D
331
2847
  5
2869
331
27E0
  5
2842
331
2493
  5
2514
331
284F
  5
29C8
331
250B
  5
2519
331
16AC
  5
1B10
331
16B4
  5
1B18
331
703
  5
169B
331
664
  5
1693
331
70B
  5
16A2
331
694
  5
1694
331
2083
  5
209E
331
208B
  5
2275
331
201C
  5
2078
331
2B4A
  5
2508
331
2093
  5
227D
331
2024
  5
2080
331
2513
  5
2521
331
2464
  5
2481
331
202C
  5
2088
331
209B
  5
2286
331
2A4D
  5
2A53
331
2867
  5
284C
331
246C
  5
248A
331
2A55
  5
2A5B
331
2474
  5
2495
331
16BC
  5
1B22
331
2A5D
  5
2B4B
331
29C6
  5
29CC
331
27C9
  5
27D4
331
252B
  5
27CE
331
247C
  5
24F8
331
29CE
  5
29D5
331
1695
  5
16B0
331
169D
  5
16B8
331
20A3
  5
2468
331
2453
  5
246E
331
245B
  5
2478
331
2074
  5
208F
331
1B2A
  5
2030
331
2838
  5
2843
331
27D1
  5
27DC
331
2484
  5
2506
331
207C
  5
2097
331
29D6
  5
29DC
331
2840
  5
284B
331
27D9
  5
283B
331
2848
  5
286A
331
2494
  5
2515
331
250C
  5
251A
331
16AD
  5
1B11
331
70C
  5
16A3
331
714
  5
16A8
331
2084
  5
209F
331
208C
  5
2276
331
201D
  5
2079
331
2B4B
  5
2477
331
2094
  5
227E
331
2025
  5
2081
331
2514
  5
2522
331
2465
  5
2482
331
202D
  5
2089
331
209C
  5
2287
331
2A4E
  5
2A54
331
251C
  5
252E
331
246D
  5
248B
331
2524
  5
262A
331
2475
  5
2496
331
16BD
  5
1B24
331
2A5E
  5
2B4C
331
29C7
  5
29CD
331
27CA
  5
27D5
331
252C
  5
27CF
331
247D
  5
24F9
331
29CF
  5
29D6
331
1696
  5
16B1
331
169E
  5
16B9
331
20A4
  5
2469
331
2454
  5
246F
331
245C
  5
2479
331
2075
  5
2090
331
2839
  5
2844
331
27D2
  5
27DD
331
207D
  5
2098
331
29D7
  5
29DD
331
2841
  5
284D
331
27DA
  5
283C
331
2849
  5
286B
331
2495
  5
2516
331
250D
  5
251B
331
16AE
  5
1B12
331
705
  5
169C
331
70D
  5
16A4
331
2085
  5
20A0
331
201E
  5
207A
331
208D
  5
2277
331
2B4C
  5
2474
331
2026
  5
2082
331
2095
  5
227F
331
2515
  5
2524
331
2466
  5
2483
331
202E
  5
208A
331
209D
  5
2288
331
2A4F
  5
2A55
331
246E
  5
248D
331
2A57
  5
2A5D
331
2525
  5
262B
331
2476
  5
24E9
331
16BE
  5
1B66
331
29C8
  5
29CE
331
27CB
  5
27D6
331
252D
  5
27D0
331
247E
  5
24FA
331
16DE
  5
1B23
331
1697
  5
16B2
331
169F
  5
16BA
331
2455
  5
2470
331
245D
  5
247A
331
2076
  5
2091
331
29D0
  5
29D7
331
283A
  5
2845
331
27D3
  5
27DE
331
207E
  5
2099
331
29D8
  5
2A48
331
2842
  5
284E
331
27DB
  5
283D
331
284A
  5
286C
331
2496
  5
2517
331
250E
  5
251C
331
16AF
  5
1B13
331
170E
  5
201B
331
706
  5
169D
331
70E
  5
16A5
331
73E
  5
16A9
331
2086
  5
20A1
331
201F
  5
207B
331
208E
  5
2278
331
2027
  5
2083
331
2096
  5
2280
331
2A48
  5
2A4E
331
2516
  5
2527
331
2467
  5
2484
331
202F
  5
208B
331
209E
  5
2289
331
2A50
  5
2A56
331
246F
  5
2490
331
2A58
  5
2A5E
331
2526
  5
262C
331
2477
  5
24EA
331
29C9
  5
29CF
331
27CC
  5
27D7
331
252E
  5
27D1
331
247F
  5
24FB
331
1698
  5
16B3
331
28A
  5
74A
331
2456
  5
2471
331
245E
  5
247B
331
2077
  5
2092
331
29D1
  5
29D8
331
283B
  5
2846
331
27D4
  5
27DF
331
2487
  5
2507
331
207F
  5
209A
331
29D9
  5
2A49
331
2843
  5
284F
331
27DC
  5
283E
331
16A0
  5
16BB
331
284B
  5
29C4
331
250F
  5
251D
331
16B0
  5
1B14
331
707
  5
169E
331
70F
  5
16A6
331
1B7D
  5
2031
331
2087
  5
20A2
331
2018
  5
2074
331
2020
  5
207C
331
208F
  5
2279
331
2460
  5
247D
331
2097
  5
2281
331
2028
  5
2084
331
2A49
  5
2A4F
331
2517
  5
2528
331
2468
  5
2485
331
209F
  5
228A
331
2A51
  5
2A57
331
251F
  5
2531
331
2470
  5
2491
331
2A59
  5
2B47
331
2478
  5
24EB
331
29CA
  5
29D0
331
27CD
  5
27D8
331
252F
  5
27D2
331
1699
  5
16B4
331
6C0
  5
1695
331
293
  5
1143
331
6D0
  5
1697
331
2030
  5
208C
331
20A7
  5
246A
331
2457
  5
2472
331
2480
  5
24FC
331
245F
  5
247C
331
2078
  5
2093
331
29D2
  5
29D9
331
283C
  5
2847
331
27D5
  5
27E0
331
29DA
  5
2A4A
331
2844
  5
2866
331
27DD
  5
283F
331
2490
  5
250E
331
16A1
  5
16BC
331
284C
  5
29C5
331
16B1
  5
1B15
  0
XRECORD
  5
44B
102
{ACAD_REACTORS
330
40C
102
}
330
40C
100
AcDbXrecord
280
     1
340
1B
  0
XRECORD
  5
44D
102
{ACAD_REACTORS
330
40E
102
}
330
40E
100
AcDbXrecord
280
     1
340
23
  0
SORTENTSTABLE
  5
19A2
102
{ACAD_REACTORS
330
19A1
102
}
330
19A1
100
AcDbSortentsTable
330
197D
  0
LAYOUT
  5
1E
102
{ACAD_XDICTIONARY
360
2BAE
102
}
102
{ACAD_REACTORS
330
1A
102
}
330
1A
100
AcDbPlotSettings
  1

  2
Canon PIXUS 80i
  4

  6

 40
0.0
 41
0.0
 42
0.0
 43
0.0
 44
0.0
 45
0.0
 46
0.0
 47
0.0
 48
0.0
 49
0.0
140
0.0
141
0.0
142
1.0
143
1.0
 70
   688
 72
     0
 73
     0
 74
     5
  7
IMAGIO.ctb
 75
    16
147
1.0
148
0.0
149
0.0
100
AcDbLayout
  1
Layout1
 70
     1
 71
     1
 10
0.0
 20
0.0
 11
420.0
 21
297.0
 12
0.0
 22
0.0
 32
0.0
 14
1.000000000000000E+20
 24
1.000000000000000E+20
 34
1.000000000000000E+20
 15
-1.000000000000000E+20
 25
-1.000000000000000E+20
 35
-1.000000000000000E+20
146
0.0
 13
0.0
 23
0.0
 33
0.0
 16
1.0
 26
0.0
 36
0.0
 17
0.0
 27
1.0
 37
0.0
 76
     0
330
1B
  0
LAYOUT
  5
26
102
{ACAD_XDICTIONARY
360
2BB1
102
}
102
{ACAD_REACTORS
330
1A
102
}
330
1A
100
AcDbPlotSettings
  1

  2
Canon PIXUS 80i
  4

  6

 40
0.0
 41
0.0
 42
0.0
 43
0.0
 44
0.0
 45
0.0
 46
0.0
 47
0.0
 48
0.0
 49
0.0
140
0.0
141
0.0
142
1.0
143
1.0
 70
   688
 72
     0
 73
     0
 74
     5
  7
IMAGIO.ctb
 75
    16
147
1.0
148
0.0
149
0.0
100
AcDbLayout
  1
Layout2
 70
     1
 71
     2
 10
0.0
 20
0.0
 11
12.0
 21
9.0
 12
0.0
 22
0.0
 32
0.0
 14
0.0
 24
0.0
 34
0.0
 15
0.0
 25
0.0
 35
0.0
146
0.0
 13
0.0
 23
0.0
 33
0.0
 16
1.0
 26
0.0
 36
0.0
 17
0.0
 27
1.0
 37
0.0
 76
     0
330
23
  0
LAYOUT
  5
22
102
{ACAD_XDICTIONARY
360
1F5B
102
}
102
{ACAD_REACTORS
330
1A
102
}
330
1A
100
AcDbPlotSettings
  1

  2
RICOH imagio MP 5000 RPCS
  4
A3
  6
AM_VIEW1
 40
5.873749732971191
 41
5.873747825622558
 42
5.873748779296875
 43
5.873748779296875
 44
296.9259948730469
 45
419.9466552734374
 46
-5.910751819610652
 47
-5.92184923716951
 48
0.0
 49
0.0
140
0.0
141
0.0
142
1.0
143
0.5
 70
 11956
 72
     1
 73
     1
 74
     2
  7
IMAGIO.ctb
 75
    27
147
2.0
148
-64.39214320778825
149
-112.3986327325081
100
AcDbLayout
  1
Model
 70
     1
 71
     0
 10
0.0
 20
0.0
 11
12.0
 21
9.0
 12
0.0
 22
0.0
 32
0.0
 14
0.0
 24
0.0
 34
0.0
 15
0.0
 25
0.0
 35
0.0
146
0.0
 13
0.0
 23
0.0
 33
0.0
 16
1.0
 26
0.0
 36
0.0
 17
0.0
 27
1.0
 37
0.0
 76
     0
330
1F
331
1D4F
1001
ACAD_PSEXT
1000
RICOH imagio MP 5000 RPCS
1000
RICOH imagio MP 5000 RPCS
1000
192.168.1.151@
1000
RPCS Driver (Windows 2000/XP/Server 2003/Vista)
1070
     0
  0
MATERIAL
  5
1490
102
{ACAD_XDICTIONARY
360
2BB5
102
}
102
{ACAD_REACTORS
330
148E
102
}
330
148E
100
AcDbMaterial
  1
ByBlock
 73
     1
 78
     1
172
     1
176
     1
270
     1
274
     1
  0
MATERIAL
  5
148F
102
{ACAD_XDICTIONARY
360
2BB3
102
}
102
{ACAD_REACTORS
330
148E
102
}
330
148E
100
AcDbMaterial
  1
ByLayer
 73
     1
 78
     1
172
     1
176
     1
270
     1
274
     1
  0
MATERIAL
  5
1491
102
{ACAD_XDICTIONARY
360
2BB7
102
}
102
{ACAD_REACTORS
330
148E
102
}
330
148E
100
AcDbMaterial
  1
Global
 73
     1
 78
     1
172
     1
176
     1
270
     1
274
     1
  0
MLEADERSTYLE
  5
1EE4
102
{ACAD_REACTORS
330
1EE3
102
}
330
1EE3
100
AcDbMLeaderStyle
170
     2
171
     1
172
     0
 90
        2
 40
0.0
 41
0.0
173
     1
 91
-1056964608
340
14
 92
       -2
290
     1
 42
2.0
291
     1
 43
0.36
  3
Standard
 44
4.0
300

342
11
174
     1
178
     6
175
     1
176
     0
 93
-1056964608
 45
4.0
292
     0
297
     0
 46
4.0
 94
-1056964608
 47
1.0
 49
1.0
140
1.0
293
     1
141
0.0
294
     1
177
     0
142
1.0
295
     0
296
     0
143
0.125
1001
ACAD_MLEADERVER
1070
     2
  0
MLINESTYLE
  5
18
102
{ACAD_REACTORS
330
17
102
}
330
17
100
AcDbMlineStyle
  2
STANDARD
 70
     0
  3

 62
   256
 51
90.0
 52
90.0
 71
     2
 49
0.5
 62
   256
  6
BYLAYER
 49
-0.5
 62
   256
  6
BYLAYER
  0
ACDBPLACEHOLDER
  5
F
102
{ACAD_REACTORS
330
E
102
}
330
E
  0
SCALE
  5
1ED2
102
{ACAD_REACTORS
330
1ED1
102
}
330
1ED1
100
AcDbScale
 70
     0
300
1:1
140
1.0
141
1.0
290
     1
  0
SCALE
  5
1ED3
102
{ACAD_REACTORS
330
1ED1
102
}
330
1ED1
100
AcDbScale
 70
     0
300
1:2
140
1.0
141
2.0
290
     0
  0
SCALE
  5
1ED4
102
{ACAD_REACTORS
330
1ED1
102
}
330
1ED1
100
AcDbScale
 70
     0
300
1:4
140
1.0
141
4.0
290
     0
  0
SCALE
  5
1ED5
102
{ACAD_REACTORS
330
1ED1
102
}
330
1ED1
100
AcDbScale
 70
     0
300
1:5
140
1.0
141
5.0
290
     0
  0
SCALE
  5
1ED6
102
{ACAD_REACTORS
330
1ED1
102
}
330
1ED1
100
AcDbScale
 70
     0
300
1:8
140
1.0
141
8.0
290
     0
  0
SCALE
  5
1ED7
102
{ACAD_REACTORS
330
1ED1
102
}
330
1ED1
100
AcDbScale
 70
     0
300
1:10
140
1.0
141
10.0
290
     0
  0
SCALE
  5
1ED8
102
{ACAD_REACTORS
330
1ED1
102
}
330
1ED1
100
AcDbScale
 70
     0
300
1:16
140
1.0
141
16.0
290
     0
  0
SCALE
  5
1ED9
102
{ACAD_REACTORS
330
1ED1
102
}
330
1ED1
100
AcDbScale
 70
     0
300
1:20
140
1.0
141
20.0
290
     0
  0
SCALE
  5
1EDA
102
{ACAD_REACTORS
330
1ED1
102
}
330
1ED1
100
AcDbScale
 70
     0
300
1:30
140
1.0
141
30.0
290
     0
  0
SCALE
  5
1EDB
102
{ACAD_REACTORS
330
1ED1
102
}
330
1ED1
100
AcDbScale
 70
     0
300
1:40
140
1.0
141
40.0
290
     0
  0
SCALE
  5
1EDC
102
{ACAD_REACTORS
330
1ED1
102
}
330
1ED1
100
AcDbScale
 70
     0
300
1:50
140
1.0
141
50.0
290
     0
  0
SCALE
  5
1EDD
102
{ACAD_REACTORS
330
1ED1
102
}
330
1ED1
100
AcDbScale
 70
     0
300
1:100
140
1.0
141
100.0
290
     0
  0
SCALE
  5
1EDE
102
{ACAD_REACTORS
330
1ED1
102
}
330
1ED1
100
AcDbScale
 70
     0
300
2:1
140
2.0
141
1.0
290
     0
  0
SCALE
  5
1EDF
102
{ACAD_REACTORS
330
1ED1
102
}
330
1ED1
100
AcDbScale
 70
     0
300
4:1
140
4.0
141
1.0
290
     0
  0
SCALE
  5
1EE0
102
{ACAD_REACTORS
330
1ED1
102
}
330
1ED1
100
AcDbScale
 70
     0
300
8:1
140
8.0
141
1.0
290
     0
  0
SCALE
  5
1EE1
102
{ACAD_REACTORS
330
1ED1
102
}
330
1ED1
100
AcDbScale
 70
     0
300
10:1
140
10.0
141
1.0
290
     0
  0
SCALE
  5
1EE2
102
{ACAD_REACTORS
330
1ED1
102
}
330
1ED1
100
AcDbScale
 70
     0
300
100:1
140
100.0
141
1.0
290
     0
  0
TABLESTYLE
  5
14A5
102
{ACAD_XDICTIONARY
360
1F5D
102
}
102
{ACAD_REACTORS
330
14A4
102
}
330
14A4
100
AcDbTableStyle
  3
Standard
 70
     0
 71
     0
 40
1.5
 41
1.5
280
     0
281
     0
  7
STANDARD
140
4.5
170
     2
 62
     0
 63
     7
283
     0
274
    -2
284
     1
 64
     0
275
    -2
285
     1
 65
     0
276
    -2
286
     1
 66
     0
277
    -2
287
     1
 67
     0
278
    -2
288
     1
 68
     0
279
    -2
289
     1
 69
     0
  7
STANDARD
140
6.0
170
     5
 62
     0
 63
     7
283
     0
274
    -2
284
     1
 64
     0
275
    -2
285
     1
 65
     0
276
    -2
286
     1
 66
     0
277
    -2
287
     1
 67
     0
278
    -2
288
     1
 68
     0
279
    -2
289
     1
 69
     0
  7
STANDARD
140
4.5
170
     5
 62
     0
 63
     7
283
     0
274
    -2
284
     1
 64
     0
275
    -2
285
     1
 65
     0
276
    -2
286
     1
 66
     0
277
    -2
287
     1
 67
     0
278
    -2
288
     1
 68
     0
279
    -2
289
     1
 69
     0
  0
VISUALSTYLE
  5
1498
102
{ACAD_XDICTIONARY
360
2BC3
102
}
102
{ACAD_REACTORS
330
1492
102
}
330
1492
100
AcDbVisualStyle
  2
2dWireframe
 70
     4
 71
     0
 72
     2
 73
     0
 90
        0
 40
-0.6
 41
-30.0
 62
     5
 63
     7
 74
     1
 91
        4
 64
     7
 65
   257
 75
     1
175
     1
 42
1.0
 92
        0
 66
   257
 43
1.0
 76
     1
 77
     6
 78
     2
 67
     7
 79
     5
170
     0
171
     0
290
     0
174
     0
 93
        1
 44
0.0
173
     0
291
     0
 45
0.0
1001
ACAD
1000
AcDbSavedByObjectVersion
1070
     0
  0
VISUALSTYLE
  5
149A
102
{ACAD_XDICTIONARY
360
2BC7
102
}
102
{ACAD_REACTORS
330
1492
102
}
330
1492
100
AcDbVisualStyle
  2
3D Hidden
 70
     6
 71
     1
 72
     2
 73
     2
 90
        0
 40
-0.6
 41
-30.0
 62
     5
 63
     7
 74
     2
 91
        2
 64
     7
 65
   257
 75
     2
175
     1
 42
40.0
 92
        0
 66
   257
 43
1.0
 76
     1
 77
     6
 78
     2
 67
     7
 79
     3
170
     0
171
     0
290
     0
174
     0
 93
        1
 44
0.0
173
     0
291
     0
 45
0.0
1001
ACAD
1000
AcDbSavedByObjectVersion
1070
     0
  0
VISUALSTYLE
  5
1499
102
{ACAD_XDICTIONARY
360
2BC5
102
}
102
{ACAD_REACTORS
330
1492
102
}
330
1492
100
AcDbVisualStyle
  2
3dWireframe
 70
     5
 71
     0
 72
     2
 73
     0
 90
        0
 40
-0.6
 41
-30.0
 62
     5
 63
     7
 74
     1
 91
        4
 64
     7
 65
   257
 75
     1
175
     1
 42
1.0
 92
        0
 66
   257
 43
1.0
 76
     1
 77
     6
 78
     2
 67
     7
 79
     5
170
     0
171
     0
290
     0
174
     0
 93
        1
 44
0.0
173
     0
291
     0
 45
0.0
1001
ACAD
1000
AcDbSavedByObjectVersion
1070
     0
  0
VISUALSTYLE
  5
1497
102
{ACAD_XDICTIONARY
360
2BC1
102
}
102
{ACAD_REACTORS
330
1492
102
}
330
1492
100
AcDbVisualStyle
  2
Basic
 70
     7
 71
     1
 72
     0
 73
     1
 90
        0
 40
-0.6
 41
-30.0
 62
     5
 63
     7
 74
     0
 91
        4
 64
     7
 65
   257
 75
     1
175
     1
 42
1.0
 92
        8
 66
     7
 43
1.0
 76
     1
 77
     6
 78
     2
 67
     7
 79
     5
170
     0
171
     0
290
     0
174
     0
 93
        1
 44
0.0
173
     0
291
     1
 45
0.0
1001
ACAD
1000
AcDbSavedByObjectVersion
1070
     0
  0
VISUALSTYLE
  5
149E
102
{ACAD_XDICTIONARY
360
2BCF
102
}
102
{ACAD_REACTORS
330
1492
102
}
330
1492
100
AcDbVisualStyle
  2
Brighten
 70
    12
 71
     2
 72
     2
 73
     0
 90
        0
 40
-0.6
 41
-30.0
 62
     5
 63
     7
 74
     1
 91
        4
 64
     7
 65
   257
 75
     1
175
     1
 42
1.0
 92
        8
 66
     7
 43
1.0
 76
     1
 77
     6
 78
     2
 67
     7
 79
     5
170
     0
171
     0
290
     0
174
     0
 93
        1
 44
50.0
173
     0
291
     1
 45
0.0
1001
ACAD
1000
AcDbSavedByObjectVersion
1070
     0
  0
VISUALSTYLE
  5
14A2
102
{ACAD_XDICTIONARY
360
2BD7
102
}
102
{ACAD_REACTORS
330
1492
102
}
330
1492
100
AcDbVisualStyle
  2
ColorChange
 70
    16
 71
     2
 72
     2
 73
     3
 90
        0
 40
-0.6
 41
-30.0
 62
     5
 63
     8
 74
     1
 91
        4
 64
     7
 65
   257
 75
     1
175
     1
 42
1.0
 92
        8
 66
     8
 43
1.0
 76
     1
 77
     6
 78
     2
 67
     7
 79
     5
170
     0
171
     0
290
     0
174
     0
 93
        1
 44
0.0
173
     0
291
     1
 45
0.0
1001
ACAD
1000
AcDbSavedByObjectVersion
1070
     0
  0
VISUALSTYLE
  5
149B
102
{ACAD_XDICTIONARY
360
2BC9
102
}
102
{ACAD_REACTORS
330
1492
102
}
330
1492
100
AcDbVisualStyle
  2
Conceptual
 70
     9
 71
     3
 72
     2
 73
     0
 90
        0
 40
-0.6
 41
-30.0
 62
     5
 63
     7
 74
     2
 91
        2
 64
     7
 65
   257
 75
     1
175
     1
 42
40.0
 92
        8
 66
     7
 43
1.0
 76
     1
 77
     6
 78
     2
 67
     7
 79
     3
170
     0
171
     0
290
     0
174
     0
 93
        1
 44
0.0
173
     0
291
     0
 45
0.0
1001
ACAD
1000
AcDbSavedByObjectVersion
1070
     0
  0
VISUALSTYLE
  5
149D
102
{ACAD_XDICTIONARY
360
2BCD
102
}
102
{ACAD_REACTORS
330
1492
102
}
330
1492
100
AcDbVisualStyle
  2
Dim
 70
    11
 71
     2
 72
     2
 73
     0
 90
        0
 40
-0.6
 41
-30.0
 62
     5
 63
     7
 74
     1
 91
        4
 64
     7
 65
   257
 75
     1
175
     1
 42
1.0
 92
        8
 66
     7
 43
1.0
 76
     1
 77
     6
 78
     2
 67
     7
 79
     5
170
     0
171
     0
290
     0
174
     0
 93
        1
 44
-50.0
173
     0
291
     1
 45
0.0
1001
ACAD
1000
AcDbSavedByObjectVersion
1070
     0
  0
VISUALSTYLE
  5
1ED0
102
{ACAD_XDICTIONARY
360
2BEC
102
}
102
{ACAD_REACTORS
330
1492
102
}
330
1492
100
AcDbVisualStyle
  2
EdgeColorOff
 70
    22
 71
     2
 72
     2
 73
     0
 90
        0
 40
-0.6
 41
-30.0
 62
     5
 63
     7
 74
     1
 91
        4
 64
     7
 65
   257
 75
     1
175
     1
 42
1.0
 92
        8
 66
     7
 43
1.0
 76
     1
 77
     6
 78
     2
 67
     7
 79
     5
170
     0
171
     0
290
     0
174
     0
 93
        1
 44
0.0
173
     0
291
     1
 45
0.0
1001
ACAD
1000
AcDbSavedByObjectVersion
1070
     0
  0
VISUALSTYLE
  5
14A1
102
{ACAD_XDICTIONARY
360
2BD5
102
}
102
{ACAD_REACTORS
330
1492
102
}
330
1492
100
AcDbVisualStyle
  2
Facepattern
 70
    15
 71
     2
 72
     2
 73
     0
 90
        0
 40
-0.6
 41
-30.0
 62
     5
 63
     7
 74
     1
 91
        4
 64
     7
 65
   257
 75
     1
175
     1
 42
1.0
 92
        8
 66
     7
 43
1.0
 76
     1
 77
     6
 78
     2
 67
     7
 79
     5
170
     0
171
     0
290
     0
174
     0
 93
        1
 44
0.0
173
     0
291
     1
 45
0.0
1001
ACAD
1000
AcDbSavedByObjectVersion
1070
     0
  0
VISUALSTYLE
  5
1493
102
{ACAD_XDICTIONARY
360
2BB9
102
}
102
{ACAD_REACTORS
330
1492
102
}
330
1492
100
AcDbVisualStyle
  2
Flat
 70
     0
 71
     2
 72
     1
 73
     1
 90
        2
 40
-0.6
 41
30.0
 62
     5
 63
     7
 74
     0
 91
        4
 64
     7
 65
   257
 75
     1
175
     1
 42
1.0
 92
        8
 66
     7
 43
1.0
 76
     1
 77
     6
 78
     2
 67
     7
 79
     5
170
     0
171
     0
290
     0
174
     0
 93
       13
 44
0.0
173
     0
291
     1
 45
0.0
1001
ACAD
1000
AcDbSavedByObjectVersion
1070
     0
  0
VISUALSTYLE
  5
1494
102
{ACAD_XDICTIONARY
360
2BBB
102
}
102
{ACAD_REACTORS
330
1492
102
}
330
1492
100
AcDbVisualStyle
  2
FlatWithEdges
 70
     1
 71
     2
 72
     1
 73
     1
 90
        2
 40
-0.6
 41
30.0
 62
     5
 63
     7
 74
     1
 91
        4
 64
     7
 65
   257
 75
     1
175
     1
 42
1.0
 92
        0
 66
   257
 43
1.0
 76
     1
 77
     6
 78
     2
 67
     7
 79
     5
170
     0
171
     0
290
     0
174
     0
 93
       13
 44
0.0
173
     0
291
     1
 45
0.0
1001
ACAD
1000
AcDbSavedByObjectVersion
1070
     0
  0
VISUALSTYLE
  5
1495
102
{ACAD_XDICTIONARY
360
2BBD
102
}
102
{ACAD_REACTORS
330
1492
102
}
330
1492
100
AcDbVisualStyle
  2
Gouraud
 70
     2
 71
     2
 72
     2
 73
     1
 90
        2
 40
-0.6
 41
30.0
 62
     5
 63
     7
 74
     0
 91
        4
 64
     7
 65
   257
 75
     1
175
     1
 42
1.0
 92
        0
 66
     7
 43
1.0
 76
     1
 77
     6
 78
     2
 67
     7
 79
     5
170
     0
171
     0
290
     0
174
     0
 93
       13
 44
0.0
173
     0
291
     1
 45
0.0
1001
ACAD
1000
AcDbSavedByObjectVersion
1070
     0
  0
VISUALSTYLE
  5
1496
102
{ACAD_XDICTIONARY
360
2BBF
102
}
102
{ACAD_REACTORS
330
1492
102
}
330
1492
100
AcDbVisualStyle
  2
GouraudWithEdges
 70
     3
 71
     2
 72
     2
 73
     1
 90
        2
 40
-0.6
 41
30.0
 62
     5
 63
     7
 74
     1
 91
        4
 64
     7
 65
   257
 75
     1
175
     1
 42
1.0
 92
        0
 66
   257
 43
1.0
 76
     1
 77
     6
 78
     2
 67
     7
 79
     5
170
     0
171
     0
290
     0
174
     0
 93
       13
 44
0.0
173
     0
291
     1
 45
0.0
1001
ACAD
1000
AcDbSavedByObjectVersion
1070
     0
  0
VISUALSTYLE
  5
1EC8
102
{ACAD_XDICTIONARY
360
2BDC
102
}
102
{ACAD_REACTORS
330
1492
102
}
330
1492
100
AcDbVisualStyle
  2
Hidden
 70
     6
 71
     1
 72
     2
 73
     2
 90
        0
 40
-0.6
 41
-30.0
 62
     5
 63
     7
 74
     2
 91
        2
 64
     7
 65
   257
 75
     2
175
     1
 42
40.0
 92
        0
 66
   257
 43
1.0
 76
     1
 77
     6
 78
     2
 67
     7
 79
     3
170
     0
171
     0
290
     0
174
     0
 93
        1
 44
0.0
173
     0
291
     0
 45
0.0
1001
ACAD
1000
AcDbSavedByObjectVersion
1070
     0
  0
VISUALSTYLE
  5
1ECE
102
{ACAD_XDICTIONARY
360
2BE8
102
}
102
{ACAD_REACTORS
330
1492
102
}
330
1492
100
AcDbVisualStyle
  2
JitterOff
 70
    20
 71
     2
 72
     2
 73
     0
 90
        0
 40
-0.6
 41
-30.0
 62
     5
 63
     7
 74
     1
 91
        4
 64
     7
 65
   257
 75
     1
175
     1
 42
1.0
 92
       10
 66
     7
 43
1.0
 76
     1
 77
     6
 78
     2
 67
     7
 79
     5
170
     0
171
     0
290
     0
174
     0
 93
        1
 44
0.0
173
     0
291
     1
 45
0.0
1001
ACAD
1000
AcDbSavedByObjectVersion
1070
     0
  0
VISUALSTYLE
  5
14A0
102
{ACAD_XDICTIONARY
360
2BD3
102
}
102
{ACAD_REACTORS
330
1492
102
}
330
1492
100
AcDbVisualStyle
  2
Linepattern
 70
    14
 71
     2
 72
     2
 73
     0
 90
        0
 40
-0.6
 41
-30.0
 62
     5
 63
     7
 74
     1
 91
        4
 64
     7
 65
   257
 75
     7
175
     7
 42
1.0
 92
        8
 66
     7
 43
1.0
 76
     1
 77
     6
 78
     2
 67
     7
 79
     5
170
     0
171
     0
290
     0
174
     0
 93
        1
 44
0.0
173
     0
291
     1
 45
0.0
1001
ACAD
1000
AcDbSavedByObjectVersion
1070
     0
  0
VISUALSTYLE
  5
1ECF
102
{ACAD_XDICTIONARY
360
2BEA
102
}
102
{ACAD_REACTORS
330
1492
102
}
330
1492
100
AcDbVisualStyle
  2
OverhangOff
 70
    21
 71
     2
 72
     2
 73
     0
 90
        0
 40
-0.6
 41
-30.0
 62
     5
 63
     7
 74
     1
 91
        4
 64
     7
 65
   257
 75
     1
175
     1
 42
1.0
 92
        9
 66
     7
 43
1.0
 76
     1
 77
     6
 78
     2
 67
     7
 79
     5
170
     0
171
     0
290
     0
174
     0
 93
        1
 44
0.0
173
     0
291
     1
 45
0.0
1001
ACAD
1000
AcDbSavedByObjectVersion
1070
     0
  0
VISUALSTYLE
  5
149C
102
{ACAD_XDICTIONARY
360
2BCB
102
}
102
{ACAD_REACTORS
330
1492
102
}
330
1492
100
AcDbVisualStyle
  2
Realistic
 70
     8
 71
     2
 72
     2
 73
     0
 90
        0
 40
-0.6
 41
-30.0
 62
     5
 63
     7
 74
     1
 91
        0
 64
     7
 65
   257
 75
     1
175
     1
 42
1.0
 92
        8
 66
     8
 43
1.0
 76
     1
 77
     6
 78
     2
 67
     7
 79
     5
170
     0
171
     0
290
     0
174
     0
 93
       13
 44
0.0
173
     0
291
     0
 45
0.0
1001
ACAD
1000
AcDbSavedByObjectVersion
1070
     0
  0
VISUALSTYLE
  5
1ECD
102
{ACAD_XDICTIONARY
360
2BE6
102
}
102
{ACAD_REACTORS
330
1492
102
}
330
1492
100
AcDbVisualStyle
  2
Shaded
 70
    27
 71
     2
 72
     2
 73
     1
 90
        2
 40
-0.6
 41
30.0
 62
     5
 63
     7
 74
     0
 91
        4
 64
     7
 65
   257
 75
     1
175
     1
 42
1.0
 92
        8
 66
   257
 43
1.0
 76
     1
 77
     6
 78
     2
 67
     8
 79
     3
170
     0
171
     0
290
     0
174
     0
 93
        5
 44
0.0
173
     0
291
     0
 45
0.0
1001
ACAD
1000
AcDbSavedByObjectVersion
1070
     0
  0
VISUALSTYLE
  5
1ECC
102
{ACAD_XDICTIONARY
360
2BE4
102
}
102
{ACAD_REACTORS
330
1492
102
}
330
1492
100
AcDbVisualStyle
  2
Shaded with edges
 70
    26
 71
     2
 72
     2
 73
     1
 90
        2
 40
-0.6
 41
30.0
 62
     5
 63
     7
 74
     1
 91
       10
 64
     7
 65
   257
 75
     2
175
     1
 42
1.0
 92
        8
 66
   257
 43
1.0
 76
     1
 77
     6
 78
     2
 67
     7
 79
     3
170
     0
171
     0
290
     0
174
     0
 93
        5
 44
0.0
173
     0
291
     0
 45
0.0
1001
ACAD
1000
AcDbSavedByObjectVersion
1070
     0
  0
VISUALSTYLE
  5
1EC9
102
{ACAD_XDICTIONARY
360
2BDE
102
}
102
{ACAD_REACTORS
330
1492
102
}
330
1492
100
AcDbVisualStyle
  2
Shades of Gray
 70
    23
 71
     2
 72
     2
 73
     3
 90
        0
 40
-0.6
 41
-30.0
 62
     5
 63
     7
 74
     2
 91
        2
 64
     7
 65
     7
 75
     1
175
     1
 42
40.0
 92
        8
 66
     7
 43
1.0
 76
     1
 77
     6
 78
     2
 67
     7
 79
     3
170
     0
171
     0
290
     0
174
     0
 93
        1
 44
0.0
173
     0
291
     0
 45
0.0
1001
ACAD
1000
AcDbSavedByObjectVersion
1070
     0
  0
VISUALSTYLE
  5
1ECA
102
{ACAD_XDICTIONARY
360
2BE0
102
}
102
{ACAD_REACTORS
330
1492
102
}
330
1492
100
AcDbVisualStyle
  2
Sketchy
 70
    24
 71
     1
 72
     2
 73
     2
 90
        0
 40
-0.6
 41
-30.0
 62
     5
 63
     7
 74
     2
 91
        2
 64
     7
 65
     7
 75
     1
175
     1
 42
40.0
 92
       11
 66
     7
 43
1.0
 76
     1
 77
     6
 78
     2
 67
     7
 79
     6
170
     0
171
     0
290
     0
174
     0
 93
        1
 44
0.0
173
     0
291
     0
 45
0.0
1001
ACAD
1000
AcDbSavedByObjectVersion
1070
     0
  0
VISUALSTYLE
  5
149F
102
{ACAD_XDICTIONARY
360
2BD1
102
}
102
{ACAD_REACTORS
330
1492
102
}
330
1492
100
AcDbVisualStyle
  2
Thicken
 70
    13
 71
     2
 72
     2
 73
     0
 90
        0
 40
-0.6
 41
-30.0
 62
     5
 63
     7
 74
     1
 91
        4
 64
     7
 65
   257
 75
     1
175
     1
 42
1.0
 92
       12
 66
     7
 43
1.0
 76
     1
 77
     6
 78
     2
 67
     7
 79
     5
170
     0
171
     0
290
     0
174
     0
 93
        1
 44
0.0
173
     0
291
     1
 45
0.0
1001
ACAD
1000
AcDbSavedByObjectVersion
1070
     0
  0
VISUALSTYLE
  5
1EC7
102
{ACAD_XDICTIONARY
360
2BDA
102
}
102
{ACAD_REACTORS
330
1492
102
}
330
1492
100
AcDbVisualStyle
  2
Wireframe
 70
     5
 71
     0
 72
     2
 73
     0
 90
        0
 40
-0.6
 41
-30.0
 62
     5
 63
     7
 74
     1
 91
        4
 64
     7
 65
   257
 75
     1
175
     1
 42
1.0
 92
        0
 66
   257
 43
1.0
 76
     1
 77
     6
 78
     2
 67
     7
 79
     3
170
     0
171
     0
290
     0
174
     0
 93
        1
 44
0.0
173
     0
291
     0
 45
0.0
1001
ACAD
1000
AcDbSavedByObjectVersion
1070
     0
  0
VISUALSTYLE
  5
1ECB
102
{ACAD_XDICTIONARY
360
2BE2
102
}
102
{ACAD_REACTORS
330
1492
102
}
330
1492
100
AcDbVisualStyle
  2
X-Ray
 70
    25
 71
     2
 72
     2
 73
     1
 90
        1
 40
0.5
 41
-30.0
 62
     5
 63
     7
 74
     1
 91
        0
 64
     7
 65
   257
 75
     1
175
     1
 42
1.0
 92
        8
 66
     7
 43
1.0
 76
     1
 77
     6
 78
     2
 67
     7
 79
     3
170
     0
171
     0
290
     0
174
     0
 93
       13
 44
0.0
173
     0
291
     0
 45
0.0
1001
ACAD
1000
AcDbSavedByObjectVersion
1070
     0
  0
DICTIONARYVAR
  5
1FAA
102
{ACAD_REACTORS
330
3F3
102
}
330
3F3
100
DictionaryVariables
280
     0
  1
1:1
  0
DICTIONARYVAR
  5
1FA9
102
{ACAD_REACTORS
330
3F3
102
}
330
3F3
100
DictionaryVariables
280
     0
  1
STANDARD
  0
DICTIONARYVAR
  5
1528
102
{ACAD_REACTORS
330
3F3
102
}
330
3F3
100
DictionaryVariables
280
     0
  1
STANDARD
  0
DICTIONARYVAR
  5
3F6
102
{ACAD_REACTORS
330
3F3
102
}
330
3F3
100
DictionaryVariables
280
     0
  1
2
  0
DICTIONARYVAR
  5
3F5
102
{ACAD_REACTORS
330
3F3
102
}
330
3F3
100
DictionaryVariables
280
     0
  1
1
  0
DICTIONARYVAR
  5
3F4
102
{ACAD_REACTORS
330
3F3
102
}
330
3F3
100
DictionaryVariables
280
     0
  1
0
  0
DICTIONARYVAR
  5
2BA9
102
{ACAD_REACTORS
330
3F3
102
}
330
3F3
100
DictionaryVariables
280
     0
  1
127
  0
DICTIONARYVAR
  5
2BAA
102
{ACAD_REACTORS
330
3F3
102
}
330
3F3
100
DictionaryVariables
280
     0
  1
0
  0
DICTIONARY
  5
EE5
102
{ACAD_REACTORS
330
45
102
}
330
45
100
AcDbDictionary
281
     1
  0
DICTIONARY
  5
4A
102
{ACAD_REACTORS
330
45
102
}
330
45
100
AcDbDictionary
281
     1
  0
XRECORD
  5
1500
102
{ACAD_REACTORS
330
45
102
}
330
45
100
AcDbXrecord
280
     1
 90
-1023410169
  0
DICTIONARY
  5
2BAE
330
1E
100
AcDbDictionary
280
     1
281
     1
  3
ACAD_XREC_ROUNDTRIP
360
2BAF
  0
DICTIONARY
  5
2BB1
330
26
100
AcDbDictionary
280
     1
281
     1
  3
ACAD_XREC_ROUNDTRIP
360
2BB2
  0
DICTIONARY
  5
1F5B
330
22
100
AcDbDictionary
280
     1
281
     1
  3
ACAD_XREC_ROUNDTRIP
360
2BB0
  3
ADSK_XREC_LAYOUTTHUMBNAIL
360
1F5C
  0
DICTIONARY
  5
2BB5
330
1490
100
AcDbDictionary
280
     1
281
     1
  3
ACAD_XREC_ROUNDTRIP
360
2BB6
  0
DICTIONARY
  5
2BB3
330
148F
100
AcDbDictionary
280
     1
281
     1
  3
ACAD_XREC_ROUNDTRIP
360
2BB4
  0
DICTIONARY
  5
2BB7
330
1491
100
AcDbDictionary
280
     1
281
     1
  3
ACAD_XREC_ROUNDTRIP
360
2BB8
  0
DICTIONARY
  5
1F5D
330
14A5
100
AcDbDictionary
280
     1
281
     1
  3
ACAD_ROUNDTRIP_2008_TABLESTYLE_CELLSTYLEMAP
360
2BAB
  3
ACAD_XREC_ROUNDTRIP
360
2BD9
  0
DICTIONARY
  5
2BC3
330
1498
100
AcDbDictionary
280
     1
281
     1
  3
ACAD_XREC_ROUNDTRIP
360
2BC4
  0
DICTIONARY
  5
2BC7
330
149A
100
AcDbDictionary
280
     1
281
     1
  3
ACAD_XREC_ROUNDTRIP
360
2BC8
  0
DICTIONARY
  5
2BC5
330
1499
100
AcDbDictionary
280
     1
281
     1
  3
ACAD_XREC_ROUNDTRIP
360
2BC6
  0
DICTIONARY
  5
2BC1
330
1497
100
AcDbDictionary
280
     1
281
     1
  3
ACAD_XREC_ROUNDTRIP
360
2BC2
  0
DICTIONARY
  5
2BCF
330
149E
100
AcDbDictionary
280
     1
281
     1
  3
ACAD_XREC_ROUNDTRIP
360
2BD0
  0
DICTIONARY
  5
2BD7
330
14A2
100
AcDbDictionary
280
     1
281
     1
  3
ACAD_XREC_ROUNDTRIP
360
2BD8
  0
DICTIONARY
  5
2BC9
330
149B
100
AcDbDictionary
280
     1
281
     1
  3
ACAD_XREC_ROUNDTRIP
360
2BCA
  0
DICTIONARY
  5
2BCD
330
149D
100
AcDbDictionary
280
     1
281
     1
  3
ACAD_XREC_ROUNDTRIP
360
2BCE
  0
DICTIONARY
  5
2BEC
330
1ED0
100
AcDbDictionary
280
     1
281
     1
  3
ACAD_XREC_ROUNDTRIP
360
2BED
  0
DICTIONARY
  5
2BD5
330
14A1
100
AcDbDictionary
280
     1
281
     1
  3
ACAD_XREC_ROUNDTRIP
360
2BD6
  0
DICTIONARY
  5
2BB9
330
1493
100
AcDbDictionary
280
     1
281
     1
  3
ACAD_XREC_ROUNDTRIP
360
2BBA
  0
DICTIONARY
  5
2BBB
330
1494
100
AcDbDictionary
280
     1
281
     1
  3
ACAD_XREC_ROUNDTRIP
360
2BBC
  0
DICTIONARY
  5
2BBD
330
1495
100
AcDbDictionary
280
     1
281
     1
  3
ACAD_XREC_ROUNDTRIP
360
2BBE
  0
DICTIONARY
  5
2BBF
330
1496
100
AcDbDictionary
280
     1
281
     1
  3
ACAD_XREC_ROUNDTRIP
360
2BC0
  0
DICTIONARY
  5
2BDC
330
1EC8
100
AcDbDictionary
280
     1
281
     1
  3
ACAD_XREC_ROUNDTRIP
360
2BDD
  0
DICTIONARY
  5
2BE8
330
1ECE
100
AcDbDictionary
280
     1
281
     1
  3
ACAD_XREC_ROUNDTRIP
360
2BE9
  0
DICTIONARY
  5
2BD3
330
14A0
100
AcDbDictionary
280
     1
281
     1
  3
ACAD_XREC_ROUNDTRIP
360
2BD4
  0
DICTIONARY
  5
2BEA
330
1ECF
100
AcDbDictionary
280
     1
281
     1
  3
ACAD_XREC_ROUNDTRIP
360
2BEB
  0
DICTIONARY
  5
2BCB
330
149C
100
AcDbDictionary
280
     1
281
     1
  3
ACAD_XREC_ROUNDTRIP
360
2BCC
  0
DICTIONARY
  5
2BE6
330
1ECD
100
AcDbDictionary
280
     1
281
     1
  3
ACAD_XREC_ROUNDTRIP
360
2BE7
  0
DICTIONARY
  5
2BE4
330
1ECC
100
AcDbDictionary
280
     1
281
     1
  3
ACAD_XREC_ROUNDTRIP
360
2BE5
  0
DICTIONARY
  5
2BDE
330
1EC9
100
AcDbDictionary
280
     1
281
     1
  3
ACAD_XREC_ROUNDTRIP
360
2BDF
  0
DICTIONARY
  5
2BE0
330
1ECA
100
AcDbDictionary
280
     1
281
     1
  3
ACAD_XREC_ROUNDTRIP
360
2BE1
  0
DICTIONARY
  5
2BD1
330
149F
100
AcDbDictionary
280
     1
281
     1
  3
ACAD_XREC_ROUNDTRIP
360
2BD2
  0
DICTIONARY
  5
2BDA
330
1EC7
100
AcDbDictionary
280
     1
281
     1
  3
ACAD_XREC_ROUNDTRIP
360
2BDB
  0
DICTIONARY
  5
2BE2
330
1ECB
100
AcDbDictionary
280
     1
281
     1
  3
ACAD_XREC_ROUNDTRIP
360
2BE3
  0
XRECORD
  5
2BAF
102
{ACAD_REACTORS
330
2BAE
102
}
330
2BAE
100
AcDbXrecord
280
     1
102
SHADEPLOT
 70
     0
102
SHADEPLOTRESLEVEL
 70
     2
102
SHADEPLOTCUSTOMDPI
 70
   300
  0
XRECORD
  5
2BB2
102
{ACAD_REACTORS
330
2BB1
102
}
330
2BB1
100
AcDbXrecord
280
     1
102
SHADEPLOT
 70
     0
102
SHADEPLOTRESLEVEL
 70
     2
102
SHADEPLOTCUSTOMDPI
 70
   300
  0
XRECORD
  5
2BB0
102
{ACAD_REACTORS
330
1F5B
102
}
330
1F5B
100
AcDbXrecord
280
     1
102
SHADEPLOT
 70
     0
102
SHADEPLOTRESLEVEL
 70
     2
102
SHADEPLOTCUSTOMDPI
 70
   300
  0
XRECORD
  5
1F5C
102
{ACAD_REACTORS
330
1F5B
102
}
330
1F5B
100
AcDbXrecord
280
     1
310
28000000000100007B0000000100080000000000007B0000000000000000000000010000000000000000000000000000FFFFFF000000000000000000000000000000000000000000000000000000000000000000330000006600000099000000CC000000FF00000000330000333300006633000099330000CC330000FF3300
310
0000660000336600006666000099660000CC660000FF66000000990000339900006699000099990000CC990000FF99000000CC000033CC000066CC000099CC0000CCCC0000FFCC000000FF000033FF000066FF000099FF0000CCFF0000FFFF000000003300330033006600330099003300CC003300FF003300003333003333
310
33006633330099333300CC333300FF33330000663300336633006666330099663300CC663300FF66330000993300339933006699330099993300CC993300FF99330000CC330033CC330066CC330099CC3300CCCC3300FFCC330000FF330033FF330066FF330099FF3300CCFF3300FFFF330000006600330066006600660099
310
006600CC006600FF00660000336600333366006633660099336600CC336600FF33660000666600336666006666660099666600CC666600FF66660000996600339966006699660099996600CC996600FF99660000CC660033CC660066CC660099CC6600CCCC6600FFCC660000FF660033FF660066FF660099FF6600CCFF6600
310
FFFF660000009900330099006600990099009900CC009900FF00990000339900333399006633990099339900CC339900FF33990000669900336699006666990099669900CC669900FF66990000999900339999006699990099999900CC999900FF99990000CC990033CC990066CC990099CC9900CCCC9900FFCC990000FF99
310
0033FF990066FF990099FF9900CCFF9900FFFF99000000CC003300CC006600CC009900CC00CC00CC00FF00CC000033CC003333CC006633CC009933CC00CC33CC00FF33CC000066CC003366CC006666CC009966CC00CC66CC00FF66CC000099CC003399CC006699CC009999CC00CC99CC00FF99CC0000CCCC0033CCCC0066CC
310
CC0099CCCC00CCCCCC00FFCCCC0000FFCC0033FFCC0066FFCC0099FFCC00CCFFCC00FFFFCC000000FF003300FF006600FF009900FF00CC00FF00FF00FF000033FF003333FF006633FF009933FF00CC33FF00FF33FF000066FF003366FF006666FF009966FF00CC66FF00FF66FF000099FF003399FF006699FF009999FF00CC
310
99FF00FF99FF0000CCFF0033CCFF0066CCFF0099CCFF00CCCCFF00FFCCFF0000FFFF0033FFFF0066FFFF0099FFFF00CCFFFF00FFFFFF00000000000D0D0D001A1A1A00282828003535350043434300505050005D5D5D006B6B6B00787878008686860093939300A1A1A100AEAEAE00BBBBBB00C9C9C900D6D6D600E4E4E400
310
F1F1F100FFFFFF000000000000000000000000000000000000000000000000000000000000000000000000000000000000000000000000000000000000000000000000000000000000000000000000000000000000000000000000000000000000000000000000000000000000000000000000000000000000000000000000
310
00000000000000000000000000000000000000002800000000000000000000000000000000000000000000000000000000280000000000000000000000000000000000000000000000000000000000000000000000000000000000000000000000000000000000000000000000000000000000000000000000000000000000
310
00000000000000000000000000000000000000000000000000000000000000000000000000000000000000000000000000000000000000000000000000000000000000000000000000000000000000000000000000000000000000000000000000000000000000000000000000000000000000000000000000000000000000
310
00000000000000000000000000000000000000000000282828282828282828282828282828282828282828282828282828282828000000000000000000000000000000000000000000000000000000000000000000000000000000000000000000000000000000000000000000000000000000000000000000000000000000
310
00000000000000000000000000000000000000000000000000000000000000000000000000000000000000000000000000000000000000000000000000000000000000000000000000000000000000000000000000000000000000000000000000000000000000000000000000000000000000000000000000000000000000
310
0000000000000000000000000000000000000000000000002800000000000000000000000000DCDC000000000000000000000000002800000000000000000000000000000000000000000000000000000000000000000000000000000000000000000000000000000000000000000000000000000000000000000000000000
310
00000000000000000000000000000000000000000000000000000000000000000000000000000000000000000000000000000000000000000000000000000000000000000000000000000000000000000000000000000000000000000000000000000000000000000000000000000000000000000000000000000000000000
310
00000000000000000000000000000000000000000000000000002800000000000000000000000000DCDC00000000000000000000000000280000000000000000000000000000000000000000000000000000000000000000000000000000000000000000000000000000000000000000000000000000000000000000000000
310
00000000000000000000000000000000000000000000000000000000000000000000000000000000000000000000000000000000000000000000000000000000000000000000000000000000000000000000000000000000000000000000000000000000000000000000000000000000000000000000000000000000000000
310
000000000000000000000000000000000000000000000000000000002D000000000000000000000000000000000000000000000000000000002800000000000000000000000000000000000000000000000000000000000000000000002D000000000000000000000000000000000000000000000000000000000000000000
310
00000000000000000000000000000000000000000000000000000000000000000000000000000000000000000000000000000000000000000000000000000000000000000000000000000000000000000000000000000000000000000000000000000000000000000000000000000000000000000000000000000000000000
310
0000000000000000000000000000000000000000000000000000000000002D000000000000000000000000000000000000000000000000000000002800000000000000000000000000000000000000000000000000000000000000000000002D00000000000000000000000000000000000000000000000000000000000000
310
00000000000000000000000000000000000000000000000000000000000000000000000000000000000000000000000000000000000000000000000000000000000000000000000000000000000000000000000000000000000000000000000000000000000000000000000000000000000000000000000000000000000000
310
00000000000000000000000000282828282828282828282828F5F5F5F5F5F5F5F5F5F5F5F5F5F5F5000000000000000000000000000000000000000000280000000000000000000000000000000000000000000000000000000000F5F5F5F5F5F5F5F5F5F5F5F5F5F500000000000000000000000000000000000000000000
310
00000000000000000000000000000000000000000000000000000000000000000000000000000000000000000000000000000000000000000000000000000000000000000000000000000000000000000000000000000000000000000000000000000000000000000000000000000000000000000000000000000000000000
310
000000000000000000000000000000282800000000000000000000F50000000000002D00000000000028F50000000000000000000000000000000000000000280000000000000000000000000000000000000000000000000000000000F500000000002D00000000000028F500000000000000000000000000000000000000
310
00000000000000000000000000000000000000000000000000000000000000000000000000000000000000000000000000000000000000000000000000000000000000000000000000000000000000000000000000000000000000000000000000000000000000000000000000000000000000000000000000000000000000
310
00000000000000000000000000000000000028000000000000000000F5F5F5F5F5F5F5F5F5F5F5F5F5F5F5F5F500000000000000000000000000000000000000002800000000000000000000000000000000000000000000000000000000F5F5F5F5F5F5F5F5F5F5F5F5F5F5F5F50000000000000000000000000000000000
310
00000000000000000000000000000000000000000000000000000000000000000000000000000000000000000000000000000000000000000000000000000000000000000000000000000000000000000000000000000000000000000000000000000000000000000000000000000000000000000000000000000000000000
310
000000000000000000000000000000000000000028000000000000000000F5280000000000002D00000000000028F500000000000000000000000000000000000000002800000000000000000000000000000000000000000000000000000000F52800000000002D00000000000028F5000000000000000000000000000000
310
00000000000000000000000000000000000000000000000000000000000000000000000000000000000000000000000000000000000000000000000000000000000000000000000000000000000000000000000000000000000000000000000000000000000000000000000000000000000000000000000000000000000000
310
0000000000000000000000000000000000000000000028000000000000000000F5280000000000002D00000000000028F500000000000000000000000000000000000000002800000000000000000000000000000000000000000000000000000000F52800000000002D00000000000028F500000000000000000000000000
310
00000000000000000000000000000000000000000000000000000000000000000000000000000000000000000000000000000000000000000000000000000000000000000000000000000000000000000000000000000000000000000000000000000000000000000000000000000000000000000000000000000000000000
310
00000000000000000000000000000000000000000000000028000000000000000000F5280000000000002D00000000000028F500000000000000000000000000000000000000002800000000000000000000000000000000000000000000000000000000F52800000000002D00000000000028F50000000000000000000000
310
00000000000000000000000000000000000000000000000000000000000000000000000000000000000000000000000000000000000000000000000000000000000000000000000000000000000000000000000000000000000000000000000000000000000000000000000000000000000000000000000000000000000000
310
00000000000000000000000000000000000000000000000000002800000000000000002828282828282828282828282828282828282800000000000000000000000000000000000000280000000000000000000000000000000000000000000000000000002828282828282828282828282828282828280000000000000000
310
00000000000000000000000000000000000000000000000000000000000000000000000000000000000000000000000000000000000000000000000000000000000000000000000000000000000000000000000000000000000000000000000000000000000000000000000000000000000000000000000000000000000000
310
0000000000000000000000000000000000000000000000000000000028000000000000000000F5280000000000002D00000000000028F5000000000000000000000000000000000000000028000000000000000000000000000000000000000000000000000000F5280000000000002D0000000000000028F5000000000000
310
00000000000000000000000000000000000000000000000000000000000000000000000000000000000000000000000000000000000000000000000000000000000000000000000000000000000000000000000000000000000000000000000000000000000000000000000000000000000000000000000000000000000000
310
00000000000000000000000000000000000000000000000000000000000028000000000000000000F5280000000000002D00000000000028F5000000000000000000000000000000000000000028000000000000000000000000000000000000000000000000000000F5280000000000002D0000000000000028F500000000
310
00000000000000000000000000000000000000000000000000000000000000000000000000000000000000000000000000000000000000000000000000000000000000000000000000000000000000000000000000000000000000000000000000000000000000000000000000000000000000000000000000000000000000
310
0000000000000000000000000000000000000000000000000000000000DCDCDC28000000000000000000F5280000000000002D00000000000028F5000000000000000000000000000000000000000028000000000000000000000000000000000000000000000000000000F5280000000000002D0000000000000028F50000
310
00000000000000000000000000000000000000000000000000000000000000000000000000000000000000000000000000000000000000000000000000000000000000000000000000000000000000000000000000000000000000000000000000000000000000000000000000000000000000000000000000000000000000
310
00000000000000000000000000000000000000000000000000000000000000DCDCDC28000000000000000000F5280000000000002D00000000000028F5000000000000000000000000000000000000000028000000000000000000000000000000000000000000000000000000F5280000000000002D0000000000000028F5
310
00000000000000000000000000000000000000000000000000000000000000000000000000000000000000000000000000000000000000000000000000000000000000000000000000000000000000000000000000000000000000000000000000000000000000000000000000000000000000000000000000000000000000
310
000000000000000000000000000000000000000000000000000000000000000000DCDCDC28000000000000000000F5F5F5F5F5F5F5F5F5F5F5F5F5F5F5F5F5000000000000000000000000000000000000000028000000000000000000000000000000000000000000000000000000F5F5F5F5F5F5F5F5F5F5F5F5F5F5F5F5
310
F5F50000000000000000000000000000000000000000000000000000000000000000000000000000000000000000000000000000000000000000000000000000000000000000000000000000000000000000000000000000000000000000000000000000000000000000000000000000000000000000000000000000000000
310
0000000000000000000000000000000000000000000000000000000000000000000000DCDCDC280000000000000000F5F50000F5F5F500002D0000F5F5F50000F5F50000000000000000000000000000000000000028000000000000000000000000000000000000000000000000000000F5F5F500000000F5F5F5F5000000
310
00F5F5F5000000000000000000000000000000000000000000000000000000000000000000000000000000000000000000000000000000000000000000000000000000000000000000000000000000000000000000000000000000000000000000000000000000000000000000000000000000000000000000000000000000
310
0000000000000000000000000000000000000000000000000000000000000000000000000000000028000000000000F5F5F5000000F500F500002D0000F500F5000000F5F5F5000000000000000000000000000000000028000000000000000000000000000000000000000000000000000000F5F50000000000F5F5F50000
310
000000F500F500000000000000000000000000000000000000000000000000000000000000000000000000000000000000000000000000000000000000000000000000000000000000000000000000000000000000000000000000000000000000000000000000000000000000000000000000000000000000000000000000
310
00000000000000000000000000000000000000000000000000000000000000000000000000000000000028000000000000F50000F5F500F500F500002D0000F500F500F5F50000F5F5F5F5000000000000000000000000000028000000000000000000000000000000000000000000000000000000F5F5000000F5F5F5F5F5
310
F5F5000000F500F50000000000000000000000000000000000000000000000000000000000000000000000000000000000000000000000000000000000000000000000000000000000000000000000000000000000000000000000000000000000000000000000000000000000000000000000000000000000000000000000
310
000000000000000000000000000000000000000000000000000000000000000000000000000000000000000028000000000000F500000000F5F5F5F5F5F5F5F5F5F5F5F5F500000000F50000F5F5F5F5F5F5F5F5F5F5F5F5F5F50028000000000000000000000000000000000000000000000000000000F5F5F5F5F5F5F5F5
310
F5F5F5F5F5F5F5F5F5F5000000000000000000000000000000000000000000000000000000000000000000000000000000000000000000000000000000000000000000000000000000000000000000000000000000000000000000000000000000000000000000000000000000000000000000000000000000000000000000
310
0000000000000000000000000000000000000000000000000000000000000000000000000000000000000000000028000000000000F5F5F5F5F5F50000F500002D0000F50000F5F5F5F5F5F50000F5000000000000000000000000F5F5F5000000000000000000000000000000000000000000000000000000F5F5F5F5F5F5
310
F5F5F5F5F5F5F5F5F5F500F500000000000000000000000000000000000000000000000000000000000000000000000000000000000000000000000000000000000000000000000000000000000000000000000000000000000000000000000000000000000000000000000000000000000000000000000000000000000000
310
00000000000000000000000000000000000000000000000000000000000000000000000000000000000000000000000028000000000000F500000000F50000F500002D0000F50000F500000000F50000F5000000000000000000000000F5F5F5000000000000000000000000000000000000000000000000000000F5F500F5
310
F5F5F5002D0000F5F5F5F5F5F5F50000000000000000000000000000000000000000000000000000000000000000000000000000000000000000000000000000000000000000000000000000000000000000000000000000000000000000000000000000000000000000000000000000000000000000000000000000000000
310
000000000000000000000000000000000000000000000000000000000000000000000000000000000000000000000000000028000000000000F5F5F5F5F5F50000F500002D0000F50000F5F5F5F5F5F50000F5000000000000000000000000F5F5F5282828282828000000000000000000000000000000000000000000F5F5
310
F5F5F50000282828280000F5F5F5F5F5000000000000000000000000000000000000000000000000000000000000000000000000000000000000000000000000000000000000000000000000000000000000000000000000000000000000000000000000000000000000000000000000000000000000000000000000000000
310
0000000000000000000000000000000000000000000000000000000000000000000000000000000000000000000000000000000028000000000000F500000000F5F5F5F500002D0000F5F5F5F500000000F50000F5000000000000000000000000F5F5F5000000002828000000000000000000000000000000000000000000
310
F500F5F5000028F5F5F500280000F5F5F5F500000000000000000000000000000000000000000000000000000000000000000000000000000000000000000000000000000000000000000000000000000000000000000000000000000000000000000000000000000000000000000000000000000000000000000000000000
310
00000000000000000000000000000000000000000000000000000000000000000000000000000000000000000000000000000000000028000000000000F500000000F500000000002D0000000000F500000000F50000F5000000000000000000000000F5F5F500000000002800000000000000000000000000000000000000
310
0000F5F5F5F50028F5002D00F5002800F5F5F5F50000000000000000000000000000000000000000000000000000000000000000000000000000000000000000000000000000000000000000000000000000000000000000000000000000000000000000000000000000000000000000000000000000000000000000000000
310
000000000000000000000000000000000000000000000000000000000000000000000000000000000000000000000000000000000000002828000000000000F500000000F500000000002D0000000000F500000000F50000F5000000000000000000000000F5F5F50000DCDCDC280000000000000000000000000000000000
310
00000000F5F5F5F50028F5002D0000F5280000F5F5F5000000000000000000000000000000000000000000000000000000000000000000000000000000000000000000000000000000000000000000000000000000000000000000000000000000000000000000000000000000000000000000000000000000000000000000
310
0000000000000000000000000000000000000000000000000000000000000000000000000000000000000000000000000000000000000000002828282828282D2D2D2D2D2D2D2D2D2D2D2D2D2D2D2D2D2D2D2D2D2D2D2D2D2D2DF52D2D2D2D2D2D2D2D2D2D2D2DF5F5F52D2DDCDCDC28282828282828282800000000000000
310
0000002D2D2DF5F5F52D2D28F52D2D2D2DF5282D2DF5F5F52D2D2D00000000000000000000000000000000000000000000000000000000000000000000000000000000000000000000000000000000000000000000000000000000000000000000000000000000000000000000000000000000000000000000000000000000
310
00000000000000000000000000000000000000000000000000000000000000000000000000000000000000000000000000000000000000000000000000000000000000F500000000F500000000002D0000000000F500000000F50000F5000000000000000000000000F5F5F50000DCDCDC2800000000000000280000000000
310
0000000000000000F5F5F5F50028F5002D0000F5280000F5F5F50000000000000000000000000000000000000000000000000000000000000000000000000000000000000000000000000000000000000000000000000000000000000000000000000000000000000000000000000000000000000000000000000000000000
310
000000000000000000000000000000000000000000000000000000000000000000000000000000000000000000000000000000000000000000000000000000000000000000F500000000F500000000002D0000000000F500000000F50000F5000000000000000000000000F5F5F50000000028280000000000000028000000
310
00000000000000000000F5F5F5F50000F5F5F5F5F5280000F5F5F5F5000000000000000000000000000000000000000000000000000000000000000000000000000000000000000000000000000000000000000000000000000000000000000000000000000000000000000000000000000000000000000000000000000000
310
0000000000000000000000000000000000000000000000000000000000000000000000000000000000000000000000000000000000000000000000000000000000000000000000F5F5F5F5F5F5F5F5F5F5F5F5F5F5F5F5F5F5F5F5F5F5F50000F5000000000000000000000000F5F5F5282828282828000000000000002800
310
000000000000000000000000F5F5F5F5000000282828280000F5F5F5F5F500000000000000000000000000000000000000000000000000000000000000000000000000000000000000000000000000000000000000000000000000000000000000000000000000000000000000000000000000000000000000000000000000
310
00000000000000000000000000000000000000000000000000000000000000000000000000000000000000000000000000000000000000000000000000000000000000000000000000F500000000F500000000002D0000000000F500000000F50000F5000000000000000000000000F5F5F500000000000000000000000000
310
280000000000000000000000000000F500F5F50000002D00000000F5F5F5F5000000000000000000000000000000000000000000000000000000000000000000000000000000000000000000000000000000000000000000000000000000000000000000000000000000000000000000000000000000000000000000000000
310
000000000000000000000000000000000000000000000000000000000000000000000000000000000000000000000000000000000000000000000000000000000000000000000000000000F5F5F5F5F5F500000000002D0000000000F5F5F5F5F5F50000F5000000000000000000000000F5F5F50000000000000000000000
310
0000280000000000000000000000000000F500F5F5F500002D000000F5F5F5F50000000000000000000000000000000000000000000000000000000000000000000000000000000000000000000000000000000000000000000000000000000000000000000000000000000000000000000000000000000000000000000000
310
0000000000000000000000000000000000000000000000000000000000000000000000000000000000000000000000000000000000000000000000000000000000000000000000000000000000F500000000F50000F5F5F5F5F5F5F50000F500000000F50000F5000000000000000000000000F5F5F5000000000000000000
310
0000000028000000000000000000000000000000F5F5F5F5F5F5F5F5F5F5F5F5F500000000000000000000000000000000000000000000000000000000000000000000000000000000000000000000000000000000000000000000000000000000000000000000000000000000000000000000000000000000000000000000
310
00000000000000000000000000000000000000000000000000000000000000000000000000000000000000000000000000000000000000000000000000000000000000000000000000000000000000F500000000F500F50000002D000000F500F500000000F5F5F5F5F5F5F5F5F5F5F5F5F5F5F5F5F5000000000000000000
310
0000000000002800000000000000000000000000000000F5F5F5F5F5F5F5F5F5F500F50000000000000000000000000000000000000000000000000000000000000000000000000000000000000000000000000000000000000000000000000000000000000000000000000000000000000000000000000000000000000000
310
000000000000000000000000000000000000000000000000000000000000000000000000000000000000000000000000000000000000000000000000000000000000000000000000000000000000000000F5F5F5F5F5F5F5000000002D00000000F5F5F5F5F5F5F50000000000000000000000000000000000000000000000
310
00000000000000002800000000000000000000000000000000F50000F5F5F5F5F5000000F5000000000000000000000000000000000000000000000000000000000000000000000000000000000000000000000000000000000000000000000000000000000000000000000000000000000000000000000000000000000000
310
00000000000000000000000000000000000000000000000000000000000000000000000000000000000000000000000000000000000000000000000000000000000000000000000000000000000000000000000000000000F500000000002D0000000000F50000000000000000000000000000000000000000000000000000
310
000000000000000000002800000000000000000000000000000000F5000000002D0000000000F500000000000000000000000000000000000000000000000000000000000000000000000000000000000000000000000000000000000000000000000000000000000000000000000000000000000000000000000000000000
310
0000000000000000000000000000000000000000000000000000000000000000000000000000000000000000000000000000000000000000000000000000000000000000000000000000000000000000000000000000000000F5F5F5F5F5F5F5F5F5F5F5F5F5F5F50000000000000000000000000000000000000000000000
310
00000000000000000000000028000000000000000000000000000000F5F5F5F5F5F5F5F5F5F5F5F5F5F500000000000000000000000000000000000000000000000000000000000000000000000000000000000000000000000000000000000000000000000000000000000000000000000000000000000000000000000000
310
00000000000000000000000000000000000000000000000000000000000000000000000000000000000000000000000000000000000000000000000000000000000000000000000000000000000000000000000000000000000000F50000000000002D000000000000F5000000000000000000000000000000000000000000
310
000000000000000000000000DCDC28000000000000000000000000000000F500000000002D000000000000F50000000000000000000000000000000000000000000000000000000000000000000000000000000000000000000000000000000000000000000000000000000000000000000000000000000000000000000000
310
000000000000000000000000000000000000000000000000000000000000000000000000000000000000000000000000000000000000000000000000000000000000000000000000000000000000000000000000000000000000000000F50000000000002D000000000000F500000000000000000000000000000000000000
310
0000000000000000000000000000DCDC28000000000000000000000000000000F5F5000000002D0000000000F5F5000000000000000000000000000000000000000000000000000000000000000000000000000000000000000000000000000000000000000000000000000000000000000000000000000000000000000000
310
0000000000000000000000000000000000000000000000000000000000000000000000000000000000000000000000000000000000000000000000000000000000000000000000000000000000000000000000000000000000000000000000F50000000000002D00000000000000F500000000000000000000000000000000
310
00000000000000000000000000000000DCDC28000000000000000000000000000000F5F5000000002D0000000000F5F500000000000000000000000000000000000000000000000000000000000000000000000000000000000000000000000000000000000000000000000000000000000000000000000000000000000000
310
00000000000000000000000000000000000000000000000000000000000000000000000000000000000000000000000000000000000000000000000000000000000000000000000000000000000000000000000000000000000000000000000000F50000000000002D0000000000000000F5F5000000000000000000000000
310
000000000000000000000000000000000000DCDC28000000000000000000000000000000F500F50000002D0000000000F5F50000000000000000000000000000000000000000000000000000000000000000000000000000000000000000000000000000000000000000000000000000000000000000000000000000000000
310
000000000000000000000000000000000000000000000000000000000000000000000000000000000000000000000000000000000000000000000000000000000000000000000000000000000000000000000000000000000000000000000000000000F50000000000002D00000000000000000000F5F5F5F5000000000000
310
0000000000000000000000000000000000000000DCDC28000000000000000000000000000000F500F50000002D00000000F500F5000000000000000000000000000000000000000000000000000000000000000000000000000000000000000000000000000000000000000000000000000000000000000000000000000000
310
0000000000000000000000000000000000000000000000000000000000000000000000000000000000000000000000000000000000000000000000000000000000000000000000000000000000000000000000000000000000000000000000000000000000F50000000000002D0000000000000000000000000000F5F5F5F5
310
00000000000000000000000000000000000000000000000028000000000000000000000000000000F500F50000002D00000000F500F500000000000000000000000000000000000000000000000000000000000000000000000000000000000000000000000000000000000000000000000000000000000000000000000000
310
00000000000000000000000000000000000000000000000000000000000000000000000000000000000000000000000000000000000000000000000000000000000000000000000000000000000000000000000000000000000000000000000000000000000000F50000000000002D00000000000000000000000000000000
310
0000F5F5F5F5F5F5F5F5F5F5F5F5F5F5F5F5F50000000000000028000000000000000000000000000000F50000F5F5F52DF5F5F5F50000F50000000000000000000000000000000000000000000000000000000000000000000000000000000000000000000000000000000000000000000000000000000000000000000000
310
000000000000000000000000000000000000000000000000000000000000000000000000000000000000000000000000000000000000000000000000000000000000000000000000000000000000000000000000000000000000000000000000000000000000000000F50000000000002D00F5F5F5F5F5F5F5F5F5F5F5F5F5
310
F5F5F5F5F500000000000000000000000000000000F500000000000028000000000000000000000000000000F5F5F5F500002D000000F5F5F5F5000000000000000000000000000000000000000000000000000000000000000000000000000000000000000000000000000000000000000000000000000000000000000000
310
000000000000000000000000000000000000000000000000000000000000000000000000000000000000000000000000000000000000000000000000000000000000000000000000000000000000000000000000000000000000000000000000000000000000000000000000F500000000002D000000000000F50000000000
310
000000000000000000000000000000000000000000000000F5000000000028000000000000000000000000000000F50000F500002D000000F50000F500000000000000000000000000000000000000000000000000000000000000000000000000000000000000000000000000000000000000000000000000000000000000
310
0000000000000000000000000000000000000000000000000000000000000000000000000000000000000000000000000000000000000000000000000000000000000000000000000000000000000000000000000000000000000000000000000000000000000000000000000000F500000000002D0000000000F500000000
310
000000000000000000000000000000000000000000000000000000F50000000028000000000000000000000000000000F50000F500002D000000F50000F50000000000000000000000000000000000000000000000000000000000000000000000000000000000000000000000000000000000000000000000000000000000
310
00000000000000000000000000000000000000000000000000000000000000000000000000000000000000000000000000000000000000000000000000000000000000000000000000000000000000000000000000000000000000000000000000000000000000000000000000000000F500000000002D0000000000F50000
310
0000F5F5F5F5F500000000000000000000000000000000000000000000F5000000002800000000000000000000000000000000F500F500002D000000F50000F5000000000000000000000000000000000000000000000000000000000000000000000000000000000000000000000000000000000000000000000000000000
310
000000000000000000000000000000000000000000000000000000000000000000000000000000000000000000000000000000000000000000000000000000000000000000000000000000000000000000000000000000000000000000000000000000000000000000000000000000000000F500000000002D0000000000F5
310
0000F5F50000000000F5F50000000000000000000000000000000000000000F5000000002800000000000000000000000000000000F500F500002D000000F500F50000000000000000000000000000000000000000000000000000000000000000000000000000000000000000000000000000000000000000000000000000
310
000000000000000000000000000000000000000000000000000000000000000000000000000000000000000000000000000000000000000000000000000000000000000000000000000000000000000000000000000000000000000000000000000000000000000000000000000000000000000000F5000000002D00000000
310
00F5F5F5000000000000000000F500000000000000000000000000000000000000F5000000002800000000000000000000000000000000F500F500002D000000F500F5000000000000000000000000000000000000000000000000000000000000000000000000000000000000000000000000000000000000000000000000
310
0000000000000000000000000000000000000000000000000000000000000000000000000000000000000000000000000000000000000000000000000000000000000000000000000000000000000000000000000000000000000000000000000000000000000000000000000000000000000000000000F5000000002D0000
310
0000F5F5000000000000000000000000F5000000000000000000000000000000000000F5000000002800000000000000000000000000000000F500F500002D000000F500F500000000000000000000000000000000000000000000000000000000000000000000000000000000000000000000000000000000000000000000
310
000000000000000000000000000000000000000000000000000000000000000000000000000000000000000000000000000000000000000000000000000000000000000000000000000000000000000000000000000000000000000000000000000000000000000000000000000000000000000000000000F5F5F5F5F5F5F5
310
F5F5F5F5F5F5000000000000000000000000F5000000000000000000000000000000000000F5000000002800000000000000000000000000000000F5F5F500002D000000F5F5F50000000000000000000000000000000000000000000000000000000000000000000000000000000000000000000000000000000000000000
310
000000000000000000000000000000000000000000000000000000000000000000000000000000000000000000000000000000000000000000000000000000000000000000000000000000000000000000000000000000000000000000000000000000000000000000000000000000000000000000000000000000000000F5
310
F5F5F5F500000000000000000000000000000000F5000000000000000000000000000000000000F50000000028000000000000000000000000000000000000F5F5002D00F5F5F50000000000000000000000000000000000000000000000000000000000000000000000000000000000000000000000000000000000000000
310
00000000000000000000000000000000000000000000000000000000000000000000000000000000000000000000000000000000000000000000000000000000000000000000000000000000000000000000000000000000000000000000000000000000000000000000000000000000000000000000000000000000000000
310
00000028000000000000000000000000000000000000F5F5F5F5F5F5F5F5F5F5F5F5F5F5F5F5F5F5F5F528282828280000000000000000000000000000000000000000F52DF5000000000000000000000000000000000000000000000000000000000000000000000000000000000000000000000000000000000000000000
310
00000000000000000000000000000000000000000000000000000000000000000000000000000000000000000000000000000000000000000000000000000000000000000000000000000000000000000000000000000000000000000000000000000000000000000000000000000000000000000000000000000000000000
310
000000000028000000000000000000000000000000000000000000000000000000000000000000000000002800000000000000000000000000000000000000000000000000002D0000000000000000000000000000000000000000000000000000000000000000000000000000000000000000000000000000000000000000
310
00000000000000000000000000000000000000000000000000000000000000000000000000000000000000000000000000000000000000000000000000000000000000000000000000000000000000000000000000000000000000000000000000000000000000000000000000000000000000000000000000000000000000
310
0000000000000028000000000000000000000000000000000000000000000000000000000000000000000000002800000000000000000000000000000000000000000000000000002D000000000000000000000000000000000000000000000000000000000000000000000000000000000000000000000000000000000000
310
00000000000000000000000000000000000000000000000000000000000000000000000000000000000000000000000000000000000000000000000000000000000000000000000000000000000000000000000000000000000000000000000000000000000000000000000000000000000000000000000000000000000000
310
00000000000000000028000000000000000000000000000000000000000000000000000000000000000000000000002800000000000000000000000000000000000000000000000000000000000000000000000000000000000000000000000000000000000000000000000000000000000000000000000000000000000000
310
00000000000000000000000000000000000000000000000000000000000000000000000000000000000000000000000000000000000000000000000000000000000000000000000000000000000000000000000000000000000000000000000000000000000000000000000000000000000000000000000000000000000000
310
00000000000000000000002800000000000000000000000000000000000000000000000000000000000000000000000000280000000000000000000000000000000000000000000000000000000000000000000000000000000000000000000000000000000000000000000000000000000000000000000000000000000000
310
00000000000000000000000000000000000000000000000000000000000000000000000000000000000000000000000000000000000000000000000000000000000000000000000000000000000000000000000000000000000000000000000000000000000000000000000000000000000000000000000000000000000000
310
00000000000000000000000000282828282828282828282828282828282828282828282828282828282828282828282828282828000000000000000000000000000000000000000000000000000000000000000000000000000000000000000000000000000000000000000000000000000000000000000000000000000000
310
00000000000000000000000000000000000000000000000000000000000000000000000000000000000000000000000000000000000000000000000000000000000000000000000000000000000000000000000000000000000000000000000000000000000000000000000000000000000000000000000000000000000000
310
000000000000000000000000000000280000000000000000000000000000000000DCDCDC00000000000000000000000000000000002800000000000000000000000000000000000000000000000000000000000000000000000000000000000000000000000000000000000000000000000000000000000000000000000000
310
00000000000000000000000000000000000000000000000000000000000000000000000000000000000000000000000000000000000000000000000000000000000000000000000000000000000000000000000000000000000000000000000000000000000000000000000000000000000000000000000000000000000000
310
0000000000000000000000000000000000000000000000000000000000000000000000DCDCDC0000000000000000000000000000000000000000000000000000000000000000000000000000000000000000000000000000000000000000000000000000000000000000000000000000000000000000000000000000000000
310
00000000000000000000000000000000000000000000000000000000000000000000000000000000000000000000000000000000000000000000000000000000000000000000000000000000000000000000000000000000000000000000000000000000000000000000000000000000000000000000000000000000000000
310
00000000000000000000000000000000000000000000000000000000000000000000000000000000000000000000000000000000000000000000000000000000000000000000000000000000000000000000000000000000000000000000000000000000000000000000000000000000000000000000000000000000000000
310
00000000000000000000000000000000000000000000000000000000000000000000000000000000000000000000000000000000000000000000000000000000000000000000000000000000000000000000000000000000000000000000000000000000000000000000000000000000000000000000000000000000000000
310
00000000000000000000000000000000000000000000000000000000000000000000000000000000000000000000000000000000000000000000000000000000000000000000000000000000000000000000000000000000000000000000000000000000000000000000000000000000000000000000000000000000000000
310
00000000000000000000000000000000000000000000000000000000000000000000000000000000000000000000000000000000000000000000000000000000000000000000000000000000000000000000000000000000000000000000000000000000000000000000000000000000000000000000000000000000000000
310
00000000000000000000000000000000000000000000000000000000000000000000000000000000000000000000000000000000000000000000000000000000000000000000000000000000000000000000000000000000000000000000000000000000000000000000000000000000000000000000000000000000000000
310
00000000000000000000000000000000000000000000000000000000000000000000000000000000000000000000000000000000000000000000000000000000000000000000000000000000000000000000000000000000000000000000000000000000000000000000000000000000000000000000000000000000000000
310
00000000000000000000000000000000000000000000000000000000000000000000000000000000000000000000000000000000000000000000000000000000000000000000000000000000000000000000000000000000000000000000000000000000000000000000000000000000000000000000000000000000000000
310
00000000000000000000000000000000000000000000000000000000000000000000000000000000000000000000000000000000000000000000000000000000000000000000000000000000000000000000000000000000000000000000000000000000000000000000000000000000000000000000000000000000000000
310
00000000000000000000000000000000000000000000000000000000000000000000000000000000000000000000000000000000000000000000000000000000000000000000000000000000000000000000000000000000000000000000000000000000000000000000000000000000000000000000000000000000000000
310
00000000000000000000000000000000000000000000000000000000000000000000000000000000000000000000000000000000000000000000000000000000000000000000000000000000000000000000000000000000000000000000000000000000000000000000000000000000000000000000000000000000000000
310
00000000000000000000000000000000000000000000000000000000000000000000000000000000000000000000000000000000000000000000000000000000000000000000000000000000000000000000000000000000000000000000000000000000000000000000000000000000000000000000000000000000000000
310
00000000000000000000000000000000000000000000000000000000000000000000000000000000000000000000000000000000000000000000000000000000000000000000000000000000000000000000000000000000000000000000000000000000000000000000000000000000000000000000000000000000000000
310
00000000000000000000000000000000000000000000000000000000000000000000000000000000000000000000000000000000000000000000000000000000000000000000000000000000000000000000000000000000000000000000000000000000000000000000000000000000000000000000000000000000000000
310
00000000000000000000000000000000000000000000000000000000000000000000000000000000000000000000000000000000000000000000000000000000000000000000000000000000000000000000000000000000000000000000000000000000000000000000000000000000000000000000000000000000000000
310
00000000000000000000000000000000000000000000000000000000000000000000000000000000000000000000000000000000000000000000000000000000000000000000000000000000000000000000000000000000000000000000000000000000000000000000000000000000000000000000000000000000000000
310
00000000000000000000000000000000000000000000000000000000000000000000000000000000000000000000000000000000000000000000000000000000000000000000000000000000000000000000000000000000000000000000000000000000000000000000000000000000000000000000000000000000000000
310
00000000000000000000000000000000000000000000000000000000000000000000000000000000000000000000000000000000000000000000000000000000000000000000000000000000000000000000000000000000000000000000000000000000000000000000000000000000000000000000000000000000000000
310
00000000000000000000000000000000000000000000000000000000000000000000000000000000000000000000000000000000000000000000000000000000000000000000000000000000000000000000000000000000000000000000000000000000000000000000000000000000000000000000000000000000000000
310
00000000000000000000000000000000000000000000000000000000000000000000000000000000000000000000000000000000000000000000000000000000000000000000000000000000000000000000000000000000000000000000000000000000000000000000000000000000000000000000000000000000000000
310
00000000000000000000000000000000000000000000000000000000000000000000000000000000000000000000000000000000000000000000000000000000000000000000000000000000000000000000000000000000000000000000000000000000000000000000000000000000000000000000000000000000000000
310
00000000000000000000000000000000000000000000000000000000000000000000000000000000000000000000000000000000000000000000000000000000000000000000000000000000000000000000000000000000000000000000000000000000000000000000000000000000000000000000000000000000000000
310
00000000000000000000000000000000000000000000000000000000000000000000000000000000000000000000000000000000000000000000000000000000000000000000000000000000000000000000000000000000000000000000000000000000000000000000000000000000000000000000000000000000000000
310
00000000000000000000000000000000000000000000000000000000000000000000000000000000002D00000000000000000000000000000000000000000000000000000000000000000000000000000000000000000000000000000000000000000000000000000000000000000000000000000000000000000000000000
310
00000000000000000000000000000000000000000000000000000000000000000000000000000000000000000000000000000000000000000000000000000000000000000000000000000000000000000000000000000000000000000000000000000000000000000000000000000000000000000000000000000000000000
310
000000000000000000000000000000000000000000000000000000000000000000000000000000000000002D0000000000000000000000000000000000000000000000000000000000000000000000000000000000000000000000000000000000000000000000000000000000000000000000000000000000000000000000
310
00000000000000000000000000000000000000000000000000000000000000000000000000000000000000000000000000000000000000000000000000000000000000000000000000000000000000000000000000000000000000000000000000000000000000000000000000000000000000000000000000000000000000
310
00000000000000000000000000000000000000000000000000000000000000000000F5F5F5F5F5F5F5F5F5F5F52DF5F5F5F5F5F5F5F5F5F5F5F5F5F500000000000000000000000000000000000000000000000000000000000000000000000000000000000000000000000000000000000000000000000000000000000000
310
00000000000000000000000000000000000000000000000000000000000000000000000000000000000000000000000000000000000000000000000000000000000000000000000000000000000000000000000000000000000000000000000000000000000000000000000000000000000000000000000000000000000000
310
000000000000000000000000000000000000000000000000000000000000000000000000F5F5000000F5F5F5F5F5F5F5F5F5F5F5F5F500000000F50000F5F5F5F5F5F5F5F5F5F5F5F5F5F500000000000000000000000000000000000000000000000000000000000000000000000000000000000000000000000000000000
310
00000000000000000000000000000000000000000000000000000000000000000000000000000000000000000000000000000000000000000000000000000000000000000000000000000000000000000000000000000000000000000000000000000000000000000000000000000000000000000000000000000000000000
310
0000000000000000000000000000000000000000000000000000000000000000000000000000F500000000F500F5F500002D0000F5F5F5F500000000F50000F5000000000000000000000000F5F5F5000000000000000000000000000000000000000000000000000000000000000000000000000000000000000000000000
310
00000000000000000000000000000000000000000000000000000000000000000000000000000000000000000000000000000000000000000000000000000000000000000000000000000000000000000000000000000000000000000000000000000000000000000000000000000000000000000000000000000000000000
310
00000000000000000000000000000000000000000000000000000000000000000000000000000000F500000000F5F50000F5F5F5F5F500F5F5F5F5F5F500F50000F5000000000000000000000000F5F5F500000000000000000000000000000000000000000000000000000000000000000000000000000000000000000000
310
00000000000000000000000000000000000000000000000000000000000000000000000000000000000000000000000000000000000000000000000000000000000000000000000000000000000000000000000000000000000000000000000000000000000000000000000000000000000000000000000000000000000000
310
000000000000000000000000000000000000000000000000000000000000000000000000000000000000F500000000F5F500F500002D0000F50000F5000000F5F5F5F5F5F5F5F5F5F500000000000000F5F5F50000000000000000000000000000000000000000000000000000000000000000000000000000000000000000
310
00000000000000000000000000000000000000000000000000000000000000000000000000000000000000000000000000000000000000000000000000000000000000000000000000000000000000000000000000000000000000000000000000000000000000000000000000000000000000000000000000000000000000
310
0000000000000000000000000000000000000000000000000000000000000000000000000000000000000000F500000000F500F50000002D000000F50000F50000000000F5F5F5F5F5F5F5F5F5F5F5F5F5F5F5F5F5F5F5F5F5F5F5F5F5F5000000000000000000000000000000000000000000000000000000000000000000
310
00000000000000000000000000000000000000000000000000000000000000000000000000000000000000000000000000000000000000000000000000000000000000000000000000000000000000000000000000000000000000000000000000000000000000000000000000000000000000000000000000000000000000
310
00000000000000000000000000000000000000000000000000000000000000000000000000000000000000000000F5000000F5F5F5000000002D00000000F5F5F5F5F5F5F5F5000000000000F5000000000000000000000000000000000000F500000000000000000000000000000000000000000000000000000000000000
310
00000000000000000000000000000000000000000000000000000000000000000000000000000000000000000000000000000000000000000000000000000000000000000000000000000000000000000000000000000000000000000000000000000000000000000000000000000000000000000000000000000000000000
310
000000000000000000000000000000000000000000000000000000000000000000000000000000000000000000000000F5F5F5F5F5F5F5BEBEBEBEF5F5F5F5F5F5F5000000000000000000000000F5000000000000000000000000000000000000F50000000000000000F5F5F5F5F5F5F5F5F5F5F5F5F5F5F5F5F5F5F5F5F5
310
F5F5F5F5F5F5F5F5F5F5000000000000000000000000000000000000000000000000000000000000000000000000000000000000000000000000000000000000000000000000000000000000000000000000000000000000000000000000000000000000000000000000000000000000000000000000000000000000000000
310
0000000000000000000000000000000000000000000000000000000000000000000000000000000000000000000000002D2D2D2D2D2DF5F5F5BEBEBEBEF5F5F5F5F5F5F52D2D2D2D2D2D2D2D2D2D2D2DF52D2D2D2D2D2D2D2D2D2D2D2D2D2D2D2D2D2DF52D00000000000000F5F5F5F5F5F5F5F5F5F5F5F5F5F5F5F5F5F5F5
310
F5F5F5F5F5F5F5F5F5F5F5F500000000000000000000000000000000000000000000000000000000000000000000000000000000000000000000000000000000000000000000000000000000000000000000000000000000000000000000000000000000000000000000000000000000000000000000000000000000000000
310
00000000000000000000000000000000000000000000000000000000000000000000000000000000000000000000000000000000F5F5F5F5F5F5F5000000002D00000000F5F5000000000000000000000000F5000000000000000000000000000000000000F500000000000000000000000000000000000000000000000000
310
00000000000000000000000000000000000000000000000000000000000000000000000000000000000000000000000000000000000000000000000000000000000000000000000000000000000000000000000000000000000000000000000000000000000000000000000000000000000000000000000000000000000000
310
000000000000000000000000000000000000000000000000000000000000000000000000000000000000000000000000000000000000F50000002800F5000000002D00000000F5F528F5F5F5F500000000000000F5000000000000000000000000000000000000F50000000000000000000000000000000000000000000000
310
00000000000000000000000000000000000000000000000000000000000000000000000000000000000000000000000000000000000000000000000000000000000000000000000000000000000000000000000000000000000000000000000000000000000000000000000000000000000000000000000000000000000000
310
0000000000000000000000000000000000000000000000000000000000000000000000000000000000000000000000000000000000000000F500000028F500F50000002D000000F500F52800000000F5F5F5F5F5F5F5F5F5F5F5F5F5F5F5F5F5F5F5F5F5F5F5F5F5F5F5000000000000000000000000000000000000000000
310
00000000000000000000000000000000000000000000000000000000000000000000000000000000000000000000000000000000000000000000000000000000000000000000000000000000000000000000000000000000000000000000000000000000000000000000000000000000000000000000000000000000000000
310
00000000000000000000000000000000000000000000000000000000000000000000000000000000000000000000000000000000000000000000F50000000028F500F500002D0000F5000028000000F5F5F5F5F5000000000000000000000000F5F5F500000000000000000000000000000000000000000000000000000000
310
00000000000000000000000000000000000000000000000000000000000000000000000000000000000000000000000000000000000000000000000000000000000000000000000000000000000000000000000000000000000000000000000000000000000000000000000000000000000000000000000000000000000000
310
000000000000000000000000000000000000000000000000000000000000000000000000000000000000000000000000000000000000000000000000F50000000028F5000028F5F5F5280000F528F5F5F500F50000F5000000000000000000000000F5F5F50000000000000000000000000000000000000000000000000000
310
00000000000000000000000000000000000000000000000000000000000000000000000000000000000000000000000000000000000000000000000000000000000000000000000000000000000000000000000000000000000000000000000000000000000000000000000000000000000000000000000000000000000000
310
0000000000000000000000000000000000000000000000000000000000000000000000000000000000000000000000000000000000000000000000000000F500000000F528F50028002D0028F5F528F500000000F50000F5000000000000000000000000F5F5F5000000000000000000000000000000000000000000000000
310
00000000000000000000000000000000000000000000000000000000000000000000000000000000000000000000000000000000000000000000000000000000000000000000000000000000000000000000000000000000000000000000000000000000000000000000000000000000000000000000000000000000000000
310
00000000000000000000000000000000000000000000000000000000000000000000000000000000000000000000000000000000000000000000000000000000F5F5000000F528F5F528F5F5F528F5F528F500000000F5F5F5F5F5F5F5F5F5F5F5F5F5F5F5F5F5000000000000000000000000000000000000000000000000
310
00000000000000000000000000000000000000000000000000000000000000000000000000000000000000000000000000000000000000000000000000000000000000000000000000000000000000000000000000000000000000000000000000000000000000000000000000000000000000000000000000000000000000
310
000000000000000000000000000000000000000000000000000000000000000000000000000000000000000000000000000000000000000000000000000000000000F5F5F5F5F5F528F5F528F52DF528F5F528F5F5F5F5F5F50000000000000000000000000000000000000000000000000000000000000000000000000000
310
00000000000000000000000000000000000000000000000000000000000000000000000000000000000000000000000000000000000000000000000000000000000000000000000000000000000000000000000000000000000000000000000000000000000000000000000000000000000000000000000000000000000000
310
000000000000000000000000000000000000000000000000000000000000000000000000000000000000000000000000000000000000000000000000000000000000000000000000000028000028002D0028000028000000000000000000000000000000000000000000000000000000000000000000000000000000000000
310
00000000000000000000000000000000000000000000000000000000000000000000000000000000000000000000000000000000000000000000000000000000000000000000000000000000000000000000000000000000000000000000000000000000000000000000000000000000000000000000000000000000000000
310
0000000000000000000000000000000000000000000000000000000000000000000000000000000000000000000000000000000000000000000000000000000000000000000000000000000028000028002D0028002800000000000000000000000000000000000000000000000000000000F50000F5F5F500000000000000
310
00000000000000000000000000000000000000000000000000000000000000000000000000000000000000000000000000000000000000000000000000000000000000000000000000000000000000000000000000000000000000000000000000000000000000000000000000000000000000000000000000000000000000
310
00000000000000000000000000000000000000000000000000000000000000000000000000000000000000000000000000000000000000000000000000000000000000000000000000000000000000282800000000280028000000000000000000000000000000000000000000000000000000F5F50000F5F5F50000000000
310
00000000000000000000000000000000000000000000000000000000000000000000000000000000000000000000000000000000000000000000000000000000000000000000000000000000000000000000000000000000000000000000000000000000000000000000000000000000000000000000000000000000000000
310
0000000000000000000000000000000000000000000000000000000000000000000000000000000000000000000000000000000000000000000000000000000000000000000000000000000000000000002828000000000028280000000000000000000000000000000000000000000000000000F500F50000F5F5F5000000
310
00000000000000000000000000000000000000000000000000000000000000000000000000000000000000000000000000000000000000000000000000000000000000000000000000000000000000000000000000000000000000000000000000000000000000000000000000000000000000000000000000000000000000
310
0000000000000000000000000000000000000000000000000000000000000000000000000000000000000000000000000000000000000000000000000000000000000000000000000000000000000000000000282800000000002828000000000000000000000000000000000000000000000000000000F5F5000000000000
310
00000000000000000000000000000000000000000000000000000000000000000000000000000000000000000000000000000000000000000000000000000000000000000000000000000000000000000000000000000000000000000000000000000000000000000000000000000000000000000000000000000000000000
310
00000000000000000000000000000000000000000000000000000000000000000000000000000000000000000000000000000000000000000000000000000000000000000000000000000000000000000000000000282800000000002828000000000000000000000000000000000000000000000000000000F50000000000
310
00000000000000000000000000000000000000000000000000000000000000000000000000000000000000000000000000000000000000000000000000000000000000000000000000000000000000000000000000000000000000000000000000000000000000000000000000000000000000000000000000000000000000
310
000000000000000000000000000000000000000000000000000000000000000000000000000000000000000000000000000000000000000000000000000000000000000000000000000000000000000000000000000000282800000000002828000000000000000000000000000000000000000000000000000000F5000000
310
00000000000000000000000000000000000000000000000000000000000000000000000000000000000000000000000000000000000000000000000000000000000000000000000000000000000000000000000000000000000000000000000000000000000000000000000000000000000000000000000000000000000000
310
00000000000000000000000000000000000000000000000000000000000000000000000000000000000000000000000000000000000000000000000000000000000000000000000000000000000000000000000000000000002828000000000028280000000000000000000000000000000000000000000000000000F50000
310
00000000000000000000000000000000000000000000000000000000000000000000000000000000000000000000000000000000000000000000000000000000000000000000000000000000000000000000000000000000000000000000000000000000000000000000000000000000000000000000000000000000000000
310
000000000000000000000000000000000000000000000000000000000000000000000000000000000000000000000000000000000000000000000000000000000000000000000000000000000000000000000000000000000000002828000000000028280000000000000000000000000000000000000000000000000000F5
310
00000000000000000000000000000000000000000000000000000000000000000000000000000000000000000000000000000000000000000000000000000000000000000000000000000000000000000000000000000000000000000000000000000000000000000000000000000000000000000000000000000000000000
310
00000000000000000000000000000000000000000000000000000000000000000000000000000000000000000000000000000000000000000000000000000000000000000000000000000000000000000000000000000000000000000028280000000000282800000000000000000000000000000000000000000000000000
310
F5000000000000000000000000000000000000000000000000000000000000000000000000000000000000000000000000000000000000000000000000000000000000000000000000000000000000000000000000000000000000000000000000000000000000000000000000000000000000000000000000000000000000
310
00000000000000000000000000000000000000000000000000000000000000000000000000000000000000000000000000000000000000000000000000000000000000000000000000000000000000000000000000000000000000000000002828282828282828280000000000000000000000000000000000000000000000
310
0000F500000000000000000000000000000000000000000000000000000000000000000000000000000000000000000000000000000000000000000000000000000000000000000000000000000000000000000000000000000000000000000000000000000000000000000000000000000000000000000000000000000000
310
00000000000000000000000000000000000000000000000000000000000000000000000000000000000000000000000000000000000000000000000000000000000000000000000000000000000000000000000000000000000000000000000000002800000000002800000000000000000000000000000000000000000000
310
000000F5000000000000000000000000000000000000000000000000000000000000000000000000000000000000000000000000000000000000000000000000000000000000000000000000000000000000000000000000000000000000000000000000000000000000000000000000000000000000000000000000000000
310
00000000000000000000000000000000000000000000000000000000000000000000000000000000000000000000000000000000000000000000000000000000000000000000000000000000000000000000000000000000000000000000000000000000280000000000280000000000000000000000000000000000000000
310
00000000F50000000000000000000000000000000000000000000000000000000000000000000000000000000000000000000000000000000000000000000000000000000000000000000000000000000000000000000000000000000000000000000000000000000000000000000000000000000000000000000000000000
310
00000000000000000000000000000000000000000000000000000000000000000000000000000000000000000000000000000000000000000000000000000000000000000000000000000000000000000000000000000000000000000000000000000000000028000000000028000000000000000000000000000000000000
310
0000000000F500000000000000000000000000000000000000000000000000000000000000000000000000000000000000000000000000000000000000000000000000000000000000000000000000000000000000000000000000000000000000000000000000000000000000000000000000000000000000000000000000
310
00000000000000000000000000000000000000000000000000000000000000000000000000000000000000000000000000000000000000000000000000000000000000000000000000000000000000000000000000000000000000000000000000000000000000002800000000002800000000000000000000000000000000
310
000000000000F5000000000000000000000000000000000000000000000000000000000000000000000000000000000000000000000000000000000000000000000000000000000000000000000000000000000000000000000000000000000000000000000000000000000000000000000000000000000000000000000000
310
00000000000000000000000000000000000000000000000000000000000000000000000000000000000000000000000000000000000000000000000000000000000000000000000000000000000000000000000000000000000000000000000000000000000000000000280000000000280000000000000000000000000000
310
00000000000000F50000000000000000000000000000000000000000000000000000000000000000000000000000000000000000000000000000000000000000000000000000000000000000000000000000000000000000000000000000000000000000000000000000000000000000000000000000000000000000000000
310
00000000000000000000000000000000000000000000000000000000000000000000000000000000000000000000000000000000000000000000000000000000000000000000000000000000000000000000000000000000000000000000000000000000000000000000000028000000000028000000000000000000000000
310
000000000000000000F5000000000000000000000000000000000000000000000000000000000000000000000000000000000000000000000000000000000000000000000000000000000000000000000000000000000000000000000000000000000000000000000000000000000000000000000000000000000000000000
310
00000000000000000000000000000000000000000000000000000000000000000000000000000000000000000000000000000000000000000000000000000000000000000000000000000000000000000000000000000000000000000000000000000000000000000000000000002800000000002800000000000000000000
310
00000000000000000000F50000000000000000000000000000000000000000000000000000000000000000000000000000000000000000000000000000000000000000000000000000000000000000000000000000000000000000000000000000000000000000000000000000000000000000000000000000000000000000
310
00000000000000000000000000000000000000000000000000000000000000000000000000000000000000000000000000000000000000000000000000000000000000000000000000000000000000000000000000000000000000000000000000000000000000000000000000000000280000000000280000000000000000
310
00000000000000000000F5F500000000000000000000000000000000000000000000000000000000000000000000000000000000000000000000000000000000000000000000000000000000000000000000000000000000000000000000000000000000000000000000000000000000000000000000000000000000000000
310
00000000000000000000000000000000000000000000000000000000000000000000000000000000000000000000000000000000000000000000000000000000000000000000000000000000000000000000000000000000000000000000000000000000000000000000000000000000000028000000000028000000000000
310
0000000000000000000000F500000000000000000000000000000000000000000000000000000000000000000000000000000000000000000000000000000000000000000000000000000000000000000000000000000000000000000000000000000000000000000000000000000000000000000000000000000000000000
310
00000000000000000000000000000000000000000000000000000000000000000000000000000000000000000000000000000000000000000000000000000000000000000000000000000000000000000000000000000000000000000000000000000000000000000000000000000000000000002800000000002800000000
310
0000000000000000000000F5F5000000000000000000000000000000000000000000000000000000000000000000000000000000000000000000000000000000000000000000000000000000000000000000000000000000000000000000000000000000000000000000000000000000000000000000000000000000000000
310
00000000000000000000000000000000000000000000000000000000000000000000000000000000000000000000000000000000000000000000000000000000000000000000000000000000000000000000000000000000000000000000000000000000000000000000000000000000000000000000280000000000280000
310
0000000000000000000000F5F5000000000000000000000000000000000000000000000000000000000000000000000000000000000000000000000000000000000000000000000000000000000000000000000000000000000000000000000000000000000000000000000000000000000000000000000000000000000000
310
00000000000000000000000000000000000000000000000000000000000000000000000000000000000000000000000000000000000000000000000000000000000000000000000000000000000000000000000000000000000000000000000000000000000000000000000000000000000000000000000028000000000028
310
0000000000000000F50000F5F5000000000000000000000000000000000000000000000000000000000000000000000000000000000000000000000000000000000000000000000000000000000000000000000000000000000000000000000000000000000000000000000000000000000000000000000000000000000000
310
00000000000000000000000000000000000000000000000000000000000000000000000000000000000000000000000000000000000000000000000000000000000000000000000000000000000000000000000000000000000000000000000000000000000000000000000000000000000000000000000000002800000000
310
002800000000000000F500F5F5000000000000000000000000000000000000000000000000000000000000000000000000000000000000000000000000000000000000000000000000000000000000000000000000000000000000000000000000000000000000000000000000000000000000000000000000000000000000
310
00000000000000000000000000000000000000000000000000000000000000000000000000000000000000000000000000000000000000000000000000000000000000000000000000000000000000000000000000000000000000000000000000000000000000000000000000000000000000000000000000000000280000
310
00000028000000000000F5F5F5F50000000000000000000000000000000000000000000000000000000000000000000000000000000000000000000000000000000000000000000000000000000000000000000000000000000000000000000000000000000000000000000000000000000000000000000000000000000000
310
00000000000000000000000000000000000000000000000000000000000000000000000000000000000000000000000000000000000000000000000000000000000000000000000000000000000000000000000000000000000000000000000000000000000000000000000000000000000000000000000000000000000028
310
00000000002800000000000000000000000000000000000000000000000000000000000000000000000000000000000000000000000000000000000000000000000000000000000000000000000000000000000000000000000000000000000000000000000000000000000000000000000000000000000000000000000000
310
00000000000000000000000000000000000000000000000000000000000000000000000000000000000000000000000000000000000000000000000000000000000000000000000000000000000000000000000000000000000000000000000000000000000000000000000000000000000000000000000000000000000000
310
00280000000000280000000000000000F5F5F5000000000000000000000000000000000000000000000000000000000000000000000000000000000000000000000000000000000000000000000000000000000000000000000000000000000000000000000000000000000000000000000000000000000000000000000000
310
00000000000000000000000000000000000000000000000000000000000000000000000000000000000000000000000000000000000000000000000000000000000000000000000000000000000000000000000000000000000000000000000000000000000000000000000000000000000000000000000000000000000000
310
000000280000000000280000000000000000F5F5F500000000000000000000000000000000000000000000000000000000000000000000000000000000000000000000000000000000000000000000000000000000000000000000000000000000000000000000000000000000000000000000000000000000000000000000
310
00000000000000000000000000000000000000000000000000000000000000000000000000000000000000000000000000000000000000000000000000000000000000000000000000000000000000000000000000000000000000000000000000000000000000000000000000000000000000000000000000000000000000
310
00000000002828000000282800000000000000000000000000000000000000000000000000000000000000000000000000000000000000000000000000000000000000000000000000000000000000000000000000000000000000000000000000000000000000000000000000000000000000000000000000000000000000
310
00000000000000000000000000000000000000000000000000000000000000000000000000000000000000000000000000000000000000000000000000000000000000000000000000000000000000000000000000000000000000000000000000000000000000000000000000000000000000000000000000000000000000
310
00000000000000000028282800000000000000000000000000000000000000000000000000000000000000000000000000000000000000000000000000000000000000000000000000000000000000000000000000000000000000000000000000000000000000000000000000000000000000000000000000000000000000
310
00000000000000000000000000000000000000000000000000000000000000000000000000000000
  0
XRECORD
  5
2BB6
102
{ACAD_REACTORS
330
2BB5
102
}
330
2BB5
100
AcDbXrecord
280
     1
102
MATERIAL
148
0.0
149
0.0
149
0.0
 93
        0
 94
       63
282
     0
 72
     1
 77
     1
171
     1
175
     1
179
     1
273
     0
  0
XRECORD
  5
2BB4
102
{ACAD_REACTORS
330
2BB3
102
}
330
2BB3
100
AcDbXrecord
280
     1
102
MATERIAL
148
0.0
149
0.0
149
0.0
 93
        0
 94
       63
282
     0
 72
     1
 77
     1
171
     1
175
     1
179
     1
273
     0
  0
XRECORD
  5
2BB8
102
{ACAD_REACTORS
330
2BB7
102
}
330
2BB7
100
AcDbXrecord
280
     1
102
MATERIAL
148
0.0
149
0.0
149
0.0
 93
        0
 94
       63
282
     0
 72
     1
 77
     1
171
     1
175
     1
179
     1
273
     0
  0
CELLSTYLEMAP
  5
2BAB
102
{ACAD_REACTORS
330
1F5D
102
}
330
1F5D
100
AcDbCellStyleMap
 90
        3
300
CELLSTYLE
  1
TABLEFORMAT_BEGIN
 90
        5
170
     1
 91
        0
 92
    32768
 62
   257
 93
        1
300
CONTENTFORMAT
  1
CONTENTFORMAT_BEGIN
 90
        0
 91
        0
 92
      512
 93
        0
300

 40
0.0
140
1.0
 94
        5
 62
     0
340
11
144
6.0
309
CONTENTFORMAT_END
171
     1
301
MARGIN
  1
CELLMARGIN_BEGIN
 40
1.5
 40
1.5
 40
1.5
 40
1.5
 40
0.18
 40
0.18
309
CELLMARGIN_END
 94
        6
 95
        1
302
GRIDFORMAT
  1
GRIDFORMAT_BEGIN
 90
        0
 91
        1
 62
     0
 92
       -2
340
0
 93
        0
 40
0.045
309
GRIDFORMAT_END
 95
        2
302
GRIDFORMAT
  1
GRIDFORMAT_BEGIN
 90
        0
 91
        1
 62
     0
 92
       -2
340
0
 93
        0
 40
0.045
309
GRIDFORMAT_END
 95
        4
302
GRIDFORMAT
  1
GRIDFORMAT_BEGIN
 90
        0
 91
        1
 62
     0
 92
       -2
340
0
 93
        0
 40
0.045
309
GRIDFORMAT_END
 95
        8
302
GRIDFORMAT
  1
GRIDFORMAT_BEGIN
 90
        0
 91
        1
 62
     0
 92
       -2
340
0
 93
        0
 40
0.045
309
GRIDFORMAT_END
 95
       16
302
GRIDFORMAT
  1
GRIDFORMAT_BEGIN
 90
        0
 91
        1
 62
     0
 92
       -2
340
0
 93
        0
 40
0.045
309
GRIDFORMAT_END
 95
       32
302
GRIDFORMAT
  1
GRIDFORMAT_BEGIN
 90
        0
 91
        1
 62
     0
 92
       -2
340
0
 93
        0
 40
0.045
309
GRIDFORMAT_END
309
TABLEFORMAT_END
  1
CELLSTYLE_BEGIN
 90
        1
 91
        1
300
_TITLE
309
CELLSTYLE_END
300
CELLSTYLE
  1
TABLEFORMAT_BEGIN
 90
        5
170
     1
 91
        0
 92
        0
 62
   257
 93
        1
300
CONTENTFORMAT
  1
CONTENTFORMAT_BEGIN
 90
        0
 91
        0
 92
      512
 93
        0
300

 40
0.0
140
1.0
 94
        5
 62
     0
340
11
144
4.5
309
CONTENTFORMAT_END
171
     1
301
MARGIN
  1
CELLMARGIN_BEGIN
 40
1.5
 40
1.5
 40
1.5
 40
1.5
 40
0.18
 40
0.18
309
CELLMARGIN_END
 94
        6
 95
        1
302
GRIDFORMAT
  1
GRIDFORMAT_BEGIN
 90
        0
 91
        1
 62
     0
 92
       -2
340
0
 93
        0
 40
0.045
309
GRIDFORMAT_END
 95
        2
302
GRIDFORMAT
  1
GRIDFORMAT_BEGIN
 90
        0
 91
        1
 62
     0
 92
       -2
340
0
 93
        0
 40
0.045
309
GRIDFORMAT_END
 95
        4
302
GRIDFORMAT
  1
GRIDFORMAT_BEGIN
 90
        0
 91
        1
 62
     0
 92
       -2
340
0
 93
        0
 40
0.045
309
GRIDFORMAT_END
 95
        8
302
GRIDFORMAT
  1
GRIDFORMAT_BEGIN
 90
        0
 91
        1
 62
     0
 92
       -2
340
0
 93
        0
 40
0.045
309
GRIDFORMAT_END
 95
       16
302
GRIDFORMAT
  1
GRIDFORMAT_BEGIN
 90
        0
 91
        1
 62
     0
 92
       -2
340
0
 93
        0
 40
0.045
309
GRIDFORMAT_END
 95
       32
302
GRIDFORMAT
  1
GRIDFORMAT_BEGIN
 90
        0
 91
        1
 62
     0
 92
       -2
340
0
 93
        0
 40
0.045
309
GRIDFORMAT_END
309
TABLEFORMAT_END
  1
CELLSTYLE_BEGIN
 90
        2
 91
        1
300
_HEADER
309
CELLSTYLE_END
300
CELLSTYLE
  1
TABLEFORMAT_BEGIN
 90
        5
170
     1
 91
        0
 92
        0
 62
   257
 93
        1
300
CONTENTFORMAT
  1
CONTENTFORMAT_BEGIN
 90
        0
 91
        0
 92
      512
 93
        0
300

 40
0.0
140
1.0
 94
        2
 62
     0
340
11
144
4.5
309
CONTENTFORMAT_END
171
     1
301
MARGIN
  1
CELLMARGIN_BEGIN
 40
1.5
 40
1.5
 40
1.5
 40
1.5
 40
0.18
 40
0.18
309
CELLMARGIN_END
 94
        6
 95
        1
302
GRIDFORMAT
  1
GRIDFORMAT_BEGIN
 90
        0
 91
        1
 62
     0
 92
       -2
340
0
 93
        0
 40
0.045
309
GRIDFORMAT_END
 95
        2
302
GRIDFORMAT
  1
GRIDFORMAT_BEGIN
 90
        0
 91
        1
 62
     0
 92
       -2
340
0
 93
        0
 40
0.045
309
GRIDFORMAT_END
 95
        4
302
GRIDFORMAT
  1
GRIDFORMAT_BEGIN
 90
        0
 91
        1
 62
     0
 92
       -2
340
0
 93
        0
 40
0.045
309
GRIDFORMAT_END
 95
        8
302
GRIDFORMAT
  1
GRIDFORMAT_BEGIN
 90
        0
 91
        1
 62
     0
 92
       -2
340
0
 93
        0
 40
0.045
309
GRIDFORMAT_END
 95
       16
302
GRIDFORMAT
  1
GRIDFORMAT_BEGIN
 90
        0
 91
        1
 62
     0
 92
       -2
340
0
 93
        0
 40
0.045
309
GRIDFORMAT_END
 95
       32
302
GRIDFORMAT
  1
GRIDFORMAT_BEGIN
 90
        0
 91
        1
 62
     0
 92
       -2
340
0
 93
        0
 40
0.045
309
GRIDFORMAT_END
309
TABLEFORMAT_END
  1
CELLSTYLE_BEGIN
 90
        3
 91
        2
300
_DATA
309
CELLSTYLE_END
  0
XRECORD
  5
2BD9
102
{ACAD_REACTORS
330
1F5D
102
}
330
1F5D
100
AcDbXrecord
280
     1
102
ACAD_ROUNDTRIP_PRE2007_TABLESTYLE
 90
      512
 91
        0
  1

 92
      512
 93
        0
  2

 94
      512
 95
        0
  3

  0
XRECORD
  5
2BC4
102
{ACAD_REACTORS
330
2BC3
102
}
330
2BC3
100
AcDbXrecord
280
     1
102
RTVSPropertyOp0
 70
     1
102
RTVSPropertyOp1
 70
     1
102
RTVSPropertyOp2
 70
     1
102
RTVSPropertyOp3
 70
     1
102
RTVSPropertyOp4
 70
     1
102
RTVSPropertyOp5
 70
     1
102
RTVSPropertyOp6
 70
     1
102
RTVSPropertyOp7
 70
     1
102
RTVSPropertyOp8
 70
     1
102
RTVSPropertyOp9
 70
     1
102
RTVSPropertyOp10
 70
     1
102
RTVSPropertyOp11
 70
     1
102
RTVSPropertyOp12
 70
     1
102
RTVSPropertyOp13
 70
     1
102
RTVSPropertyOp14
 70
     1
102
RTVSPropertyOp15
 70
     1
102
RTVSPropertyOp16
 70
     1
102
RTVSPropertyOp17
 70
     1
102
RTVSPropertyOp18
 70
     1
102
RTVSPropertyOp19
 70
     1
102
RTVSPropertyOp20
 70
     1
102
RTVSPropertyOp21
 70
     1
102
RTVSPropertyOp22
 70
     1
102
RTVSPropertyOp23
 70
     1
102
RTVSPropertyOp24
 70
     1
102
RTVSPropertyOp25
 70
     1
102
RTVSPropertyOp26
 70
     1
102
RTVSPropertyOp27
 70
     1
102
RTVSPropertyOp28
 70
     1
102
RTVSPropertyOp29
 70
     1
102
RTVSPropertyOp30
 70
     1
102
RTVSPropertyOp31
 70
     1
102
RTVSPropertyOp32
 70
     1
  0
XRECORD
  5
2BC8
102
{ACAD_REACTORS
330
2BC7
102
}
330
2BC7
100
AcDbXrecord
280
     1
102
RTVSPropertyOp0
 70
     1
102
RTVSPropertyOp1
 70
     1
102
RTVSPropertyOp2
 70
     1
102
RTVSPropertyOp3
 70
     1
102
RTVSPropertyOp4
 70
     1
102
RTVSPropertyOp5
 70
     1
102
RTVSPropertyOp6
 70
     1
102
RTVSPropertyOp7
 70
     1
102
RTVSPropertyOp8
 70
     1
102
RTVSPropertyOp9
 70
     1
102
RTVSPropertyOp10
 70
     1
102
RTVSPropertyOp11
 70
     1
102
RTVSPropertyOp12
 70
     1
102
RTVSPropertyOp13
 70
     1
102
RTVSPropertyOp14
 70
     1
102
RTVSPropertyOp15
 70
     1
102
RTVSPropertyOp16
 70
     1
102
RTVSPropertyOp17
 70
     1
102
RTVSPropertyOp18
 70
     1
102
RTVSPropertyOp19
 70
     1
102
RTVSPropertyOp20
 70
     1
102
RTVSPropertyOp21
 70
     1
102
RTVSPropertyOp22
 70
     1
102
RTVSPropertyOp23
 70
     1
102
RTVSPropertyOp24
 70
     1
102
RTVSPropertyOp25
 70
     1
102
RTVSPropertyOp26
 70
     1
102
RTVSPropertyOp27
 70
     1
102
RTVSPropertyOp28
 70
     1
102
RTVSPropertyOp29
 70
     1
102
RTVSPropertyOp30
 70
     1
102
RTVSPropertyOp31
 70
     1
102
RTVSPropertyOp32
 70
     1
  0
XRECORD
  5
2BC6
102
{ACAD_REACTORS
330
2BC5
102
}
330
2BC5
100
AcDbXrecord
280
     1
102
RTVSPropertyOp0
 70
     1
102
RTVSPropertyOp1
 70
     1
102
RTVSPropertyOp2
 70
     1
102
RTVSPropertyOp3
 70
     1
102
RTVSPropertyOp4
 70
     1
102
RTVSPropertyOp5
 70
     1
102
RTVSPropertyOp6
 70
     1
102
RTVSPropertyOp7
 70
     1
102
RTVSPropertyOp8
 70
     1
102
RTVSPropertyOp9
 70
     1
102
RTVSPropertyOp10
 70
     1
102
RTVSPropertyOp11
 70
     1
102
RTVSPropertyOp12
 70
     1
102
RTVSPropertyOp13
 70
     1
102
RTVSPropertyOp14
 70
     1
102
RTVSPropertyOp15
 70
     1
102
RTVSPropertyOp16
 70
     1
102
RTVSPropertyOp17
 70
     1
102
RTVSPropertyOp18
 70
     1
102
RTVSPropertyOp19
 70
     1
102
RTVSPropertyOp20
 70
     1
102
RTVSPropertyOp21
 70
     1
102
RTVSPropertyOp22
 70
     1
102
RTVSPropertyOp23
 70
     1
102
RTVSPropertyOp24
 70
     1
102
RTVSPropertyOp25
 70
     1
102
RTVSPropertyOp26
 70
     1
102
RTVSPropertyOp27
 70
     1
102
RTVSPropertyOp28
 70
     1
102
RTVSPropertyOp29
 70
     1
102
RTVSPropertyOp30
 70
     1
102
RTVSPropertyOp31
 70
     1
102
RTVSPropertyOp32
 70
     1
  0
XRECORD
  5
2BC2
102
{ACAD_REACTORS
330
2BC1
102
}
330
2BC1
100
AcDbXrecord
280
     1
102
RTVSPropertyOp0
 70
     1
102
RTVSPropertyOp1
 70
     1
102
RTVSPropertyOp2
 70
     1
102
RTVSPropertyOp3
 70
     1
102
RTVSPropertyOp4
 70
     1
102
RTVSPropertyOp5
 70
     1
102
RTVSPropertyOp6
 70
     1
102
RTVSPropertyOp7
 70
     1
102
RTVSPropertyOp8
 70
     1
102
RTVSPropertyOp9
 70
     1
102
RTVSPropertyOp10
 70
     1
102
RTVSPropertyOp11
 70
     1
102
RTVSPropertyOp12
 70
     1
102
RTVSPropertyOp13
 70
     1
102
RTVSPropertyOp14
 70
     1
102
RTVSPropertyOp15
 70
     1
102
RTVSPropertyOp16
 70
     1
102
RTVSPropertyOp17
 70
     1
102
RTVSPropertyOp18
 70
     1
102
RTVSPropertyOp19
 70
     1
102
RTVSPropertyOp20
 70
     1
102
RTVSPropertyOp21
 70
     1
102
RTVSPropertyOp22
 70
     1
102
RTVSPropertyOp23
 70
     1
102
RTVSPropertyOp24
 70
     1
102
RTVSPropertyOp25
 70
     1
102
RTVSPropertyOp26
 70
     1
102
RTVSPropertyOp27
 70
     1
102
RTVSPropertyOp28
 70
     1
102
RTVSPropertyOp29
 70
     1
102
RTVSPropertyOp30
 70
     1
102
RTVSPropertyOp31
 70
     1
102
RTVSPropertyOp32
 70
     1
  0
XRECORD
  5
2BD0
102
{ACAD_REACTORS
330
2BCF
102
}
330
2BCF
100
AcDbXrecord
280
     1
102
RTVSPropertyOp0
 70
     1
102
RTVSPropertyOp1
 70
     1
102
RTVSPropertyOp2
 70
     1
102
RTVSPropertyOp3
 70
     1
102
RTVSPropertyOp4
 70
     1
102
RTVSPropertyOp5
 70
     1
102
RTVSPropertyOp6
 70
     1
102
RTVSPropertyOp7
 70
     1
102
RTVSPropertyOp8
 70
     1
102
RTVSPropertyOp9
 70
     1
102
RTVSPropertyOp10
 70
     1
102
RTVSPropertyOp11
 70
     1
102
RTVSPropertyOp12
 70
     1
102
RTVSPropertyOp13
 70
     1
102
RTVSPropertyOp14
 70
     1
102
RTVSPropertyOp15
 70
     1
102
RTVSPropertyOp16
 70
     1
102
RTVSPropertyOp17
 70
     1
102
RTVSPropertyOp18
 70
     1
102
RTVSPropertyOp19
 70
     1
102
RTVSPropertyOp20
 70
     1
102
RTVSPropertyOp21
 70
     1
102
RTVSPropertyOp22
 70
     1
102
RTVSPropertyOp23
 70
     1
102
RTVSPropertyOp24
 70
     1
102
RTVSPropertyOp25
 70
     1
102
RTVSPropertyOp26
 70
     1
102
RTVSPropertyOp27
 70
     1
102
RTVSPropertyOp28
 70
     1
102
RTVSPropertyOp29
 70
     1
102
RTVSPropertyOp30
 70
     1
102
RTVSPropertyOp31
 70
     1
102
RTVSPropertyOp32
 70
     1
  0
XRECORD
  5
2BD8
102
{ACAD_REACTORS
330
2BD7
102
}
330
2BD7
100
AcDbXrecord
280
     1
102
RTVSPropertyOp0
 70
     1
102
RTVSPropertyOp1
 70
     1
102
RTVSPropertyOp2
 70
     1
102
RTVSPropertyOp3
 70
     1
102
RTVSPropertyOp4
 70
     1
102
RTVSPropertyOp5
 70
     1
102
RTVSPropertyOp6
 70
     1
102
RTVSPropertyOp7
 70
     1
102
RTVSPropertyOp8
 70
     1
102
RTVSPropertyOp9
 70
     1
102
RTVSPropertyOp10
 70
     1
102
RTVSPropertyOp11
 70
     1
102
RTVSPropertyOp12
 70
     1
102
RTVSPropertyOp13
 70
     1
102
RTVSPropertyOp14
 70
     1
102
RTVSPropertyOp15
 70
     1
102
RTVSPropertyOp16
 70
     1
102
RTVSPropertyOp17
 70
     1
102
RTVSPropertyOp18
 70
     1
102
RTVSPropertyOp19
 70
     1
102
RTVSPropertyOp20
 70
     1
102
RTVSPropertyOp21
 70
     1
102
RTVSPropertyOp22
 70
     1
102
RTVSPropertyOp23
 70
     1
102
RTVSPropertyOp24
 70
     1
102
RTVSPropertyOp25
 70
     1
102
RTVSPropertyOp26
 70
     1
102
RTVSPropertyOp27
 70
     1
102
RTVSPropertyOp28
 70
     1
102
RTVSPropertyOp29
 70
     1
102
RTVSPropertyOp30
 70
     1
102
RTVSPropertyOp31
 70
     1
102
RTVSPropertyOp32
 70
     1
  0
XRECORD
  5
2BCA
102
{ACAD_REACTORS
330
2BC9
102
}
330
2BC9
100
AcDbXrecord
280
     1
102
RTVSPropertyOp0
 70
     1
102
RTVSPropertyOp1
 70
     1
102
RTVSPropertyOp2
 70
     1
102
RTVSPropertyOp3
 70
     1
102
RTVSPropertyOp4
 70
     1
102
RTVSPropertyOp5
 70
     1
102
RTVSPropertyOp6
 70
     1
102
RTVSPropertyOp7
 70
     1
102
RTVSPropertyOp8
 70
     1
102
RTVSPropertyOp9
 70
     1
102
RTVSPropertyOp10
 70
     1
102
RTVSPropertyOp11
 70
     1
102
RTVSPropertyOp12
 70
     1
102
RTVSPropertyOp13
 70
     1
102
RTVSPropertyOp14
 70
     1
102
RTVSPropertyOp15
 70
     1
102
RTVSPropertyOp16
 70
     1
102
RTVSPropertyOp17
 70
     1
102
RTVSPropertyOp18
 70
     1
102
RTVSPropertyOp19
 70
     1
102
RTVSPropertyOp20
 70
     1
102
RTVSPropertyOp21
 70
     1
102
RTVSPropertyOp22
 70
     1
102
RTVSPropertyOp23
 70
     1
102
RTVSPropertyOp24
 70
     1
102
RTVSPropertyOp25
 70
     1
102
RTVSPropertyOp26
 70
     1
102
RTVSPropertyOp27
 70
     1
102
RTVSPropertyOp28
 70
     1
102
RTVSPropertyOp29
 70
     1
102
RTVSPropertyOp30
 70
     1
102
RTVSPropertyOp31
 70
     1
102
RTVSPropertyOp32
 70
     1
  0
XRECORD
  5
2BCE
102
{ACAD_REACTORS
330
2BCD
102
}
330
2BCD
100
AcDbXrecord
280
     1
102
RTVSPropertyOp0
 70
     1
102
RTVSPropertyOp1
 70
     1
102
RTVSPropertyOp2
 70
     1
102
RTVSPropertyOp3
 70
     1
102
RTVSPropertyOp4
 70
     1
102
RTVSPropertyOp5
 70
     1
102
RTVSPropertyOp6
 70
     1
102
RTVSPropertyOp7
 70
     1
102
RTVSPropertyOp8
 70
     1
102
RTVSPropertyOp9
 70
     1
102
RTVSPropertyOp10
 70
     1
102
RTVSPropertyOp11
 70
     1
102
RTVSPropertyOp12
 70
     1
102
RTVSPropertyOp13
 70
     1
102
RTVSPropertyOp14
 70
     1
102
RTVSPropertyOp15
 70
     1
102
RTVSPropertyOp16
 70
     1
102
RTVSPropertyOp17
 70
     1
102
RTVSPropertyOp18
 70
     1
102
RTVSPropertyOp19
 70
     1
102
RTVSPropertyOp20
 70
     1
102
RTVSPropertyOp21
 70
     1
102
RTVSPropertyOp22
 70
     1
102
RTVSPropertyOp23
 70
     1
102
RTVSPropertyOp24
 70
     1
102
RTVSPropertyOp25
 70
     1
102
RTVSPropertyOp26
 70
     1
102
RTVSPropertyOp27
 70
     1
102
RTVSPropertyOp28
 70
     1
102
RTVSPropertyOp29
 70
     1
102
RTVSPropertyOp30
 70
     1
102
RTVSPropertyOp31
 70
     1
102
RTVSPropertyOp32
 70
     1
  0
XRECORD
  5
2BED
102
{ACAD_REACTORS
330
2BEC
102
}
330
2BEC
100
AcDbXrecord
280
     1
102
RTVSPropertyOp0
 70
     0
102
RTVSPropertyOp1
 70
     0
102
RTVSPropertyOp2
 70
     0
102
RTVSPropertyOp3
 70
     0
102
RTVSPropertyOp4
 70
     0
102
RTVSPropertyOp5
 70
     0
102
RTVSPropertyOp6
 70
     0
102
RTVSPropertyOp7
 70
     0
102
RTVSPropertyOp8
 70
     0
102
RTVSPropertyOp9
 70
     0
102
RTVSPropertyOp10
 70
     0
102
RTVSPropertyOp11
 70
     0
102
RTVSPropertyOp12
 70
     0
102
RTVSPropertyOp13
 70
     0
102
RTVSPropertyOp14
 70
     2
102
RTVSPropertyOp15
 70
     0
102
RTVSPropertyOp16
 70
     0
102
RTVSPropertyOp17
 70
     0
102
RTVSPropertyOp18
 70
     0
102
RTVSPropertyOp19
 70
     0
102
RTVSPropertyOp20
 70
     0
102
RTVSPropertyOp21
 70
     0
102
RTVSPropertyOp22
 70
     0
102
RTVSPropertyOp23
 70
     0
102
RTVSPropertyOp24
 70
     0
102
RTVSPropertyOp25
 70
     0
102
RTVSPropertyOp26
 70
     0
102
RTVSPropertyOp27
 70
     0
102
RTVSPropertyOp28
 70
     0
102
RTVSPropertyOp29
 70
     0
102
RTVSPropertyOp30
 70
     0
102
RTVSPropertyOp31
 70
     0
102
RTVSPropertyOp32
 70
     0
  0
XRECORD
  5
2BD6
102
{ACAD_REACTORS
330
2BD5
102
}
330
2BD5
100
AcDbXrecord
280
     1
102
RTVSPropertyOp0
 70
     1
102
RTVSPropertyOp1
 70
     1
102
RTVSPropertyOp2
 70
     1
102
RTVSPropertyOp3
 70
     1
102
RTVSPropertyOp4
 70
     1
102
RTVSPropertyOp5
 70
     1
102
RTVSPropertyOp6
 70
     1
102
RTVSPropertyOp7
 70
     1
102
RTVSPropertyOp8
 70
     1
102
RTVSPropertyOp9
 70
     1
102
RTVSPropertyOp10
 70
     1
102
RTVSPropertyOp11
 70
     1
102
RTVSPropertyOp12
 70
     1
102
RTVSPropertyOp13
 70
     1
102
RTVSPropertyOp14
 70
     1
102
RTVSPropertyOp15
 70
     1
102
RTVSPropertyOp16
 70
     1
102
RTVSPropertyOp17
 70
     1
102
RTVSPropertyOp18
 70
     1
102
RTVSPropertyOp19
 70
     1
102
RTVSPropertyOp20
 70
     1
102
RTVSPropertyOp21
 70
     1
102
RTVSPropertyOp22
 70
     1
102
RTVSPropertyOp23
 70
     1
102
RTVSPropertyOp24
 70
     1
102
RTVSPropertyOp25
 70
     1
102
RTVSPropertyOp26
 70
     1
102
RTVSPropertyOp27
 70
     1
102
RTVSPropertyOp28
 70
     1
102
RTVSPropertyOp29
 70
     1
102
RTVSPropertyOp30
 70
     1
102
RTVSPropertyOp31
 70
     1
102
RTVSPropertyOp32
 70
     1
  0
XRECORD
  5
2BBA
102
{ACAD_REACTORS
330
2BB9
102
}
330
2BB9
100
AcDbXrecord
280
     1
102
RTVSPropertyOp0
 70
     1
102
RTVSPropertyOp1
 70
     1
102
RTVSPropertyOp2
 70
     1
102
RTVSPropertyOp3
 70
     1
102
RTVSPropertyOp4
 70
     1
102
RTVSPropertyOp5
 70
     1
102
RTVSPropertyOp6
 70
     1
102
RTVSPropertyOp7
 70
     1
102
RTVSPropertyOp8
 70
     1
102
RTVSPropertyOp9
 70
     1
102
RTVSPropertyOp10
 70
     1
102
RTVSPropertyOp11
 70
     1
102
RTVSPropertyOp12
 70
     1
102
RTVSPropertyOp13
 70
     1
102
RTVSPropertyOp14
 70
     1
102
RTVSPropertyOp15
 70
     1
102
RTVSPropertyOp16
 70
     1
102
RTVSPropertyOp17
 70
     1
102
RTVSPropertyOp18
 70
     1
102
RTVSPropertyOp19
 70
     1
102
RTVSPropertyOp20
 70
     1
102
RTVSPropertyOp21
 70
     1
102
RTVSPropertyOp22
 70
     1
102
RTVSPropertyOp23
 70
     1
102
RTVSPropertyOp24
 70
     1
102
RTVSPropertyOp25
 70
     1
102
RTVSPropertyOp26
 70
     1
102
RTVSPropertyOp27
 70
     1
102
RTVSPropertyOp28
 70
     1
102
RTVSPropertyOp29
 70
     1
102
RTVSPropertyOp30
 70
     1
102
RTVSPropertyOp31
 70
     1
102
RTVSPropertyOp32
 70
     1
  0
XRECORD
  5
2BBC
102
{ACAD_REACTORS
330
2BBB
102
}
330
2BBB
100
AcDbXrecord
280
     1
102
RTVSPropertyOp0
 70
     1
102
RTVSPropertyOp1
 70
     1
102
RTVSPropertyOp2
 70
     1
102
RTVSPropertyOp3
 70
     1
102
RTVSPropertyOp4
 70
     1
102
RTVSPropertyOp5
 70
     1
102
RTVSPropertyOp6
 70
     1
102
RTVSPropertyOp7
 70
     1
102
RTVSPropertyOp8
 70
     1
102
RTVSPropertyOp9
 70
     1
102
RTVSPropertyOp10
 70
     1
102
RTVSPropertyOp11
 70
     1
102
RTVSPropertyOp12
 70
     1
102
RTVSPropertyOp13
 70
     1
102
RTVSPropertyOp14
 70
     1
102
RTVSPropertyOp15
 70
     1
102
RTVSPropertyOp16
 70
     1
102
RTVSPropertyOp17
 70
     1
102
RTVSPropertyOp18
 70
     1
102
RTVSPropertyOp19
 70
     1
102
RTVSPropertyOp20
 70
     1
102
RTVSPropertyOp21
 70
     1
102
RTVSPropertyOp22
 70
     1
102
RTVSPropertyOp23
 70
     1
102
RTVSPropertyOp24
 70
     1
102
RTVSPropertyOp25
 70
     1
102
RTVSPropertyOp26
 70
     1
102
RTVSPropertyOp27
 70
     1
102
RTVSPropertyOp28
 70
     1
102
RTVSPropertyOp29
 70
     1
102
RTVSPropertyOp30
 70
     1
102
RTVSPropertyOp31
 70
     1
102
RTVSPropertyOp32
 70
     1
  0
XRECORD
  5
2BBE
102
{ACAD_REACTORS
330
2BBD
102
}
330
2BBD
100
AcDbXrecord
280
     1
102
RTVSPropertyOp0
 70
     1
102
RTVSPropertyOp1
 70
     1
102
RTVSPropertyOp2
 70
     1
102
RTVSPropertyOp3
 70
     1
102
RTVSPropertyOp4
 70
     1
102
RTVSPropertyOp5
 70
     1
102
RTVSPropertyOp6
 70
     1
102
RTVSPropertyOp7
 70
     1
102
RTVSPropertyOp8
 70
     1
102
RTVSPropertyOp9
 70
     1
102
RTVSPropertyOp10
 70
     1
102
RTVSPropertyOp11
 70
     1
102
RTVSPropertyOp12
 70
     1
102
RTVSPropertyOp13
 70
     1
102
RTVSPropertyOp14
 70
     1
102
RTVSPropertyOp15
 70
     1
102
RTVSPropertyOp16
 70
     1
102
RTVSPropertyOp17
 70
     1
102
RTVSPropertyOp18
 70
     1
102
RTVSPropertyOp19
 70
     1
102
RTVSPropertyOp20
 70
     1
102
RTVSPropertyOp21
 70
     1
102
RTVSPropertyOp22
 70
     1
102
RTVSPropertyOp23
 70
     1
102
RTVSPropertyOp24
 70
     1
102
RTVSPropertyOp25
 70
     1
102
RTVSPropertyOp26
 70
     1
102
RTVSPropertyOp27
 70
     1
102
RTVSPropertyOp28
 70
     1
102
RTVSPropertyOp29
 70
     1
102
RTVSPropertyOp30
 70
     1
102
RTVSPropertyOp31
 70
     1
102
RTVSPropertyOp32
 70
     1
  0
XRECORD
  5
2BC0
102
{ACAD_REACTORS
330
2BBF
102
}
330
2BBF
100
AcDbXrecord
280
     1
102
RTVSPropertyOp0
 70
     1
102
RTVSPropertyOp1
 70
     1
102
RTVSPropertyOp2
 70
     1
102
RTVSPropertyOp3
 70
     1
102
RTVSPropertyOp4
 70
     1
102
RTVSPropertyOp5
 70
     1
102
RTVSPropertyOp6
 70
     1
102
RTVSPropertyOp7
 70
     1
102
RTVSPropertyOp8
 70
     1
102
RTVSPropertyOp9
 70
     1
102
RTVSPropertyOp10
 70
     1
102
RTVSPropertyOp11
 70
     1
102
RTVSPropertyOp12
 70
     1
102
RTVSPropertyOp13
 70
     1
102
RTVSPropertyOp14
 70
     1
102
RTVSPropertyOp15
 70
     1
102
RTVSPropertyOp16
 70
     1
102
RTVSPropertyOp17
 70
     1
102
RTVSPropertyOp18
 70
     1
102
RTVSPropertyOp19
 70
     1
102
RTVSPropertyOp20
 70
     1
102
RTVSPropertyOp21
 70
     1
102
RTVSPropertyOp22
 70
     1
102
RTVSPropertyOp23
 70
     1
102
RTVSPropertyOp24
 70
     1
102
RTVSPropertyOp25
 70
     1
102
RTVSPropertyOp26
 70
     1
102
RTVSPropertyOp27
 70
     1
102
RTVSPropertyOp28
 70
     1
102
RTVSPropertyOp29
 70
     1
102
RTVSPropertyOp30
 70
     1
102
RTVSPropertyOp31
 70
     1
102
RTVSPropertyOp32
 70
     1
  0
XRECORD
  5
2BDD
102
{ACAD_REACTORS
330
2BDC
102
}
330
2BDC
100
AcDbXrecord
280
     1
102
RTVSPropertyOp0
 70
     1
102
RTVSPropertyOp1
 70
     1
102
RTVSPropertyOp2
 70
     1
102
RTVSPropertyOp3
 70
     1
102
RTVSPropertyOp4
 70
     1
102
RTVSPropertyOp5
 70
     1
102
RTVSPropertyOp6
 70
     1
102
RTVSPropertyOp7
 70
     1
102
RTVSPropertyOp8
 70
     1
102
RTVSPropertyOp9
 70
     1
102
RTVSPropertyOp10
 70
     1
102
RTVSPropertyOp11
 70
     1
102
RTVSPropertyOp12
 70
     1
102
RTVSPropertyOp13
 70
     1
102
RTVSPropertyOp14
 70
     1
102
RTVSPropertyOp15
 70
     1
102
RTVSPropertyOp16
 70
     1
102
RTVSPropertyOp17
 70
     1
102
RTVSPropertyOp18
 70
     1
102
RTVSPropertyOp19
 70
     1
102
RTVSPropertyOp20
 70
     1
102
RTVSPropertyOp21
 70
     1
102
RTVSPropertyOp22
 70
     1
102
RTVSPropertyOp23
 70
     1
102
RTVSPropertyOp24
 70
     1
102
RTVSPropertyOp25
 70
     1
102
RTVSPropertyOp26
 70
     1
102
RTVSPropertyOp27
 70
     1
102
RTVSPropertyOp28
 70
     1
102
RTVSPropertyOp29
 70
     1
102
RTVSPropertyOp30
 70
     1
102
RTVSPropertyOp31
 70
     1
102
RTVSPropertyOp32
 70
     1
  0
XRECORD
  5
2BE9
102
{ACAD_REACTORS
330
2BE8
102
}
330
2BE8
100
AcDbXrecord
280
     1
102
RTVSPropertyOp0
 70
     0
102
RTVSPropertyOp1
 70
     0
102
RTVSPropertyOp2
 70
     0
102
RTVSPropertyOp3
 70
     0
102
RTVSPropertyOp4
 70
     0
102
RTVSPropertyOp5
 70
     0
102
RTVSPropertyOp6
 70
     0
102
RTVSPropertyOp7
 70
     0
102
RTVSPropertyOp8
 70
     0
102
RTVSPropertyOp9
 70
     0
102
RTVSPropertyOp10
 70
     0
102
RTVSPropertyOp11
 70
     0
102
RTVSPropertyOp12
 70
     0
102
RTVSPropertyOp13
 70
     0
102
RTVSPropertyOp14
 70
     2
102
RTVSPropertyOp15
 70
     0
102
RTVSPropertyOp16
 70
     0
102
RTVSPropertyOp17
 70
     0
102
RTVSPropertyOp18
 70
     0
102
RTVSPropertyOp19
 70
     0
102
RTVSPropertyOp20
 70
     0
102
RTVSPropertyOp21
 70
     0
102
RTVSPropertyOp22
 70
     0
102
RTVSPropertyOp23
 70
     0
102
RTVSPropertyOp24
 70
     0
102
RTVSPropertyOp25
 70
     0
102
RTVSPropertyOp26
 70
     0
102
RTVSPropertyOp27
 70
     0
102
RTVSPropertyOp28
 70
     0
102
RTVSPropertyOp29
 70
     0
102
RTVSPropertyOp30
 70
     0
102
RTVSPropertyOp31
 70
     0
102
RTVSPropertyOp32
 70
     0
  0
XRECORD
  5
2BD4
102
{ACAD_REACTORS
330
2BD3
102
}
330
2BD3
100
AcDbXrecord
280
     1
102
RTVSPropertyOp0
 70
     1
102
RTVSPropertyOp1
 70
     1
102
RTVSPropertyOp2
 70
     1
102
RTVSPropertyOp3
 70
     1
102
RTVSPropertyOp4
 70
     1
102
RTVSPropertyOp5
 70
     1
102
RTVSPropertyOp6
 70
     1
102
RTVSPropertyOp7
 70
     1
102
RTVSPropertyOp8
 70
     1
102
RTVSPropertyOp9
 70
     1
102
RTVSPropertyOp10
 70
     1
102
RTVSPropertyOp11
 70
     1
102
RTVSPropertyOp12
 70
     1
102
RTVSPropertyOp13
 70
     1
102
RTVSPropertyOp14
 70
     1
102
RTVSPropertyOp15
 70
     1
102
RTVSPropertyOp16
 70
     1
102
RTVSPropertyOp17
 70
     1
102
RTVSPropertyOp18
 70
     1
102
RTVSPropertyOp19
 70
     1
102
RTVSPropertyOp20
 70
     1
102
RTVSPropertyOp21
 70
     1
102
RTVSPropertyOp22
 70
     1
102
RTVSPropertyOp23
 70
     1
102
RTVSPropertyOp24
 70
     1
102
RTVSPropertyOp25
 70
     1
102
RTVSPropertyOp26
 70
     1
102
RTVSPropertyOp27
 70
     1
102
RTVSPropertyOp28
 70
     1
102
RTVSPropertyOp29
 70
     1
102
RTVSPropertyOp30
 70
     1
102
RTVSPropertyOp31
 70
     1
102
RTVSPropertyOp32
 70
     1
  0
XRECORD
  5
2BEB
102
{ACAD_REACTORS
330
2BEA
102
}
330
2BEA
100
AcDbXrecord
280
     1
102
RTVSPropertyOp0
 70
     0
102
RTVSPropertyOp1
 70
     0
102
RTVSPropertyOp2
 70
     0
102
RTVSPropertyOp3
 70
     0
102
RTVSPropertyOp4
 70
     0
102
RTVSPropertyOp5
 70
     0
102
RTVSPropertyOp6
 70
     0
102
RTVSPropertyOp7
 70
     0
102
RTVSPropertyOp8
 70
     0
102
RTVSPropertyOp9
 70
     0
102
RTVSPropertyOp10
 70
     0
102
RTVSPropertyOp11
 70
     0
102
RTVSPropertyOp12
 70
     0
102
RTVSPropertyOp13
 70
     0
102
RTVSPropertyOp14
 70
     2
102
RTVSPropertyOp15
 70
     0
102
RTVSPropertyOp16
 70
     0
102
RTVSPropertyOp17
 70
     0
102
RTVSPropertyOp18
 70
     0
102
RTVSPropertyOp19
 70
     0
102
RTVSPropertyOp20
 70
     0
102
RTVSPropertyOp21
 70
     0
102
RTVSPropertyOp22
 70
     0
102
RTVSPropertyOp23
 70
     0
102
RTVSPropertyOp24
 70
     0
102
RTVSPropertyOp25
 70
     0
102
RTVSPropertyOp26
 70
     0
102
RTVSPropertyOp27
 70
     0
102
RTVSPropertyOp28
 70
     0
102
RTVSPropertyOp29
 70
     0
102
RTVSPropertyOp30
 70
     0
102
RTVSPropertyOp31
 70
     0
102
RTVSPropertyOp32
 70
     0
  0
XRECORD
  5
2BCC
102
{ACAD_REACTORS
330
2BCB
102
}
330
2BCB
100
AcDbXrecord
280
     1
102
RTVSPropertyOp0
 70
     1
102
RTVSPropertyOp1
 70
     1
102
RTVSPropertyOp2
 70
     1
102
RTVSPropertyOp3
 70
     1
102
RTVSPropertyOp4
 70
     1
102
RTVSPropertyOp5
 70
     1
102
RTVSPropertyOp6
 70
     1
102
RTVSPropertyOp7
 70
     1
102
RTVSPropertyOp8
 70
     1
102
RTVSPropertyOp9
 70
     1
102
RTVSPropertyOp10
 70
     1
102
RTVSPropertyOp11
 70
     1
102
RTVSPropertyOp12
 70
     1
102
RTVSPropertyOp13
 70
     1
102
RTVSPropertyOp14
 70
     1
102
RTVSPropertyOp15
 70
     1
102
RTVSPropertyOp16
 70
     1
102
RTVSPropertyOp17
 70
     1
102
RTVSPropertyOp18
 70
     1
102
RTVSPropertyOp19
 70
     1
102
RTVSPropertyOp20
 70
     1
102
RTVSPropertyOp21
 70
     1
102
RTVSPropertyOp22
 70
     1
102
RTVSPropertyOp23
 70
     1
102
RTVSPropertyOp24
 70
     1
102
RTVSPropertyOp25
 70
     1
102
RTVSPropertyOp26
 70
     1
102
RTVSPropertyOp27
 70
     1
102
RTVSPropertyOp28
 70
     1
102
RTVSPropertyOp29
 70
     1
102
RTVSPropertyOp30
 70
     1
102
RTVSPropertyOp31
 70
     1
102
RTVSPropertyOp32
 70
     1
  0
XRECORD
  5
2BE7
102
{ACAD_REACTORS
330
2BE6
102
}
330
2BE6
100
AcDbXrecord
280
     1
102
RTVSPropertyOp0
 70
     1
102
RTVSPropertyOp1
 70
     1
102
RTVSPropertyOp2
 70
     1
102
RTVSPropertyOp3
 70
     1
102
RTVSPropertyOp4
 70
     1
102
RTVSPropertyOp5
 70
     1
102
RTVSPropertyOp6
 70
     1
102
RTVSPropertyOp7
 70
     1
102
RTVSPropertyOp8
 70
     1
102
RTVSPropertyOp9
 70
     1
102
RTVSPropertyOp10
 70
     1
102
RTVSPropertyOp11
 70
     1
102
RTVSPropertyOp12
 70
     1
102
RTVSPropertyOp13
 70
     1
102
RTVSPropertyOp14
 70
     1
102
RTVSPropertyOp15
 70
     1
102
RTVSPropertyOp16
 70
     1
102
RTVSPropertyOp17
 70
     1
102
RTVSPropertyOp18
 70
     1
102
RTVSPropertyOp19
 70
     1
102
RTVSPropertyOp20
 70
     1
102
RTVSPropertyOp21
 70
     1
102
RTVSPropertyOp22
 70
     1
102
RTVSPropertyOp23
 70
     1
102
RTVSPropertyOp24
 70
     1
102
RTVSPropertyOp25
 70
     1
102
RTVSPropertyOp26
 70
     1
102
RTVSPropertyOp27
 70
     1
102
RTVSPropertyOp28
 70
     1
102
RTVSPropertyOp29
 70
     1
102
RTVSPropertyOp30
 70
     1
102
RTVSPropertyOp31
 70
     1
102
RTVSPropertyOp32
 70
     1
  0
XRECORD
  5
2BE5
102
{ACAD_REACTORS
330
2BE4
102
}
330
2BE4
100
AcDbXrecord
280
     1
102
RTVSPropertyOp0
 70
     1
102
RTVSPropertyOp1
 70
     1
102
RTVSPropertyOp2
 70
     1
102
RTVSPropertyOp3
 70
     1
102
RTVSPropertyOp4
 70
     1
102
RTVSPropertyOp5
 70
     1
102
RTVSPropertyOp6
 70
     1
102
RTVSPropertyOp7
 70
     1
102
RTVSPropertyOp8
 70
     1
102
RTVSPropertyOp9
 70
     1
102
RTVSPropertyOp10
 70
     1
102
RTVSPropertyOp11
 70
     1
102
RTVSPropertyOp12
 70
     1
102
RTVSPropertyOp13
 70
     1
102
RTVSPropertyOp14
 70
     1
102
RTVSPropertyOp15
 70
     1
102
RTVSPropertyOp16
 70
     1
102
RTVSPropertyOp17
 70
     1
102
RTVSPropertyOp18
 70
     1
102
RTVSPropertyOp19
 70
     1
102
RTVSPropertyOp20
 70
     1
102
RTVSPropertyOp21
 70
     1
102
RTVSPropertyOp22
 70
     1
102
RTVSPropertyOp23
 70
     1
102
RTVSPropertyOp24
 70
     1
102
RTVSPropertyOp25
 70
     1
102
RTVSPropertyOp26
 70
     1
102
RTVSPropertyOp27
 70
     1
102
RTVSPropertyOp28
 70
     1
102
RTVSPropertyOp29
 70
     1
102
RTVSPropertyOp30
 70
     1
102
RTVSPropertyOp31
 70
     1
102
RTVSPropertyOp32
 70
     1
  0
XRECORD
  5
2BDF
102
{ACAD_REACTORS
330
2BDE
102
}
330
2BDE
100
AcDbXrecord
280
     1
102
RTVSPropertyOp0
 70
     1
102
RTVSPropertyOp1
 70
     1
102
RTVSPropertyOp2
 70
     1
102
RTVSPropertyOp3
 70
     1
102
RTVSPropertyOp4
 70
     1
102
RTVSPropertyOp5
 70
     1
102
RTVSPropertyOp6
 70
     1
102
RTVSPropertyOp7
 70
     1
102
RTVSPropertyOp8
 70
     1
102
RTVSPropertyOp9
 70
     1
102
RTVSPropertyOp10
 70
     1
102
RTVSPropertyOp11
 70
     1
102
RTVSPropertyOp12
 70
     1
102
RTVSPropertyOp13
 70
     1
102
RTVSPropertyOp14
 70
     1
102
RTVSPropertyOp15
 70
     1
102
RTVSPropertyOp16
 70
     1
102
RTVSPropertyOp17
 70
     1
102
RTVSPropertyOp18
 70
     1
102
RTVSPropertyOp19
 70
     1
102
RTVSPropertyOp20
 70
     1
102
RTVSPropertyOp21
 70
     1
102
RTVSPropertyOp22
 70
     1
102
RTVSPropertyOp23
 70
     1
102
RTVSPropertyOp24
 70
     1
102
RTVSPropertyOp25
 70
     1
102
RTVSPropertyOp26
 70
     1
102
RTVSPropertyOp27
 70
     1
102
RTVSPropertyOp28
 70
     1
102
RTVSPropertyOp29
 70
     1
102
RTVSPropertyOp30
 70
     1
102
RTVSPropertyOp31
 70
     1
102
RTVSPropertyOp32
 70
     1
  0
XRECORD
  5
2BE1
102
{ACAD_REACTORS
330
2BE0
102
}
330
2BE0
100
AcDbXrecord
280
     1
102
RTVSPropertyOp0
 70
     1
102
RTVSPropertyOp1
 70
     1
102
RTVSPropertyOp2
 70
     1
102
RTVSPropertyOp3
 70
     1
102
RTVSPropertyOp4
 70
     1
102
RTVSPropertyOp5
 70
     1
102
RTVSPropertyOp6
 70
     1
102
RTVSPropertyOp7
 70
     1
102
RTVSPropertyOp8
 70
     1
102
RTVSPropertyOp9
 70
     1
102
RTVSPropertyOp10
 70
     1
102
RTVSPropertyOp11
 70
     1
102
RTVSPropertyOp12
 70
     1
102
RTVSPropertyOp13
 70
     1
102
RTVSPropertyOp14
 70
     1
102
RTVSPropertyOp15
 70
     1
102
RTVSPropertyOp16
 70
     1
102
RTVSPropertyOp17
 70
     1
102
RTVSPropertyOp18
 70
     1
102
RTVSPropertyOp19
 70
     1
102
RTVSPropertyOp20
 70
     1
102
RTVSPropertyOp21
 70
     1
102
RTVSPropertyOp22
 70
     1
102
RTVSPropertyOp23
 70
     1
102
RTVSPropertyOp24
 70
     1
102
RTVSPropertyOp25
 70
     1
102
RTVSPropertyOp26
 70
     1
102
RTVSPropertyOp27
 70
     1
102
RTVSPropertyOp28
 70
     1
102
RTVSPropertyOp29
 70
     1
102
RTVSPropertyOp30
 70
     1
102
RTVSPropertyOp31
 70
     1
102
RTVSPropertyOp32
 70
     1
  0
XRECORD
  5
2BD2
102
{ACAD_REACTORS
330
2BD1
102
}
330
2BD1
100
AcDbXrecord
280
     1
102
RTVSPropertyOp0
 70
     1
102
RTVSPropertyOp1
 70
     1
102
RTVSPropertyOp2
 70
     1
102
RTVSPropertyOp3
 70
     1
102
RTVSPropertyOp4
 70
     1
102
RTVSPropertyOp5
 70
     1
102
RTVSPropertyOp6
 70
     1
102
RTVSPropertyOp7
 70
     1
102
RTVSPropertyOp8
 70
     1
102
RTVSPropertyOp9
 70
     1
102
RTVSPropertyOp10
 70
     1
102
RTVSPropertyOp11
 70
     1
102
RTVSPropertyOp12
 70
     1
102
RTVSPropertyOp13
 70
     1
102
RTVSPropertyOp14
 70
     1
102
RTVSPropertyOp15
 70
     1
102
RTVSPropertyOp16
 70
     1
102
RTVSPropertyOp17
 70
     1
102
RTVSPropertyOp18
 70
     1
102
RTVSPropertyOp19
 70
     1
102
RTVSPropertyOp20
 70
     1
102
RTVSPropertyOp21
 70
     1
102
RTVSPropertyOp22
 70
     1
102
RTVSPropertyOp23
 70
     1
102
RTVSPropertyOp24
 70
     1
102
RTVSPropertyOp25
 70
     1
102
RTVSPropertyOp26
 70
     1
102
RTVSPropertyOp27
 70
     1
102
RTVSPropertyOp28
 70
     1
102
RTVSPropertyOp29
 70
     1
102
RTVSPropertyOp30
 70
     1
102
RTVSPropertyOp31
 70
     1
102
RTVSPropertyOp32
 70
     1
  0
XRECORD
  5
2BDB
102
{ACAD_REACTORS
330
2BDA
102
}
330
2BDA
100
AcDbXrecord
280
     1
102
RTVSPropertyOp0
 70
     1
102
RTVSPropertyOp1
 70
     1
102
RTVSPropertyOp2
 70
     1
102
RTVSPropertyOp3
 70
     1
102
RTVSPropertyOp4
 70
     1
102
RTVSPropertyOp5
 70
     1
102
RTVSPropertyOp6
 70
     1
102
RTVSPropertyOp7
 70
     1
102
RTVSPropertyOp8
 70
     1
102
RTVSPropertyOp9
 70
     1
102
RTVSPropertyOp10
 70
     1
102
RTVSPropertyOp11
 70
     1
102
RTVSPropertyOp12
 70
     1
102
RTVSPropertyOp13
 70
     1
102
RTVSPropertyOp14
 70
     1
102
RTVSPropertyOp15
 70
     1
102
RTVSPropertyOp16
 70
     1
102
RTVSPropertyOp17
 70
     1
102
RTVSPropertyOp18
 70
     1
102
RTVSPropertyOp19
 70
     1
102
RTVSPropertyOp20
 70
     1
102
RTVSPropertyOp21
 70
     1
102
RTVSPropertyOp22
 70
     1
102
RTVSPropertyOp23
 70
     1
102
RTVSPropertyOp24
 70
     1
102
RTVSPropertyOp25
 70
     1
102
RTVSPropertyOp26
 70
     1
102
RTVSPropertyOp27
 70
     1
102
RTVSPropertyOp28
 70
     1
102
RTVSPropertyOp29
 70
     1
102
RTVSPropertyOp30
 70
     1
102
RTVSPropertyOp31
 70
     1
102
RTVSPropertyOp32
 70
     1
  0
XRECORD
  5
2BE3
102
{ACAD_REACTORS
330
2BE2
102
}
330
2BE2
100
AcDbXrecord
280
     1
102
RTVSPropertyOp0
 70
     1
102
RTVSPropertyOp1
 70
     1
102
RTVSPropertyOp2
 70
     1
102
RTVSPropertyOp3
 70
     1
102
RTVSPropertyOp4
 70
     1
102
RTVSPropertyOp5
 70
     1
102
RTVSPropertyOp6
 70
     1
102
RTVSPropertyOp7
 70
     1
102
RTVSPropertyOp8
 70
     1
102
RTVSPropertyOp9
 70
     1
102
RTVSPropertyOp10
 70
     1
102
RTVSPropertyOp11
 70
     1
102
RTVSPropertyOp12
 70
     1
102
RTVSPropertyOp13
 70
     1
102
RTVSPropertyOp14
 70
     1
102
RTVSPropertyOp15
 70
     1
102
RTVSPropertyOp16
 70
     1
102
RTVSPropertyOp17
 70
     1
102
RTVSPropertyOp18
 70
     1
102
RTVSPropertyOp19
 70
     1
102
RTVSPropertyOp20
 70
     1
102
RTVSPropertyOp21
 70
     1
102
RTVSPropertyOp22
 70
     1
102
RTVSPropertyOp23
 70
     1
102
RTVSPropertyOp24
 70
     1
102
RTVSPropertyOp25
 70
     1
102
RTVSPropertyOp26
 70
     1
102
RTVSPropertyOp27
 70
     1
102
RTVSPropertyOp28
 70
     1
102
RTVSPropertyOp29
 70
     1
102
RTVSPropertyOp30
 70
     1
102
RTVSPropertyOp31
 70
     1
102
RTVSPropertyOp32
 70
     1
  0
ENDSEC
  0
EOF
